  0
SECTION
  2
HEADER
  9
$ACADVER
  1
AC1021
  9
$ACADMAINTVER
 70
    25
  9
$DWGCODEPAGE
  3
ANSI_1252
  9
$INSBASE
 10
0.0
 20
0.0
 30
0.0
  9
$EXTMIN
 10
0.0
 20
0.0
 30
0.0
  9
$EXTMAX
 10
210.0
 20
297.0
 30
0.0
  9
$LIMMIN
 10
0.0
 20
0.0
  9
$LIMMAX
 10
210.0
 20
297.0
  9
$ORTHOMODE
 70
     0
  9
$REGENMODE
 70
     1
  9
$FILLMODE
 70
     1
  9
$QTEXTMODE
 70
     0
  9
$MIRRTEXT
 70
     1
  9
$LTSCALE
 40
1.0
  9
$ATTMODE
 70
     1
  9
$TEXTSIZE
 40
2.2
  9
$TRACEWID
 40
1.0
  9
$TEXTSTYLE
  7
Standard
  9
$CLAYER
  8
0
  9
$CELTYPE
  6
ByLayer
  9
$CECOLOR
 62
   256
  9
$CELTSCALE
 40
1.0
  9
$DISPSILH
 70
     0
  9
$DIMSCALE
 40
1.0
  9
$DIMASZ
 40
2.5
  9
$DIMEXO
 40
0.625
  9
$DIMDLI
 40
3.75
  9
$DIMRND
 40
0.0
  9
$DIMDLE
 40
0.0
  9
$DIMEXE
 40
1.25
  9
$DIMTP
 40
0.0
  9
$DIMTM
 40
0.0
  9
$DIMTXT
 40
2.5
  9
$DIMCEN
 40
2.5
  9
$DIMTSZ
 40
0.0
  9
$DIMTOL
 70
     0
  9
$DIMLIM
 70
     0
  9
$DIMTIH
 70
     0
  9
$DIMTOH
 70
     0
  9
$DIMSE1
 70
     0
  9
$DIMSE2
 70
     0
  9
$DIMTAD
 70
     1
  9
$DIMZIN
 70
     8
  9
$DIMBLK
  1

  9
$DIMASO
 70
     1
  9
$DIMSHO
 70
     1
  9
$DIMPOST
  1

  9
$DIMAPOST
  1

  9
$DIMALT
 70
     0
  9
$DIMALTD
 70
     3
  9
$DIMALTF
 40
0.0393700787
  9
$DIMLFAC
 40
1.0
  9
$DIMTOFL
 70
     1
  9
$DIMTVP
 40
0.0
  9
$DIMTIX
 70
     0
  9
$DIMSOXD
 70
     0
  9
$DIMSAH
 70
     0
  9
$DIMBLK1
  1

  9
$DIMBLK2
  1

  9
$DIMSTYLE
  2
ISO-25
  9
$DIMCLRD
 70
     0
  9
$DIMCLRE
 70
     0
  9
$DIMCLRT
 70
     0
  9
$DIMTFAC
 40
1.0
  9
$DIMGAP
 40
0.625
  9
$DIMJUST
 70
     0
  9
$DIMSD1
 70
     0
  9
$DIMSD2
 70
     0
  9
$DIMTOLJ
 70
     0
  9
$DIMTZIN
 70
     8
  9
$DIMALTZ
 70
     0
  9
$DIMALTTZ
 70
     0
  9
$DIMUPT
 70
     0
  9
$DIMDEC
 70
     2
  9
$DIMTDEC
 70
     2
  9
$DIMALTU
 70
     2
  9
$DIMALTTD
 70
     3
  9
$DIMTXSTY
  7
Standard
  9
$DIMAUNIT
 70
     0
  9
$DIMADEC
 70
     0
  9
$DIMALTRND
 40
0.0
  9
$DIMAZIN
 70
     0
  9
$DIMDSEP
 70
    44
  9
$DIMATFIT
 70
     3
  9
$DIMFRAC
 70
     0
  9
$DIMLDRBLK
  1

  9
$DIMLUNIT
 70
     2
  9
$DIMLWD
 70
    -2
  9
$DIMLWE
 70
    -2
  9
$DIMTMOVE
 70
     0
  9
$DIMFXL
 40
1.0
  9
$DIMFXLON
 70
     0
  9
$DIMJOGANG
 40
0.7853981634
  9
$DIMTFILL
 70
     0
  9
$DIMTFILLCLR
 70
     0
  9
$DIMARCSYM
 70
     0
  9
$DIMLTYPE
  6

  9
$DIMLTEX1
  6

  9
$DIMLTEX2
  6

  9
$LUNITS
 70
     2
  9
$LUPREC
 70
     4
  9
$SKETCHINC
 40
1.0
  9
$FILLETRAD
 40
10.0
  9
$AUNITS
 70
     0
  9
$AUPREC
 70
     0
  9
$MENU
  1
.
  9
$ELEVATION
 40
0.0
  9
$PELEVATION
 40
0.0
  9
$THICKNESS
 40
0.0
  9
$LIMCHECK
 70
     0
  9
$CHAMFERA
 40
0.0
  9
$CHAMFERB
 40
0.0
  9
$CHAMFERC
 40
0.0
  9
$CHAMFERD
 40
0.0
  9
$SKPOLY
 70
     0
  9
$TDCREATE
 40
2460276.470228935
  9
$TDUCREATE
 40
2460276.428562269
  9
$TDUPDATE
 40
2460276.4702389
  9
$TDUUPDATE
 40
2460276.428572234
  9
$TDINDWG
 40
0.0000000116
  9
$TDUSRTIMER
 40
0.0000000116
  9
$USRTIMER
 70
     1
  9
$ANGBASE
 50
0.0
  9
$ANGDIR
 70
     0
  9
$PDMODE
 70
     0
  9
$PDSIZE
 40
0.0
  9
$PLINEWID
 40
0.0
  9
$SPLFRAME
 70
     0
  9
$SPLINETYPE
 70
     6
  9
$SPLINESEGS
 70
     8
  9
$HANDSEED
  5
28D
  9
$SURFTAB1
 70
     6
  9
$SURFTAB2
 70
     6
  9
$SURFTYPE
 70
     6
  9
$SURFU
 70
     6
  9
$SURFV
 70
     6
  9
$UCSBASE
  2

  9
$UCSNAME
  2

  9
$UCSORG
 10
0.0
 20
0.0
 30
0.0
  9
$UCSXDIR
 10
1.0
 20
0.0
 30
0.0
  9
$UCSYDIR
 10
0.0
 20
1.0
 30
0.0
  9
$UCSORTHOREF
  2

  9
$UCSORTHOVIEW
 70
     0
  9
$UCSORGTOP
 10
0.0
 20
0.0
 30
0.0
  9
$UCSORGBOTTOM
 10
0.0
 20
0.0
 30
0.0
  9
$UCSORGLEFT
 10
0.0
 20
0.0
 30
0.0
  9
$UCSORGRIGHT
 10
0.0
 20
0.0
 30
0.0
  9
$UCSORGFRONT
 10
0.0
 20
0.0
 30
0.0
  9
$UCSORGBACK
 10
0.0
 20
0.0
 30
0.0
  9
$PUCSBASE
  2

  9
$PUCSNAME
  2

  9
$PUCSORG
 10
0.0
 20
0.0
 30
0.0
  9
$PUCSXDIR
 10
1.0
 20
0.0
 30
0.0
  9
$PUCSYDIR
 10
0.0
 20
1.0
 30
0.0
  9
$PUCSORTHOREF
  2

  9
$PUCSORTHOVIEW
 70
     0
  9
$PUCSORGTOP
 10
0.0
 20
0.0
 30
0.0
  9
$PUCSORGBOTTOM
 10
0.0
 20
0.0
 30
0.0
  9
$PUCSORGLEFT
 10
0.0
 20
0.0
 30
0.0
  9
$PUCSORGRIGHT
 10
0.0
 20
0.0
 30
0.0
  9
$PUCSORGFRONT
 10
0.0
 20
0.0
 30
0.0
  9
$PUCSORGBACK
 10
0.0
 20
0.0
 30
0.0
  9
$USERI1
 70
     0
  9
$USERI2
 70
     0
  9
$USERI3
 70
     0
  9
$USERI4
 70
     0
  9
$USERI5
 70
     0
  9
$USERR1
 40
0.0
  9
$USERR2
 40
0.0
  9
$USERR3
 40
0.0
  9
$USERR4
 40
0.0
  9
$USERR5
 40
0.0
  9
$WORLDVIEW
 70
     1
  9
$SHADEDGE
 70
     3
  9
$SHADEDIF
 70
    70
  9
$TILEMODE
 70
     1
  9
$MAXACTVP
 70
    64
  9
$PINSBASE
 10
0.0
 20
0.0
 30
0.0
  9
$PLIMCHECK
 70
     0
  9
$PEXTMIN
 10
0.0
 20
0.0
 30
0.0
  9
$PEXTMAX
 10
210.0
 20
297.0
 30
0.0
  9
$PLIMMIN
 10
0.0
 20
0.0
  9
$PLIMMAX
 10
210.0
 20
297.0
  9
$UNITMODE
 70
     0
  9
$VISRETAIN
 70
     1
  9
$PLINEGEN
 70
     0
  9
$PSLTSCALE
 70
     1
  9
$TREEDEPTH
 70
  3020
  9
$CMLSTYLE
  2
Standard
  9
$CMLJUST
 70
     0
  9
$CMLSCALE
 40
20.0
  9
$PROXYGRAPHICS
 70
     1
  9
$MEASUREMENT
 70
     1
  9
$CELWEIGHT
370
    -1
  9
$ENDCAPS
280
     0
  9
$JOINSTYLE
280
     0
  9
$LWDISPLAY
290
     0
  9
$INSUNITS
 70
     4
  9
$HYPERLINKBASE
  1

  9
$STYLESHEET
  1

  9
$XEDIT
290
     1
  9
$CEPSNTYPE
380
     0
  9
$PSTYLEMODE
290
     1
  9
$FINGERPRINTGUID
  2
{ee30578d-3c6c-45cc-a5bb-6341b3d7f55d}
  9
$VERSIONGUID
  2
{FAEB1C32-E019-11D5-929B-00C0DF256EC4}
  9
$EXTNAMES
290
     1
  9
$PSVPSCALE
 40
0.0
  9
$OLESTARTUP
290
     0
  9
$SORTENTS
280
   127
  9
$INDEXCTL
280
     0
  9
$HIDETEXT
280
     1
  9
$XCLIPFRAME
290
     0
  9
$HALOGAP
280
     0
  9
$OBSCOLOR
 70
   257
  9
$OBSLTYPE
280
     0
  9
$INTERSECTIONDISPLAY
280
     0
  9
$INTERSECTIONCOLOR
 70
   257
  9
$DIMASSOC
280
     2
  9
$PROJECTNAME
  1

  9
$CAMERADISPLAY
290
     0
  9
$LENSLENGTH
 40
50.0
  9
$CAMERAHEIGHT
 40
0.0
  9
$STEPSPERSEC
 40
2.0
  9
$STEPSIZE
 40
6.0
  9
$3DDWFPREC
 40
2.0
  9
$PSOLWIDTH
 40
5.0
  9
$PSOLHEIGHT
 40
80.0
  9
$LOFTANG1
 40
1.5707963268
  9
$LOFTANG2
 40
1.5707963268
  9
$LOFTMAG1
 40
0.0
  9
$LOFTMAG2
 40
0.0
  9
$LOFTPARAM
 70
     7
  9
$LOFTNORMALS
280
     1
  9
$LATITUDE
 40
37.795
  9
$LONGITUDE
 40
-122.394
  9
$NORTHDIRECTION
 40
0.0
  9
$TIMEZONE
 70
 -8000
  9
$LIGHTGLYPHDISPLAY
280
     1
  9
$TILEMODELIGHTSYNCH
280
     1
  9
$CMATERIAL
347
44
  9
$SOLIDHIST
280
     0
  9
$SHOWHIST
280
     1
  9
$DWFFRAME
280
     2
  9
$DGNFRAME
280
     2
  9
$REALWORLDSCALE
290
     1
  9
$INTERFERECOLOR
 62
   256
  9
$CSHADOW
280
     0
  9
$SHADOWPLANELOCATION
 40
0.0
  0
ENDSEC
  0
SECTION
  2
CLASSES
  0
CLASS
  1
ACDBDICTIONARYWDFLT
  2
AcDbDictionaryWithDefault
  3
ObjectDBX Classes
 90
        0
 91
        3
280
     0
281
     0
  0
CLASS
  1
VISUALSTYLE
  2
AcDbVisualStyle
  3
ObjectDBX Classes
 90
     4095
 91
        3
280
     0
281
     0
  0
CLASS
  1
MATERIAL
  2
AcDbMaterial
  3
ObjectDBX Classes
 90
     1153
 91
        3
280
     0
281
     0
  0
CLASS
  1
SCALE
  2
AcDbScale
  3
ObjectDBX Classes
 90
     1153
 91
        3
280
     0
281
     0
  0
CLASS
  1
TABLESTYLE
  2
AcDbTableStyle
  3
ObjectDBX Classes
 90
     4095
 91
        3
280
     0
281
     0
  0
CLASS
  1
MLEADERSTYLE
  2
AcDbMLeaderStyle
  3
ACDB_MLEADERSTYLE_CLASS
 90
     4095
 91
        3
280
     0
281
     0
  0
CLASS
  1
SUN
  2
AcDbSun
  3
SCENEOE
 90
     1153
 91
        3
280
     0
281
     0
  0
CLASS
  1
MULTILEADER
  2
AcDbMLeader
  3
ACDB_MLEADER_CLASS
 90
     1025
 91
        3
280
     0
281
     1
  0
CLASS
  1
RASTERVARIABLES
  2
AcDbRasterVariables
  3
ISM
 90
        0
 91
        3
280
     0
281
     0
  0
CLASS
  1
IMAGEDEF
  2
AcDbRasterImageDef
  3
ISM
 90
        0
 91
        3
280
     0
281
     0
  0
CLASS
  1
IMAGE
  2
AcDbRasterImage
  3
ISM
 90
      127
 91
        4
280
     0
281
     1
  0
CLASS
  1
IMAGEDEF_REACTOR
  2
AcDbRasterImageDefReactor
  3
ISM
 90
        1
 91
        3
280
     0
281
     0
  0
CLASS
  1
DICTIONARYVAR
  2
AcDbDictionaryVar
  3
ObjectDBX Classes
 90
        0
 91
        3
280
     0
281
     0
  0
CLASS
  1
CELLSTYLEMAP
  2
AcDbCellStyleMap
  3
ObjectDBX Classes
 90
     1152
 91
        3
280
     0
281
     0
  0
ENDSEC
  0
SECTION
  2
TABLES
  0
TABLE
  2
VPORT
  5
8
330
0
100
AcDbSymbolTable
 70
     1
  0
VPORT
  5
29
330
8
100
AcDbSymbolTableRecord
100
AcDbViewportTableRecord
  2
*Active
 70
     0
 10
0.0
 20
0.0
 11
1.0
 21
1.0
 12
344.1869158879
 22
148.5
 13
0.0
 23
0.0
 14
10.0
 24
10.0
 15
10.0
 25
10.0
 16
0.0
 26
0.0
 36
1.0
 17
0.0
 27
0.0
 37
0.0
 40
297.0
 41
1.9729729729
 42
50.0
 43
0.0
 44
0.0
 50
0.0
 51
0.0
 71
     0
 72
   100
 73
     1
 74
     3
 75
     0
 76
     0
 77
     0
 78
     0
281
     0
 65
     1
110
0.0
120
0.0
130
0.0
111
1.0
121
0.0
131
0.0
112
0.0
122
1.0
132
0.0
 79
     0
146
0.0
348
2F
 60
     3
 61
     5
292
     1
282
     1
141
0.0
142
0.0
 63
   250
361
6D
  0
ENDTAB
  0
TABLE
  2
LTYPE
  5
5
330
0
100
AcDbSymbolTable
 70
     1
  0
LTYPE
  5
14
330
5
100
AcDbSymbolTableRecord
100
AcDbLinetypeTableRecord
  2
ByBlock
 70
     0
  3

 72
    65
 73
     0
 40
0.0
  0
LTYPE
  5
15
330
5
100
AcDbSymbolTableRecord
100
AcDbLinetypeTableRecord
  2
ByLayer
 70
     0
  3

 72
    65
 73
     0
 40
0.0
  0
LTYPE
  5
16
330
5
100
AcDbSymbolTableRecord
100
AcDbLinetypeTableRecord
  2
Continuous
 70
     0
  3
Solid line
 72
    65
 73
     0
 40
0.0
  0
ENDTAB
  0
TABLE
  2
LAYER
  5
2
330
0
100
AcDbSymbolTable
 70
     9
  0
LAYER
  5
10
330
2
100
AcDbSymbolTableRecord
100
AcDbLayerTableRecord
  2
0
 70
     0
 62
     7
  6
Continuous
370
    -3
390
F
347
46
  0
LAYER
  5
6E
330
2
100
AcDbSymbolTableRecord
100
AcDbLayerTableRecord
  2
Standard
 70
     0
 62
     7
  6
Continuous
370
    -3
390
F
347
46
  0
LAYER
  5
71
330
2
100
AcDbSymbolTableRecord
100
AcDbLayerTableRecord
  2
DV1_Füllung
 70
     1
 62
    -7
  6
Continuous
370
    -3
390
F
347
46
  0
LAYER
  5
73
330
2
100
AcDbSymbolTableRecord
100
AcDbLayerTableRecord
  2
DV1_Standard
 70
     0
 62
     7
  6
Continuous
370
    -3
390
F
347
46
  0
LAYER
  5
141
330
2
100
AcDbSymbolTableRecord
100
AcDbLayerTableRecord
  2
DV2_Füllung
 70
     1
 62
    -7
  6
Continuous
370
    -3
390
F
347
46
  0
LAYER
  5
143
330
2
100
AcDbSymbolTableRecord
100
AcDbLayerTableRecord
  2
DV2_Standard
 70
     0
 62
     7
  6
Continuous
370
    -3
390
F
347
46
  0
LAYER
  5
1FC
330
2
100
AcDbSymbolTableRecord
100
AcDbLayerTableRecord
  2
50555_ABC_SPAX_S
 70
     0
 62
     7
  6
Continuous
370
    -3
390
F
347
46
  0
LAYER
  5
225
330
2
100
AcDbSymbolTableRecord
100
AcDbLayerTableRecord
  2
Default
 70
     0
 62
     7
  6
Continuous
370
    -3
390
F
347
46
  0
LAYER
  5
244
330
2
100
AcDbSymbolTableRecord
100
AcDbLayerTableRecord
  2
Skizziergeometrie(DIN)
 70
     0
 62
     7
  6
Continuous
370
    -3
390
F
347
46
  0
ENDTAB
  0
TABLE
  2
STYLE
  5
3
330
0
100
AcDbSymbolTable
 70
     2
  0
STYLE
  5
11
330
3
100
AcDbSymbolTableRecord
100
AcDbTextStyleTableRecord
  2
Standard
 70
     0
 40
0.0
 41
1.0
 50
0.0
 71
     0
 42
2.2
  3
txt
  4

  0
STYLE
  5
13A
330
3
100
AcDbSymbolTableRecord
100
AcDbTextStyleTableRecord
  2
SEACAD_Arial
 70
     0
 40
0.0
 41
1.0
 50
0.0
 71
     0
 42
2.5
  3

  4

1001
ACAD
1000
Arial
1071
        0
  0
ENDTAB
  0
TABLE
  2
VIEW
  5
6
330
0
100
AcDbSymbolTable
 70
     0
  0
ENDTAB
  0
TABLE
  2
UCS
  5
7
330
0
100
AcDbSymbolTable
 70
     0
  0
ENDTAB
  0
TABLE
  2
APPID
  5
9
330
0
100
AcDbSymbolTable
 70
     2
  0
APPID
  5
12
330
9
100
AcDbSymbolTableRecord
100
AcDbRegAppTableRecord
  2
ACAD
 70
     0
  0
APPID
  5
24E
330
9
100
AcDbSymbolTableRecord
100
AcDbRegAppTableRecord
  2
ACAD_MLEADERVER
 70
     0
  0
ENDTAB
  0
TABLE
  2
DIMSTYLE
  5
A
330
0
100
AcDbSymbolTable
 70
     3
100
AcDbDimStyleTable
  0
DIMSTYLE
105
27
330
A
100
AcDbSymbolTableRecord
100
AcDbDimStyleTableRecord
  2
ISO-25
 70
     0
 41
2.5
 42
0.625
 43
3.75
 44
1.25
 73
     0
 74
     0
 77
     1
 78
     8
140
2.5
141
2.5
143
0.0393700787
147
0.625
171
     3
172
     1
178
     0
271
     2
272
     2
274
     3
278
    44
283
     0
284
     8
340
11
  0
DIMSTYLE
105
12A
330
A
100
AcDbSymbolTableRecord
100
AcDbDimStyleTableRecord
  2
Standard
 70
     0
178
     0
340
11
  0
DIMSTYLE
105
13B
102
{ACAD_REACTORS
330
13C
330
13D
330
13E
102
}
330
A
100
AcDbSymbolTableRecord
100
AcDbDimStyleTableRecord
  2
E-Katalog
 70
     0
 41
3.75
 42
0.75
 44
1.25
 73
     0
 74
     0
 77
     1
 78
     8
140
2.5
141
1.25
143
0.0393700787
146
0.7
147
0.625
172
     1
173
     1
178
     0
271
     0
272
     3
278
    44
283
     0
284
     8
340
13A
343
134
344
134
  0
ENDTAB
  0
TABLE
  2
BLOCK_RECORD
  5
1
330
0
100
AcDbSymbolTable
 70
     9
  0
BLOCK_RECORD
  5
1F
330
1
100
AcDbSymbolTableRecord
100
AcDbBlockTableRecord
  2
*Model_Space
340
22
 70
     0
280
     1
281
     0
  0
BLOCK_RECORD
  5
1B
330
1
100
AcDbSymbolTableRecord
100
AcDbBlockTableRecord
  2
*Paper_Space
340
1E
 70
     0
280
     1
281
     0
  0
BLOCK_RECORD
  5
6F
330
1
100
AcDbSymbolTableRecord
100
AcDbBlockTableRecord
  2
SE
340
0
102
{BLKREFS
331
70
102
}
 70
     0
280
     1
281
     0
  0
BLOCK_RECORD
  5
12B
330
1
100
AcDbSymbolTableRecord
100
AcDbBlockTableRecord
  2
_Oblique
340
0
 70
     0
280
     1
281
     0
  0
BLOCK_RECORD
  5
12F
330
1
100
AcDbSymbolTableRecord
100
AcDbBlockTableRecord
  2
_Dot
340
0
 70
     0
280
     1
281
     0
  0
BLOCK_RECORD
  5
134
330
1
100
AcDbSymbolTableRecord
100
AcDbBlockTableRecord
  2
_SE_OPEN
340
0
 70
     0
280
     1
281
     0
  0
BLOCK_RECORD
  5
13F
330
1
100
AcDbSymbolTableRecord
100
AcDbBlockTableRecord
  2
SE1
340
0
102
{BLKREFS
331
140
102
}
 70
     0
280
     1
281
     0
  0
BLOCK_RECORD
  5
1FA
330
1
100
AcDbSymbolTableRecord
100
AcDbBlockTableRecord
  2
SE2
340
0
102
{BLKREFS
331
1FB
102
}
 70
     0
280
     1
281
     0
  0
BLOCK_RECORD
  5
210
330
1
100
AcDbSymbolTableRecord
100
AcDbBlockTableRecord
  2
SE3
340
0
102
{BLKREFS
331
211
102
}
 70
     0
280
     1
281
     0
  0
BLOCK_RECORD
  5
22D
330
1
100
AcDbSymbolTableRecord
100
AcDbBlockTableRecord
  2
SEANNOT_GROUP
340
0
102
{BLKREFS
331
22E
102
}
 70
     0
280
     1
281
     0
  0
BLOCK_RECORD
  5
231
330
1
100
AcDbSymbolTableRecord
100
AcDbBlockTableRecord
  2
_NONE
340
0
 70
     0
280
     1
281
     0
  0
ENDTAB
  0
ENDSEC
  0
SECTION
  2
BLOCKS
  0
BLOCK
  5
20
330
1F
100
AcDbEntity
  8
0
100
AcDbBlockBegin
  2
*Model_Space
 70
     0
 10
0.0
 20
0.0
 30
0.0
  3
*Model_Space
  1

  0
ENDBLK
  5
21
330
1F
100
AcDbEntity
  8
0
100
AcDbBlockEnd
  0
BLOCK
  5
1C
330
1B
100
AcDbEntity
 67
     1
  8
0
100
AcDbBlockBegin
  2
*Paper_Space
 70
     0
 10
0.0
 20
0.0
 30
0.0
  3
*Paper_Space
  1

  0
ENDBLK
  5
1D
330
1B
100
AcDbEntity
 67
     1
  8
0
100
AcDbBlockEnd
  0
BLOCK
  5
128
330
6F
100
AcDbEntity
  8
0
100
AcDbBlockBegin
  2
SE
 70
     0
 10
0.0
 20
0.0
 30
0.0
  3
SE
  1

  0
HATCH
  5
72
330
6F
100
AcDbEntity
  8
DV1_Füllung
  6
Continuous
 62
     7
100
AcDbHatch
 10
0.0
 20
0.0
 30
0.0
210
0.0
220
0.0
230
1.0
  2
SOLID
 70
     1
 71
     0
 91
        1
 92
        1
 93
        7
 72
     1
 10
68.7622544889719
 20
164.5374508615145
 11
68.7622544889719
 21
131.8374508615144
 72
     2
 10
69.2622544889719
 20
131.8374508615144
 40
0.5000000000000004
 50
180.0
 51
270.0
 73
     1
 72
     1
 10
69.2622544889719
 20
131.3374508615144
 11
69.78096886070698
 21
131.3374508615144
 72
     2
 10
69.78096885970697
 20
131.6531908868357
 40
0.3157400253214055
 50
270.0000001814657
 51
360.0
 73
     1
 72
     1
 10
70.09670888502838
 20
131.6531908868357
 11
70.09670888502838
 21
165.4347935128237
 72
     2
 10
69.19936623371908
 20
165.4347935128237
 40
0.8973426513093095
 50
0.0
 51
89.99999993615019
 73
     0
 72
     1
 10
69.19936623471907
 20
164.5374508615145
 11
68.7622544889719
 21
164.5374508615145
 97
        0
 75
     0
 76
     1
 98
        0
  0
LINE
  5
74
330
6F
100
AcDbEntity
  8
DV1_Standard
  6
Continuous
 62
     7
100
AcDbLine
 10
69.262254489
 20
131.3374508615
 30
0.0
 11
69.7809688607
 21
131.3374508615
 31
0.0
  0
ARC
  5
75
330
6F
100
AcDbEntity
  8
DV1_Standard
  6
Continuous
 62
     7
100
AcDbCircle
 10
69.7809688597
 20
131.6531908868
 30
0.0
 40
0.3157400253214055
100
AcDbArc
 50
270.0000001815
 51
0.0
  0
LINE
  5
76
330
6F
100
AcDbEntity
  8
DV1_Standard
  6
Continuous
 62
     7
100
AcDbLine
 10
70.096708885
 20
165.4347935128
 30
0.0
 11
70.096708885
 21
131.6531908868
 31
0.0
  0
HATCH
  5
77
330
6F
100
AcDbEntity
  8
DV1_Füllung
  6
Continuous
 62
     7
100
AcDbHatch
 10
0.0
 20
0.0
 30
0.0
210
0.0
220
0.0
230
1.0
  2
SOLID
 70
     1
 71
     0
 91
        1
 92
        1
 93
       20
 72
     1
 10
46.24324393348041
 20
160.1644955632928
 11
45.8550563123493
 21
131.8443037663575
 72
     2
 10
46.35500934783884
 20
131.8374508615144
 40
0.5000000000000007
 50
179.2146903622223
 51
270.0
 73
     1
 72
     1
 10
46.35500934783884
 20
131.3374508615144
 11
56.05975520421422
 21
131.3374508615144
 72
     2
 10
56.05975520421422
 20
131.8374508615144
 40
0.5000000000000004
 50
270.0
 51
360.0
 73
     1
 72
     1
 10
56.55975520421422
 20
131.8374508615144
 11
56.55975520421423
 21
164.5374508615145
 72
     1
 10
56.55975520421423
 20
164.5374508615145
 11
55.86192864832882
 21
164.5374508615145
 72
     2
 10
55.86192864832882
 20
165.0374508615145
 40
0.5
 50
90.0
 51
180.0
 73
     0
 72
     1
 10
55.36192864832882
 20
165.0374508615145
 11
55.36192864832891
 21
132.6374505265581
 72
     1
 10
55.3619286483289
 20
132.6374505265581
 11
55.3619286483289
 21
132.3374505265581
 72
     1
 10
55.3619286483289
 20
132.3374505265581
 11
51.9119286483289
 21
132.3374505265581
 72
     2
 10
51.9119286483289
 20
132.5374505265581
 40
0.1999999999999988
 50
90.0
 51
165.5224878140752
 73
     0
 72
     2
 10
51.52463031370816
 20
132.4374505265581
 40
0.2000000000000005
 50
14.47751218593322
 51
90.0
 73
     1
 72
     1
 10
51.52463031370816
 20
132.6374505265582
 11
50.89922698294966
 21
132.6374505265581
 72
     2
 10
50.89922698294966
 20
132.4374505265581
 40
0.1999999999999988
 50
90.0
 51
165.5224878140836
 73
     1
 72
     2
 10
50.5119286483289
 20
132.5374505265581
 40
0.2000000000000003
 50
14.47751218591696
 51
90.0
 73
     0
 72
     1
 10
50.5119286483289
 20
132.3374505265581
 11
47.0619286483289
 21
132.337450526558
 72
     1
 10
47.0619286483289
 20
132.337450526558
 11
47.45526598194112
 21
161.0333391186125
 72
     2
 10
47.1552941606474
 20
161.0374508615184
 40
0.3000000000000004
 50
359.2146903622255
 51
489.5349054321903
 73
     1
 72
     2
 10
48.23742607899668
 20
159.7263480771076
 40
1.999999999999999
 50
129.5349054321941
 51
156.00185797403
 73
     1
 72
     1
 10
46.4103087855522
 20
160.5397621143581
 11
46.24324393348041
 21
160.1644955632927
 97
        0
 75
     0
 76
     1
 98
        0
  0
HATCH
  5
78
330
6F
100
AcDbEntity
  8
DV1_Füllung
  6
Continuous
 62
     7
100
AcDbHatch
 10
0.0
 20
0.0
 30
0.0
210
0.0
220
0.0
230
1.0
  2
SOLID
 70
     1
 71
     0
 91
        1
 92
        1
 93
       24
 72
     1
 10
57.70975520421423
 20
152.3374508615144
 11
57.70975520421423
 21
162.0374508615145
 72
     1
 10
57.70975520421423
 20
162.0374508615144
 11
67.4078178920819
 21
162.0374508615144
 72
     1
 10
67.4078178920819
 20
162.0374508615144
 11
67.4078178920819
 21
152.3374508615144
 72
     1
 10
67.4078178920819
 20
152.3374508615144
 11
65.75975520421423
 21
152.3374508615144
 72
     2
 10
65.75975520421423
 20
152.1374508615144
 40
0.2000000000000005
 50
90.0
 51
239.9999999999992
 73
     1
 72
     1
 10
65.65975520421424
 20
151.9642457807575
 11
66.74539585026933
 21
151.3374508615144
 72
     1
 10
66.74539585026933
 20
151.3374508615144
 11
67.55975520421424
 21
151.3374508615144
 72
     1
 10
67.55975520421424
 20
151.3374508615144
 11
67.55975520421423
 21
131.6374508615144
 72
     2
 10
67.85975520421424
 20
131.6374508615143
 40
0.3000000000000017
 50
180.0
 51
269.9999999999972
 73
     1
 72
     1
 10
67.85975520421422
 20
131.3374508615144
 11
68.55975520421423
 21
131.3374508615144
 72
     1
 10
68.55975520421423
 20
131.3374508615144
 11
68.55975520421423
 21
164.5374508615145
 72
     1
 10
68.55975520421423
 20
164.5374508615145
 11
67.4078178920819
 21
164.5374508615145
 72
     1
 10
67.4078178920819
 20
164.5374508615145
 11
67.4078178920819
 21
163.0374508615145
 72
     1
 10
67.4078178920819
 20
163.0374508615145
 11
57.70975520421423
 21
163.0374508615145
 72
     1
 10
57.70975520421423
 20
163.0374508615145
 11
57.70975520421423
 21
164.5374508615145
 72
     1
 10
57.70975520421423
 20
164.5374508615145
 11
56.55975520421423
 21
164.5374508615145
 72
     1
 10
56.55975520421423
 20
164.5374508615145
 11
56.55975520421422
 21
131.3374508615144
 72
     1
 10
56.55975520421422
 20
131.3374508615144
 11
57.25975520421422
 21
131.3374508615144
 72
     2
 10
57.25975520421422
 20
131.6374508615144
 40
0.3000000000000008
 50
270.0
 51
360.0
 73
     1
 72
     1
 10
57.55975520421423
 20
131.6374508615144
 11
57.55975520421423
 21
151.3374508615144
 72
     1
 10
57.55975520421423
 20
151.3374508615144
 11
58.37411455815912
 21
151.3374508615144
 72
     1
 10
58.37411455815912
 20
151.3374508615144
 11
59.45975520421423
 21
151.9642457807575
 72
     2
 10
59.35975520421423
 20
152.1374508615144
 40
0.2000000000000005
 50
300.0000000000025
 51
450.0
 73
     1
 72
     1
 10
59.35975520421423
 20
152.3374508615144
 11
57.70975520421423
 21
152.3374508615144
 97
        0
 75
     0
 76
     1
 98
        0
  0
HATCH
  5
79
330
6F
100
AcDbEntity
  8
DV1_Füllung
  6
Continuous
 62
     7
100
AcDbHatch
 10
0.0
 20
0.0
 30
0.0
210
0.0
220
0.0
230
1.0
  2
SOLID
 70
     1
 71
     0
 91
        1
 92
        1
 93
       44
 72
     2
 10
59.15963177559799
 20
145.9430236706523
 40
0.2000000000000023
 50
180.0
 51
315.3304740561093
 73
     0
 72
     1
 10
59.30186647353744
 20
146.0836269803647
 11
59.42883394589823
 21
145.9551863332966
 72
     2
 10
59.57885425967446
 20
146.087450861627
 40
0.1999999999999998
 50
221.4008231341843
 51
302.5000000000053
 73
     1
 72
     1
 10
59.68631418134384
 20
145.9187725724645
 11
60.86357836418194
 21
146.6687725724645
 72
     2
 10
60.75611844251258
 20
146.837450861627
 40
0.1999999999999998
 50
302.4999999999959
 51
417.5000000000024
 73
     1
 72
     1
 10
60.86357836418194
 20
147.0061291507896
 11
59.68631418134382
 21
147.7561291507896
 72
     2
 10
59.57885425967446
 20
147.587450861627
 40
0.1999999999999988
 50
57.49999999999463
 51
138.5991768658096
 73
     1
 72
     1
 10
59.42883394589824
 20
147.7197153899575
 11
59.30186647353744
 21
147.5912747428894
 72
     2
 10
59.15963177559799
 20
147.7318780526018
 40
0.2000000000000023
 50
44.66952594388492
 51
180.0
 73
     0
 72
     1
 10
58.95963177559798
 20
147.7318780526018
 11
58.95963177559798
 21
147.791979616019
 72
     1
 10
58.95963177559798
 20
147.791979616019
 11
58.38948245266809
 21
148.3621289389489
 72
     1
 10
58.3894824526681
 20
148.3621289389489
 11
57.95984488340049
 21
148.1140775726783
 72
     1
 10
57.95984488340049
 20
148.1140775726783
 11
57.95984488340049
 21
145.4377491474205
 72
     2
 10
57.95984488339813
 20
145.0380474332139
 40
0.3997017142065807
 50
270.0000000003392
 51
450.0000000000418
 73
     0
 72
     1
 10
57.95984488339784
 20
144.6383457190073
 11
57.95984488339784
 21
132.244515012637
 72
     2
 10
58.95984488339783
 20
132.2445150126371
 40
1.0
 50
180.0
 51
250.8761023709724
 73
     1
 72
     2
 10
62.5635768991263
 20
142.6374508615112
 40
12.0
 50
250.8761023709712
 51
289.1238976290286
 73
     1
 72
     2
 10
66.16730891485473
 20
132.244515012637
 40
0.9999999999999998
 50
289.1238976290283
 51
360.0
 73
     1
 72
     1
 10
67.16730891485473
 20
132.244515012637
 11
67.16730891485473
 21
144.6383457190073
 72
     2
 10
67.16730891485447
 20
145.0380474332139
 40
0.3997017142065807
 50
89.99999999996336
 51
269.9999999996598
 73
     0
 72
     1
 10
67.1673089148521
 20
145.4377491474205
 11
67.1673089148521
 21
148.1140775726783
 72
     1
 10
67.1673089148521
 20
148.1140775726783
 11
66.73282563060806
 21
148.3649266137949
 72
     1
 10
66.73282563060806
 20
148.364926613795
 11
66.16752202265461
 21
147.7996230058415
 72
     1
 10
66.16752202265461
 20
147.7996230058415
 11
66.16752202265461
 21
147.7318780526018
 72
     2
 10
65.96752202265462
 20
147.7318780526018
 40
0.2000000000000017
 50
0.0
 51
135.3304740561165
 73
     0
 72
     1
 10
65.82528732471516
 20
147.5912747428894
 11
65.69831985235437
 21
147.7197153899575
 72
     2
 10
65.54829953857814
 20
147.587450861627
 40
0.1999999999999998
 50
41.4008231341816
 51
122.500000000001
 73
     1
 72
     1
 10
65.44083961690876
 20
147.7561291507896
 11
64.26357543407066
 21
147.0061291507896
 72
     2
 10
64.37103535574002
 20
146.837450861627
 40
0.200000000000002
 50
122.4999999999976
 51
237.5000000000024
 73
     1
 72
     1
 10
64.26357543407066
 20
146.6687725724645
 11
65.44083961690878
 21
145.9187725724645
 72
     2
 10
65.54829953857814
 20
146.087450861627
 40
0.1999999999999988
 50
237.4999999999989
 51
318.5991768658157
 73
     1
 72
     1
 10
65.69831985235436
 20
145.9551863332966
 11
65.82528732471513
 21
146.0836269803647
 72
     2
 10
65.96752202265462
 20
145.9430236706523
 40
0.2000000000000057
 50
224.6695259438893
 51
360.0
 73
     0
 72
     1
 10
66.16752202265462
 20
145.9430236706523
 11
66.16752202265462
 21
142.4382384782819
 72
     2
 10
66.17050204834854
 20
142.0382495791274
 40
0.3999999999998715
 50
269.5731388134711
 51
442.8586896530235
 73
     0
 72
     2
 10
66.27028284365905
 20
141.244496667892
 40
0.400000000000001
 50
97.18855601614383
 51
180.0
 73
     1
 72
     1
 10
65.87028284365904
 20
141.244496667892
 11
65.87028284365903
 21
132.0015493134117
 72
     2
 10
65.37028284365903
 20
132.0015493134117
 40
0.5000000000000004
 50
0.0
 51
75.2172250918018
 73
     0
 72
     2
 10
62.5635768991263
 20
142.6374508615112
 40
11.49999999999735
 50
75.21722509180297
 51
104.7827749081917
 73
     0
 72
     2
 10
59.75687095459455
 20
132.0015493134114
 40
0.5000000000000013
 50
104.782774908192
 51
180.0
 73
     0
 72
     1
 10
59.25687095459455
 20
132.0015493134114
 11
59.25687095459455
 21
141.244496667892
 72
     2
 10
58.85687095459456
 20
141.244496667892
 40
0.4000000000000004
 50
0.0
 51
82.81144398399907
 73
     1
 72
     2
 10
58.95665174990351
 20
142.0382495791277
 40
0.4
 50
97.1413103468942
 51
270.4268611866082
 73
     0
 72
     1
 10
58.95963177559798
 20
142.4382384782822
 11
58.95963177559798
 21
145.9430236706523
 97
        0
 75
     0
 76
     1
 98
        0
  0
HATCH
  5
7B
330
6F
100
AcDbEntity
  8
DV1_Füllung
  6
Continuous
 62
     7
100
AcDbHatch
 10
0.0
 20
0.0
 30
0.0
210
0.0
220
0.0
230
1.0
  2
SOLID
 70
     1
 71
     0
 91
        1
 92
        1
 93
       21
 72
     1
 10
65.75975520421423
 20
148.837450861627
 11
63.82359746063275
 21
148.837450861627
 72
     1
 10
63.82359746063275
 20
148.837450861627
 11
63.52336467525059
 21
148.3174324232472
 72
     1
 10
63.52336467525059
 20
148.3174324232472
 11
64.42588170067962
 21
147.5151950673103
 72
     2
 10
65.161176560453
 20
146.837450861627
 40
0.9999978695709362
 50
222.6677303263183
 51
289.4881696234187
 73
     0
 72
     2
 10
65.54829953857814
 20
147.587450861627
 40
0.1999999999999998
 50
254.4810327736145
 51
318.5991768658184
 73
     0
 72
     1
 10
65.69831985235437
 20
147.7197153899575
 11
65.82528732471515
 21
147.5912747428894
 72
     2
 10
65.96752202265462
 20
147.7318780526018
 40
0.2000000000000017
 50
224.6695259438835
 51
252.8781143341753
 73
     1
 72
     1
 10
65.90864094372432
 20
147.5407419269112
 11
66.16752202265461
 21
147.7996230058415
 72
     1
 10
66.16752202265461
 20
147.7996230058415
 11
66.73282563060806
 21
148.364926613795
 72
     1
 10
66.73282563060806
 20
148.364926613795
 11
66.95975520421423
 21
148.5918561874011
 72
     1
 10
66.95975520421423
 20
148.5918561874011
 11
66.95975520421422
 21
150.6979655306479
 72
     1
 10
66.95975520421422
 20
150.6979655306479
 11
65.89854428197222
 21
151.3106559422712
 72
     2
 10
65.79854428197224
 20
151.1374508615144
 40
0.2000000000000016
 50
59.99999999999925
 51
90.0
 73
     1
 72
     1
 10
65.79854428197224
 20
151.3374508615144
 11
65.15975520421425
 21
151.3374508615144
 72
     2
 10
65.15975520421424
 20
151.1374508615144
 40
0.1999999999999988
 50
90.0
 51
180.0
 73
     1
 72
     1
 10
64.95975520421423
 20
151.1374508615144
 11
64.95975520421423
 21
150.537450861627
 72
     2
 10
65.15975520421424
 20
150.537450861627
 40
0.1999999999999988
 50
180.0
 51
270.0
 73
     1
 72
     1
 10
65.15975520421424
 20
150.337450861627
 11
65.7597552042231
 21
150.337450861627
 72
     2
 10
65.75975520422308
 20
150.1374508616359
 40
0.1999999999911448
 50
270.0
 51
360.0
 73
     0
 72
     1
 10
65.95975520421423
 20
150.1374508616359
 11
65.95975520421423
 21
149.037450861627
 72
     2
 10
65.75975520421423
 20
149.037450861627
 40
0.1999999999999988
 50
0.0
 51
90.0
 73
     0
 97
        0
 75
     0
 76
     1
 98
        0
  0
LINE
  5
7C
330
6F
100
AcDbEntity
  8
DV1_Standard
  6
Continuous
 62
     7
100
AcDbLine
 10
57.9597552042
 20
161.2874508615
 30
0.0
 11
57.9597552042
 21
161.2929610954
 31
0.0
  0
LINE
  5
7D
330
6F
100
AcDbEntity
  8
DV1_Standard
  6
Continuous
 62
     7
100
AcDbLine
 10
58.5097552042
 20
161.8374508615
 30
0.0
 11
58.5042449694
 21
161.8374508615
 31
0.0
  0
ARC
  5
7F
330
6F
100
AcDbEntity
  8
DV1_Standard
  6
Continuous
 62
     7
100
AcDbCircle
 10
58.5042449704
 20
161.2929610954
 30
0.0
 40
0.5444897661559106
100
AcDbArc
 50
90.0000001052
 51
180.0
  0
LINE
  5
80
330
6F
100
AcDbEntity
  8
DV1_Standard
  6
Continuous
 62
     7
100
AcDbLine
 10
57.9597552042
 20
153.0874508615
 30
0.0
 11
57.9597552042
 21
153.063992455
 31
0.0
  0
ARC
  5
81
330
6F
100
AcDbEntity
  8
DV1_Standard
  6
Continuous
 62
     7
100
AcDbCircle
 10
58.3744227226
 20
153.063992456
 30
0.0
 40
0.4146675184271977
100
AcDbArc
 50
180.0000001382
 51
270.0
  0
LINE
  5
82
330
6F
100
AcDbEntity
  8
DV1_Standard
  6
Continuous
 62
     7
100
AcDbLine
 10
58.3744227226
 20
152.6493249376
 30
0.0
 11
66.7553348573
 21
152.6493249376
 31
0.0
  0
ARC
  5
83
330
6F
100
AcDbEntity
  8
DV1_Standard
  6
Continuous
 62
     7
100
AcDbCircle
 10
66.7553348563
 20
153.1537452856
 30
0.0
 40
0.5044203479349803
100
AcDbArc
 50
270.0000001136
 51
0.0
  0
LINE
  5
84
330
6F
100
AcDbEntity
  8
DV1_Standard
  6
Continuous
 62
     7
100
AcDbLine
 10
67.2597552042
 20
161.2874508615
 30
0.0
 11
67.2597552042
 21
153.1537452856
 31
0.0
  0
ARC
  5
85
330
6F
100
AcDbEntity
  8
DV1_Standard
  6
Continuous
 62
     7
100
AcDbCircle
 10
66.7386764824
 20
161.3163721397
 30
0.0
 40
0.5218807091814156
100
AcDbArc
 50
356.8231887234
 51
93.1768112766
  0
HATCH
  5
86
330
6F
100
AcDbEntity
  8
DV1_Füllung
  6
Continuous
 62
     7
100
AcDbHatch
 10
0.0
 20
0.0
 30
0.0
210
0.0
220
0.0
230
1.0
  2
SOLID
 70
     1
 71
     0
 91
        1
 92
        1
 93
        5
 72
     1
 10
55.36192864832883
 20
191.6797493297576
 11
47.56192864832882
 21
191.6797493297576
 72
     1
 10
47.56192864832882
 20
191.6797493297576
 11
47.56192864832894
 21
132.6374505265582
 72
     1
 10
47.56192864832894
 20
132.6374505265582
 11
55.36192864832895
 21
132.6374505265581
 72
     1
 10
55.36192864832894
 20
132.6374505265581
 11
55.36192864832881
 21
175.1925211161987
 72
     1
 10
55.36192864832882
 20
175.1925211161987
 11
55.36192864832883
 21
191.6797493297576
 97
        0
 75
     0
 76
     1
 98
        0
  0
LINE
  5
87
330
6F
100
AcDbEntity
  8
DV1_Standard
  6
Continuous
 62
     7
100
AcDbLine
 10
55.3619286483
 20
165.0374508615
 30
0.0
 11
55.3619286483
 21
175.184333292
 31
0.0
  0
ARC
  5
88
330
6F
100
AcDbEntity
  8
DV1_Standard
  6
Continuous
 62
     7
100
AcDbCircle
 10
66.2702828437
 20
141.2444966679
 30
0.0
 40
0.400000000000001
100
AcDbArc
 50
97.1885560161
 51
180.0
  0
ARC
  5
89
330
6F
100
AcDbEntity
  8
DV1_Standard
  6
Continuous
 62
     7
100
AcDbCircle
 10
66.1705020483
 20
142.0382495791
 30
0.0
 40
0.3999999999998715
100
AcDbArc
 50
277.141310347
 51
90.4268611865
  0
LINE
  5
8A
330
6F
100
AcDbEntity
  8
DV1_Standard
  6
Continuous
 62
     7
100
AcDbLine
 10
66.1675220227
 20
142.4382384783
 30
0.0
 11
66.1675220227
 21
145.9430236707
 31
0.0
  0
ARC
  5
8B
330
6F
100
AcDbEntity
  8
DV1_Standard
  6
Continuous
 62
     7
100
AcDbCircle
 10
65.9675220227
 20
145.9430236707
 30
0.0
 40
0.2000000000000057
100
AcDbArc
 50
0.0
 51
135.3304740561
  0
LINE
  5
8C
330
6F
100
AcDbEntity
  8
DV1_Standard
  6
Continuous
 62
     7
100
AcDbLine
 10
65.8252873247
 20
146.0836269804
 30
0.0
 11
65.6983198524
 21
145.9551863333
 31
0.0
  0
ARC
  5
8D
330
6F
100
AcDbEntity
  8
DV1_Standard
  6
Continuous
 62
     7
100
AcDbCircle
 10
65.5482995386
 20
146.0874508616
 30
0.0
 40
0.1999999999999988
100
AcDbArc
 50
237.5
 51
318.5991768658
  0
LINE
  5
8E
330
6F
100
AcDbEntity
  8
DV1_Standard
  6
Continuous
 62
     7
100
AcDbLine
 10
65.4408396169
 20
145.9187725725
 30
0.0
 11
64.2635754341
 21
146.6687725725
 31
0.0
  0
ARC
  5
8F
330
6F
100
AcDbEntity
  8
DV1_Standard
  6
Continuous
 62
     7
100
AcDbCircle
 10
64.3710353557
 20
146.8374508616
 30
0.0
 40
0.200000000000002
100
AcDbArc
 50
122.5
 51
237.5
  0
LINE
  5
90
330
6F
100
AcDbEntity
  8
DV1_Standard
  6
Continuous
 62
     7
100
AcDbLine
 10
64.2635754341
 20
147.0061291508
 30
0.0
 11
65.4408396169
 21
147.7561291508
 31
0.0
  0
ARC
  5
91
330
6F
100
AcDbEntity
  8
DV1_Standard
  6
Continuous
 62
     7
100
AcDbCircle
 10
65.5482995386
 20
147.5874508616
 30
0.0
 40
0.1999999999999998
100
AcDbArc
 50
41.4008231342
 51
122.5
  0
LINE
  5
92
330
6F
100
AcDbEntity
  8
DV1_Standard
  6
Continuous
 62
     7
100
AcDbLine
 10
65.6983198524
 20
147.71971539
 30
0.0
 11
65.8252873247
 21
147.5912747429
 31
0.0
  0
ARC
  5
93
330
6F
100
AcDbEntity
  8
DV1_Standard
  6
Continuous
 62
     7
100
AcDbCircle
 10
65.9675220227
 20
147.7318780526
 30
0.0
 40
0.2000000000000017
100
AcDbArc
 50
224.6695259439
 51
0.0
  0
LINE
  5
94
330
6F
100
AcDbEntity
  8
DV1_Standard
  6
Continuous
 62
     7
100
AcDbLine
 10
66.1675220227
 20
147.7318780526
 30
0.0
 11
66.1675220227
 21
147.7996230058
 31
0.0
  0
LINE
  5
95
330
6F
100
AcDbEntity
  8
DV1_Standard
  6
Continuous
 62
     7
100
AcDbLine
 10
66.1675220227
 20
147.7996230058
 30
0.0
 11
66.7328256306
 21
148.3649266138
 31
0.0
  0
LINE
  5
96
330
6F
100
AcDbEntity
  8
DV1_Standard
  6
Continuous
 62
     7
100
AcDbLine
 10
66.7328256306
 20
148.3649266138
 30
0.0
 11
67.1673089149
 21
148.1140775727
 31
0.0
  0
LINE
  5
97
330
6F
100
AcDbEntity
  8
DV1_Standard
  6
Continuous
 62
     7
100
AcDbLine
 10
67.1673089149
 20
148.1140775727
 30
0.0
 11
67.1673089149
 21
145.4377491474
 31
0.0
  0
ARC
  5
98
330
6F
100
AcDbEntity
  8
DV1_Standard
  6
Continuous
 62
     7
100
AcDbCircle
 10
67.1673089149
 20
145.0380474332
 30
0.0
 40
0.3997017142065807
100
AcDbArc
 50
90.0000000003
 51
270.0
  0
LINE
  5
99
330
6F
100
AcDbEntity
  8
DV1_Standard
  6
Continuous
 62
     7
100
AcDbLine
 10
67.1673089149
 20
144.638345719
 30
0.0
 11
67.1673089149
 21
132.2445150126
 31
0.0
  0
ARC
  5
9A
330
6F
100
AcDbEntity
  8
DV1_Standard
  6
Continuous
 62
     7
100
AcDbCircle
 10
57.9598448834
 20
145.0380474332
 30
0.0
 40
0.3997017142065807
100
AcDbArc
 50
270.0
 51
89.9999999997
  0
LINE
  5
9B
330
6F
100
AcDbEntity
  8
DV1_Standard
  6
Continuous
 62
     7
100
AcDbLine
 10
57.9598448834
 20
145.4377491474
 30
0.0
 11
57.9598448834
 21
148.1140775727
 31
0.0
  0
LINE
  5
9C
330
6F
100
AcDbEntity
  8
DV1_Standard
  6
Continuous
 62
     7
100
AcDbLine
 10
57.9598448834
 20
148.1140775727
 30
0.0
 11
58.3894824527
 21
148.3621289389
 31
0.0
  0
LINE
  5
9D
330
6F
100
AcDbEntity
  8
DV1_Standard
  6
Continuous
 62
     7
100
AcDbLine
 10
58.3894824527
 20
148.3621289389
 30
0.0
 11
58.9596317756
 21
147.791979616
 31
0.0
  0
LINE
  5
9E
330
6F
100
AcDbEntity
  8
DV1_Standard
  6
Continuous
 62
     7
100
AcDbLine
 10
58.9596317756
 20
147.791979616
 30
0.0
 11
58.9596317756
 21
147.7318780526
 31
0.0
  0
ARC
  5
9F
330
6F
100
AcDbEntity
  8
DV1_Standard
  6
Continuous
 62
     7
100
AcDbCircle
 10
59.1596317756
 20
147.7318780526
 30
0.0
 40
0.2000000000000023
100
AcDbArc
 50
180.0
 51
315.3304740561
  0
LINE
  5
A0
330
6F
100
AcDbEntity
  8
DV1_Standard
  6
Continuous
 62
     7
100
AcDbLine
 10
59.3018664735
 20
147.5912747429
 30
0.0
 11
59.4288339459
 21
147.71971539
 31
0.0
  0
ARC
  5
A1
330
6F
100
AcDbEntity
  8
DV1_Standard
  6
Continuous
 62
     7
100
AcDbCircle
 10
59.5788542597
 20
147.5874508616
 30
0.0
 40
0.1999999999999988
100
AcDbArc
 50
57.5
 51
138.5991768658
  0
LINE
  5
A2
330
6F
100
AcDbEntity
  8
DV1_Standard
  6
Continuous
 62
     7
100
AcDbLine
 10
59.6863141813
 20
147.7561291508
 30
0.0
 11
60.8635783642
 21
147.0061291508
 31
0.0
  0
ARC
  5
A3
330
6F
100
AcDbEntity
  8
DV1_Standard
  6
Continuous
 62
     7
100
AcDbCircle
 10
60.7561184425
 20
146.8374508616
 30
0.0
 40
0.1999999999999998
100
AcDbArc
 50
302.5
 51
57.5
  0
LINE
  5
A4
330
6F
100
AcDbEntity
  8
DV1_Standard
  6
Continuous
 62
     7
100
AcDbLine
 10
60.8635783642
 20
146.6687725725
 30
0.0
 11
59.6863141813
 21
145.9187725725
 31
0.0
  0
ARC
  5
A5
330
6F
100
AcDbEntity
  8
DV1_Standard
  6
Continuous
 62
     7
100
AcDbCircle
 10
59.5788542597
 20
146.0874508616
 30
0.0
 40
0.1999999999999998
100
AcDbArc
 50
221.4008231342
 51
302.5
  0
LINE
  5
A6
330
6F
100
AcDbEntity
  8
DV1_Standard
  6
Continuous
 62
     7
100
AcDbLine
 10
59.4288339459
 20
145.9551863333
 30
0.0
 11
59.3018664735
 21
146.0836269804
 31
0.0
  0
ARC
  5
A7
330
6F
100
AcDbEntity
  8
DV1_Standard
  6
Continuous
 62
     7
100
AcDbCircle
 10
59.1596317756
 20
145.9430236707
 30
0.0
 40
0.2000000000000023
100
AcDbArc
 50
44.6695259439
 51
180.0
  0
LINE
  5
A8
330
6F
100
AcDbEntity
  8
DV1_Standard
  6
Continuous
 62
     7
100
AcDbLine
 10
58.9596317756
 20
145.9430236707
 30
0.0
 11
58.9596317756
 21
142.4382384783
 31
0.0
  0
ARC
  5
A9
330
6F
100
AcDbEntity
  8
DV1_Standard
  6
Continuous
 62
     7
100
AcDbCircle
 10
58.9566517499
 20
142.0382495791
 30
0.0
 40
0.4
100
AcDbArc
 50
89.5731388134
 51
262.8586896531
  0
ARC
  5
AA
330
6F
100
AcDbEntity
  8
DV1_Standard
  6
Continuous
 62
     7
100
AcDbCircle
 10
58.8568709546
 20
141.2444966679
 30
0.0
 40
0.4000000000000004
100
AcDbArc
 50
0.0
 51
82.811443984
  0
LINE
  5
AB
330
6F
100
AcDbEntity
  8
DV1_Standard
  6
Continuous
 62
     7
100
AcDbLine
 10
59.2568709546
 20
141.2444966679
 30
0.0
 11
59.2568709546
 21
132.0015493134
 31
0.0
  0
LINE
  5
AC
330
6F
100
AcDbEntity
  8
DV1_Standard
  6
Continuous
 62
     7
100
AcDbLine
 10
65.8702828437
 20
132.0015493134
 30
0.0
 11
65.8702828437
 21
141.2444966679
 31
0.0
  0
ARC
  5
AD
330
6F
100
AcDbEntity
  8
DV1_Standard
  6
Continuous
 62
     7
100
AcDbCircle
 10
65.3702828437
 20
132.0015493134
 30
0.0
 40
0.5000000000000004
100
AcDbArc
 50
284.7827749082
 51
0.0
  0
ARC
  5
AE
330
6F
100
AcDbEntity
  8
DV1_Standard
  6
Continuous
 62
     7
100
AcDbCircle
 10
62.5635768991
 20
142.6374508615
 30
0.0
 40
11.49999999999735
100
AcDbArc
 50
255.2172250918
 51
284.7827749082
  0
ARC
  5
AF
330
6F
100
AcDbEntity
  8
DV1_Standard
  6
Continuous
 62
     7
100
AcDbCircle
 10
59.7568709546
 20
132.0015493134
 30
0.0
 40
0.5000000000000013
100
AcDbArc
 50
180.0
 51
255.2172250918
  0
ARC
  5
B0
330
6F
100
AcDbEntity
  8
DV1_Standard
  6
Continuous
 62
     7
100
AcDbCircle
 10
62.5635768991
 20
142.6374508615
 30
0.0
 40
12.0
100
AcDbArc
 50
250.876102371
 51
289.123897629
  0
ARC
  5
B1
330
6F
100
AcDbEntity
  8
DV1_Standard
  6
Continuous
 62
     7
100
AcDbCircle
 10
66.1673089149
 20
132.2445150126
 30
0.0
 40
0.9999999999999998
100
AcDbArc
 50
289.123897629
 51
0.0
  0
LINE
  5
B2
330
6F
100
AcDbEntity
  8
DV1_Standard
  6
Continuous
 62
     7
100
AcDbLine
 10
57.9598448834
 20
132.2445150126
 30
0.0
 11
57.9598448834
 21
144.638345719
 31
0.0
  0
ARC
  5
B3
330
6F
100
AcDbEntity
  8
DV1_Standard
  6
Continuous
 62
     7
100
AcDbCircle
 10
58.9598448834
 20
132.2445150126
 30
0.0
 40
1.0
100
AcDbArc
 50
180.0
 51
250.876102371
  0
LINE
  5
B4
330
6F
100
AcDbEntity
  8
DV1_Standard
  6
Continuous
 62
     7
100
AcDbLine
 10
57.9597552042
 20
161.2874508615
 30
0.0
 11
57.9597552042
 21
153.0874508615
 31
0.0
  0
LINE
  5
B5
330
6F
100
AcDbEntity
  8
DV1_Standard
  6
Continuous
 62
     7
100
AcDbLine
 10
58.5097552042
 20
161.8374508615
 30
0.0
 11
66.7097552042
 21
161.8374508615
 31
0.0
  0
LINE
  5
B6
330
6F
100
AcDbEntity
  8
DV1_Standard
  6
Continuous
 62
     7
100
AcDbLine
 10
55.3619286483
 20
132.3374505266
 30
0.0
 11
55.3619286483
 21
165.0374508615
 31
0.0
  0
LINE
  5
B7
330
6F
100
AcDbEntity
  8
DV1_Standard
  6
Continuous
 62
     7
100
AcDbLine
 10
47.0619286483
 20
132.3374505266
 30
0.0
 11
50.5119286483
 21
132.3374505266
 31
0.0
  0
ARC
  5
B8
330
6F
100
AcDbEntity
  8
DV1_Standard
  6
Continuous
 62
     7
100
AcDbCircle
 10
55.8619286483
 20
175.1925211162
 30
0.0
 40
0.4999999999999998
100
AcDbArc
 50
75.1831598296
 51
180.0
  0
LINE
  5
B9
330
6F
100
AcDbEntity
  8
DV1_Standard
  6
Continuous
 62
     7
100
AcDbLine
 10
56.5597552042
 20
164.5374508615
 30
0.0
 11
56.5597552042
 21
131.8374508615
 31
0.0
  0
LINE
  5
BA
330
6F
100
AcDbEntity
  8
DV1_Standard
  6
Continuous
 62
     7
100
AcDbLine
 10
47.4552659819
 20
161.0333391186
 30
0.0
 11
47.0619286483
 21
132.3374505266
 31
0.0
  0
ARC
  5
BB
330
6F
100
AcDbEntity
  8
DV1_Standard
  6
Continuous
 62
     7
100
AcDbCircle
 10
48.237426079
 20
159.7263480771
 30
0.0
 40
1.999999999999999
100
AcDbArc
 50
129.5349054322
 51
156.001857974
  0
ARC
  5
BC
330
6F
100
AcDbEntity
  8
DV1_Standard
  6
Continuous
 62
     7
100
AcDbCircle
 10
47.1552941606
 20
161.0374508615
 30
0.0
 40
0.3000000000000004
100
AcDbArc
 50
359.2146903622
 51
129.5349054322
  0
LINE
  5
BD
330
6F
100
AcDbEntity
  8
DV1_Standard
  6
Continuous
 62
     7
100
AcDbLine
 10
46.4103087856
 20
160.5397621144
 30
0.0
 11
46.2432439335
 21
160.1644955633
 31
0.0
  0
LINE
  5
BE
330
6F
100
AcDbEntity
  8
DV1_Standard
  6
Continuous
 62
     7
100
AcDbLine
 10
45.8550563123
 20
131.8443037664
 30
0.0
 11
46.2432439335
 21
160.1644955633
 31
0.0
  0
ARC
  5
BF
330
6F
100
AcDbEntity
  8
DV1_Standard
  6
Continuous
 62
     7
100
AcDbCircle
 10
46.3550093478
 20
131.8374508615
 30
0.0
 40
0.5000000000000007
100
AcDbArc
 50
179.2146903622
 51
270.0
  0
LINE
  5
C0
330
6F
100
AcDbEntity
  8
DV1_Standard
  6
Continuous
 62
     7
100
AcDbLine
 10
56.0597552042
 20
131.3374508615
 30
0.0
 11
46.3550093478
 21
131.3374508615
 31
0.0
  0
ARC
  5
C1
330
6F
100
AcDbEntity
  8
DV1_Standard
  6
Continuous
 62
     7
100
AcDbCircle
 10
56.0597552042
 20
131.8374508615
 30
0.0
 40
0.5000000000000004
100
AcDbArc
 50
270.0
 51
0.0
  0
LINE
  5
C2
330
6F
100
AcDbEntity
  8
DV1_Standard
  6
Continuous
 62
     7
100
AcDbLine
 10
51.9119286483
 20
132.3374505266
 30
0.0
 11
55.3619286483
 21
132.3374505266
 31
0.0
  0
ARC
  5
C3
330
6F
100
AcDbEntity
  8
DV1_Standard
  6
Continuous
 62
     7
100
AcDbCircle
 10
51.9119286483
 20
132.5374505266
 30
0.0
 40
0.1999999999999988
100
AcDbArc
 50
194.4775121859
 51
270.0
  0
ARC
  5
C4
330
6F
100
AcDbEntity
  8
DV1_Standard
  6
Continuous
 62
     7
100
AcDbCircle
 10
51.5246303137
 20
132.4374505266
 30
0.0
 40
0.2000000000000005
100
AcDbArc
 50
14.4775121859
 51
90.0
  0
LINE
  5
C5
330
6F
100
AcDbEntity
  8
DV1_Standard
  6
Continuous
 62
     7
100
AcDbLine
 10
50.8992269829
 20
132.6374505266
 30
0.0
 11
51.5246303137
 21
132.6374505266
 31
0.0
  0
ARC
  5
C6
330
6F
100
AcDbEntity
  8
DV1_Standard
  6
Continuous
 62
     7
100
AcDbCircle
 10
50.5119286483
 20
132.5374505266
 30
0.0
 40
0.2000000000000003
100
AcDbArc
 50
270.0
 51
345.5224878141
  0
ARC
  5
C7
330
6F
100
AcDbEntity
  8
DV1_Standard
  6
Continuous
 62
     7
100
AcDbCircle
 10
50.8992269829
 20
132.4374505266
 30
0.0
 40
0.1999999999999988
100
AcDbArc
 50
90.0
 51
165.5224878141
  0
LINE
  5
C8
330
6F
100
AcDbEntity
  8
DV1_Standard
  6
Continuous
 62
     7
100
AcDbLine
 10
68.762254489
 20
131.8374508615
 30
0.0
 11
68.762254489
 21
164.5374508615
 31
0.0
  0
ARC
  5
C9
330
6F
100
AcDbEntity
  8
DV1_Standard
  6
Continuous
 62
     7
100
AcDbCircle
 10
69.262254489
 20
131.8374508615
 30
0.0
 40
0.5000000000000004
100
AcDbArc
 50
180.0
 51
270.0
  0
LINE
  5
CA
330
6F
100
AcDbEntity
  8
DV1_Standard
  6
Continuous
 62
     7
100
AcDbLine
 10
65.7597552042
 20
152.3374508615
 30
0.0
 11
67.4078178921
 21
152.3374508615
 31
0.0
  0
LINE
  5
CB
330
6F
100
AcDbEntity
  8
DV1_Standard
  6
Continuous
 62
     7
100
AcDbLine
 10
67.4078178921
 20
152.3374508615
 30
0.0
 11
67.4078178921
 21
162.0374508615
 31
0.0
  0
LINE
  5
CC
330
6F
100
AcDbEntity
  8
DV1_Standard
  6
Continuous
 62
     7
100
AcDbLine
 10
67.4078178921
 20
162.0374508615
 30
0.0
 11
57.7097552042
 21
162.0374508615
 31
0.0
  0
LINE
  5
CD
330
6F
100
AcDbEntity
  8
DV1_Standard
  6
Continuous
 62
     7
100
AcDbLine
 10
57.7097552042
 20
162.0374508615
 30
0.0
 11
57.7097552042
 21
152.3374508615
 31
0.0
  0
LINE
  5
CE
330
6F
100
AcDbEntity
  8
DV1_Standard
  6
Continuous
 62
     7
100
AcDbLine
 10
57.7097552042
 20
152.3374508615
 30
0.0
 11
59.3597552042
 21
152.3374508615
 31
0.0
  0
ARC
  5
CF
330
6F
100
AcDbEntity
  8
DV1_Standard
  6
Continuous
 62
     7
100
AcDbCircle
 10
59.3597552042
 20
152.1374508615
 30
0.0
 40
0.2000000000000005
100
AcDbArc
 50
300.0
 51
90.0
  0
LINE
  5
D0
330
6F
100
AcDbEntity
  8
DV1_Standard
  6
Continuous
 62
     7
100
AcDbLine
 10
59.4597552042
 20
151.9642457808
 30
0.0
 11
58.3741145582
 21
151.3374508615
 31
0.0
  0
LINE
  5
D1
330
6F
100
AcDbEntity
  8
DV1_Standard
  6
Continuous
 62
     7
100
AcDbLine
 10
58.3741145582
 20
151.3374508615
 30
0.0
 11
57.5597552042
 21
151.3374508615
 31
0.0
  0
LINE
  5
D2
330
6F
100
AcDbEntity
  8
DV1_Standard
  6
Continuous
 62
     7
100
AcDbLine
 10
57.5597552042
 20
151.3374508615
 30
0.0
 11
57.5597552042
 21
131.6374508615
 31
0.0
  0
ARC
  5
D3
330
6F
100
AcDbEntity
  8
DV1_Standard
  6
Continuous
 62
     7
100
AcDbCircle
 10
57.2597552042
 20
131.6374508615
 30
0.0
 40
0.3000000000000008
100
AcDbArc
 50
270.0
 51
0.0
  0
LINE
  5
D4
330
6F
100
AcDbEntity
  8
DV1_Standard
  6
Continuous
 62
     7
100
AcDbLine
 10
57.2597552042
 20
131.3374508615
 30
0.0
 11
56.5597552042
 21
131.3374508615
 31
0.0
  0
LINE
  5
D5
330
6F
100
AcDbEntity
  8
DV1_Standard
  6
Continuous
 62
     7
100
AcDbLine
 10
56.5597552042
 20
131.3374508615
 30
0.0
 11
56.5597552042
 21
164.5374508615
 31
0.0
  0
LINE
  5
D6
330
6F
100
AcDbEntity
  8
DV1_Standard
  6
Continuous
 62
     7
100
AcDbLine
 10
57.7097552042
 20
164.5374508615
 30
0.0
 11
57.7097552042
 21
163.0374508615
 31
0.0
  0
LINE
  5
D7
330
6F
100
AcDbEntity
  8
DV1_Standard
  6
Continuous
 62
     7
100
AcDbLine
 10
57.7097552042
 20
163.0374508615
 30
0.0
 11
67.4078178921
 21
163.0374508615
 31
0.0
  0
LINE
  5
D8
330
6F
100
AcDbEntity
  8
DV1_Standard
  6
Continuous
 62
     7
100
AcDbLine
 10
67.4078178921
 20
163.0374508615
 30
0.0
 11
67.4078178921
 21
164.5374508615
 31
0.0
  0
LINE
  5
D9
330
6F
100
AcDbEntity
  8
DV1_Standard
  6
Continuous
 62
     7
100
AcDbLine
 10
68.5597552042
 20
164.5374508615
 30
0.0
 11
68.5597552042
 21
131.3374508615
 31
0.0
  0
LINE
  5
DA
330
6F
100
AcDbEntity
  8
DV1_Standard
  6
Continuous
 62
     7
100
AcDbLine
 10
68.5597552042
 20
131.3374508615
 30
0.0
 11
67.8597552042
 21
131.3374508615
 31
0.0
  0
ARC
  5
DB
330
6F
100
AcDbEntity
  8
DV1_Standard
  6
Continuous
 62
     7
100
AcDbCircle
 10
67.8597552042
 20
131.6374508615
 30
0.0
 40
0.3000000000000017
100
AcDbArc
 50
180.0
 51
270.0
  0
LINE
  5
DC
330
6F
100
AcDbEntity
  8
DV1_Standard
  6
Continuous
 62
     7
100
AcDbLine
 10
67.5597552042
 20
131.6374508615
 30
0.0
 11
67.5597552042
 21
151.3374508615
 31
0.0
  0
LINE
  5
DD
330
6F
100
AcDbEntity
  8
DV1_Standard
  6
Continuous
 62
     7
100
AcDbLine
 10
67.5597552042
 20
151.3374508615
 30
0.0
 11
66.7453958503
 21
151.3374508615
 31
0.0
  0
LINE
  5
DE
330
6F
100
AcDbEntity
  8
DV1_Standard
  6
Continuous
 62
     7
100
AcDbLine
 10
66.7453958503
 20
151.3374508615
 30
0.0
 11
65.6597552042
 21
151.9642457808
 31
0.0
  0
ARC
  5
DF
330
6F
100
AcDbEntity
  8
DV1_Standard
  6
Continuous
 62
     7
100
AcDbCircle
 10
65.7597552042
 20
152.1374508615
 30
0.0
 40
0.2000000000000005
100
AcDbArc
 50
90.0
 51
240.0
  0
LINE
  5
E0
330
6F
100
AcDbEntity
  8
DV1_Standard
  6
Continuous
 62
     7
100
AcDbLine
 10
55.3619286483
 20
132.6374505266
 30
0.0
 11
47.5619286483
 21
132.6374505266
 31
0.0
  0
LINE
  5
E1
330
6F
100
AcDbEntity
  8
DV1_Standard
  6
Continuous
 62
     7
100
AcDbLine
 10
47.5619286483
 20
132.6374505266
 30
0.0
 11
47.5619286483
 21
191.6797493298
 31
0.0
  0
LINE
  5
E2
330
6F
100
AcDbEntity
  8
DV1_Standard
  6
Continuous
 62
     7
100
AcDbLine
 10
58.1597552042
 20
150.6979655306
 30
0.0
 11
58.1597552042
 21
148.5918561874
 31
0.0
  0
LINE
  5
E3
330
6F
100
AcDbEntity
  8
DV1_Standard
  6
Continuous
 62
     7
100
AcDbLine
 10
58.1597552042
 20
148.5918561874
 30
0.0
 11
58.3894824527
 21
148.3621289389
 31
0.0
  0
LINE
  5
E4
330
6F
100
AcDbEntity
  8
DV1_Standard
  6
Continuous
 62
     7
100
AcDbLine
 10
58.9596317756
 20
147.791979616
 30
0.0
 11
59.2093594743
 21
147.5422519173
 31
0.0
  0
LINE
  5
E5
330
6F
100
AcDbEntity
  8
DV1_Standard
  6
Continuous
 62
     7
100
AcDbLine
 10
59.2093594743
 20
147.5422519173
 30
0.0
 11
59.2232079412
 21
147.5422519173
 31
0.0
  0
ARC
  5
E6
330
6F
100
AcDbEntity
  8
DV1_Standard
  6
Continuous
 62
     7
100
AcDbCircle
 10
59.958333848
 20
146.8374508616
 30
0.0
 40
0.9999978695709412
100
AcDbArc
 50
227.2649489396
 51
229.2436613883
  0
ARC
  5
E7
330
6F
100
AcDbEntity
  8
DV1_Standard
  6
Continuous
 62
     7
100
AcDbCircle
 10
59.958333848
 20
146.8374508616
 30
0.0
 40
0.9999978695709412
100
AcDbArc
 50
250.71150351
 51
109.28849649
  0
ARC
  5
E8
330
6F
100
AcDbEntity
  8
DV1_Standard
  6
Continuous
 62
     7
100
AcDbCircle
 10
59.958333848
 20
146.8374508616
 30
0.0
 40
0.9999978695709412
100
AcDbArc
 50
130.7563386118
 51
132.7350510604
  0
LINE
  5
E9
330
6F
100
AcDbEntity
  8
DV1_Standard
  6
Continuous
 62
     7
100
AcDbLine
 10
59.2186966071
 20
146.1341030931
 30
0.0
 11
59.2096317756
 21
146.1341030931
 31
0.0
  0
ARC
  5
EA
330
6F
100
AcDbEntity
  8
DV1_Standard
  6
Continuous
 62
     7
100
AcDbCircle
 10
59.958333848
 20
146.8374508616
 30
0.0
 40
1.999999999999983
100
AcDbArc
 50
240.0429258204
 51
252.5816887241
  0
LINE
  5
EB
330
6F
100
AcDbEntity
  8
DV1_Standard
  6
Continuous
 62
     7
100
AcDbLine
 10
59.3596423588
 20
144.9291614442
 30
0.0
 11
59.3596423588
 21
136.334903164
 31
0.0
  0
ARC
  5
EC
330
6F
100
AcDbEntity
  8
DV1_Standard
  6
Continuous
 62
     7
100
AcDbCircle
 10
59.8594979852
 20
136.3469178535
 30
0.0
 40
0.5000000000000265
100
AcDbArc
 50
181.3769145337
 51
358.6230854663
  0
LINE
  5
ED
330
6F
100
AcDbEntity
  8
DV1_Standard
  6
Continuous
 62
     7
100
AcDbLine
 10
60.3593536115
 20
136.334903164
 30
0.0
 11
60.3593536115
 21
144.8780675022
 31
0.0
  0
ARC
  5
EE
330
6F
100
AcDbEntity
  8
DV1_Standard
  6
Continuous
 62
     7
100
AcDbCircle
 10
59.958333848
 20
146.8374508616
 30
0.0
 40
1.999999999999984
100
AcDbArc
 50
281.5667771078
 51
345.5224878141
  0
LINE
  5
EF
330
6F
100
AcDbEntity
  8
DV1_Standard
  6
Continuous
 62
     7
100
AcDbLine
 10
61.8948255211
 20
146.3374508616
 30
0.0
 11
63.2246848873
 21
146.3374508616
 31
0.0
  0
ARC
  5
F0
330
6F
100
AcDbEntity
  8
DV1_Standard
  6
Continuous
 62
     7
100
AcDbCircle
 10
65.1611765605
 20
146.8374508616
 30
0.0
 40
1.999999999999984
100
AcDbArc
 50
194.4775121859
 51
258.4332228922
  0
LINE
  5
F1
330
6F
100
AcDbEntity
  8
DV1_Standard
  6
Continuous
 62
     7
100
AcDbLine
 10
64.7601567969
 20
144.8780675022
 30
0.0
 11
64.7601567969
 21
136.334903164
 31
0.0
  0
ARC
  5
F2
330
6F
100
AcDbEntity
  8
DV1_Standard
  6
Continuous
 62
     7
100
AcDbCircle
 10
65.2600124233
 20
136.3469178535
 30
0.0
 40
0.5000000000000256
100
AcDbArc
 50
181.3769145337
 51
358.6230854661
  0
LINE
  5
F3
330
6F
100
AcDbEntity
  8
DV1_Standard
  6
Continuous
 62
     7
100
AcDbLine
 10
65.7598680497
 20
136.334903164
 30
0.0
 11
65.7598680497
 21
144.9291614442
 31
0.0
  0
ARC
  5
F4
330
6F
100
AcDbEntity
  8
DV1_Standard
  6
Continuous
 62
     7
100
AcDbCircle
 10
65.1611765605
 20
146.8374508616
 30
0.0
 40
1.999999999999984
100
AcDbArc
 50
287.4183112759
 51
299.9570741796
  0
LINE
  5
F5
330
6F
100
AcDbEntity
  8
DV1_Standard
  6
Continuous
 62
     7
100
AcDbLine
 10
66.1598786328
 20
145.1046513433
 30
0.0
 11
66.1598786328
 21
145.8841030931
 31
0.0
  0
ARC
  5
F6
330
6F
100
AcDbEntity
  8
DV1_Standard
  6
Continuous
 62
     7
100
AcDbCircle
 10
65.1611765605
 20
146.8374508616
 30
0.0
 40
0.9999978695709362
100
AcDbArc
 50
70.5118303766
 51
289.4881696235
  0
LINE
  5
F7
330
6F
100
AcDbEntity
  8
DV1_Standard
  6
Continuous
 62
     7
100
AcDbLine
 10
65.9039458571
 20
147.5422519173
 30
0.0
 11
65.9101509342
 21
147.5422519173
 31
0.0
  0
LINE
  5
F8
330
6F
100
AcDbEntity
  8
DV1_Standard
  6
Continuous
 62
     7
100
AcDbLine
 10
65.9101509342
 20
147.5422519173
 30
0.0
 11
66.1675220227
 21
147.7996230058
 31
0.0
  0
LINE
  5
F9
330
6F
100
AcDbEntity
  8
DV1_Standard
  6
Continuous
 62
     7
100
AcDbLine
 10
66.7328256306
 20
148.3649266138
 30
0.0
 11
66.9597552042
 21
148.5918561874
 31
0.0
  0
LINE
  5
FA
330
6F
100
AcDbEntity
  8
DV1_Standard
  6
Continuous
 62
     7
100
AcDbLine
 10
66.9597552042
 20
148.5918561874
 30
0.0
 11
66.9597552042
 21
150.6979655306
 31
0.0
  0
LINE
  5
FB
330
6F
100
AcDbEntity
  8
DV1_Standard
  6
Continuous
 62
     7
100
AcDbLine
 10
66.9597552042
 20
150.6979655306
 30
0.0
 11
65.898544282
 21
151.3106559423
 31
0.0
  0
ARC
  5
FC
330
6F
100
AcDbEntity
  8
DV1_Standard
  6
Continuous
 62
     7
100
AcDbCircle
 10
65.798544282
 20
151.1374508615
 30
0.0
 40
0.2000000000000016
100
AcDbArc
 50
60.0
 51
90.0
  0
LINE
  5
FD
330
6F
100
AcDbEntity
  8
DV1_Standard
  6
Continuous
 62
     7
100
AcDbLine
 10
65.798544282
 20
151.3374508615
 30
0.0
 11
65.1597552042
 21
151.3374508615
 31
0.0
  0
ARC
  5
FE
330
6F
100
AcDbEntity
  8
DV1_Standard
  6
Continuous
 62
     7
100
AcDbCircle
 10
65.1597552042
 20
151.1374508615
 30
0.0
 40
0.1999999999999988
100
AcDbArc
 50
90.0
 51
180.0
  0
LINE
  5
FF
330
6F
100
AcDbEntity
  8
DV1_Standard
  6
Continuous
 62
     7
100
AcDbLine
 10
64.9597552042
 20
151.1374508615
 30
0.0
 11
64.9597552042
 21
150.5374508616
 31
0.0
  0
ARC
  5
100
330
6F
100
AcDbEntity
  8
DV1_Standard
  6
Continuous
 62
     7
100
AcDbCircle
 10
65.1597552042
 20
150.5374508616
 30
0.0
 40
0.1999999999999988
100
AcDbArc
 50
180.0
 51
270.0
  0
LINE
  5
101
330
6F
100
AcDbEntity
  8
DV1_Standard
  6
Continuous
 62
     7
100
AcDbLine
 10
65.1597552042
 20
150.3374508616
 30
0.0
 11
65.7597552042
 21
150.3374508616
 31
0.0
  0
ARC
  5
102
330
6F
100
AcDbEntity
  8
DV1_Standard
  6
Continuous
 62
     7
100
AcDbCircle
 10
65.7597552042
 20
150.1374508616
 30
0.0
 40
0.1999999999911448
100
AcDbArc
 50
0.0
 51
90.0
  0
LINE
  5
103
330
6F
100
AcDbEntity
  8
DV1_Standard
  6
Continuous
 62
     7
100
AcDbLine
 10
65.9597552042
 20
150.1374508616
 30
0.0
 11
65.9597552042
 21
149.0374508616
 31
0.0
  0
ARC
  5
104
330
6F
100
AcDbEntity
  8
DV1_Standard
  6
Continuous
 62
     7
100
AcDbCircle
 10
65.7597552042
 20
149.0374508616
 30
0.0
 40
0.1999999999999988
100
AcDbArc
 50
270.0
 51
0.0
  0
LINE
  5
105
330
6F
100
AcDbEntity
  8
DV1_Standard
  6
Continuous
 62
     7
100
AcDbLine
 10
65.7597552042
 20
148.8374508616
 30
0.0
 11
63.8235974606
 21
148.8374508616
 31
0.0
  0
LINE
  5
106
330
6F
100
AcDbEntity
  8
DV1_Standard
  6
Continuous
 62
     7
100
AcDbLine
 10
63.8235974606
 20
148.8374508616
 30
0.0
 11
62.9575720568
 21
147.3374508616
 31
0.0
  0
LINE
  5
107
330
6F
100
AcDbEntity
  8
DV1_Standard
  6
Continuous
 62
     7
100
AcDbLine
 10
62.9575720568
 20
147.3374508616
 30
0.0
 11
62.1619383516
 21
147.3374508616
 31
0.0
  0
LINE
  5
108
330
6F
100
AcDbEntity
  8
DV1_Standard
  6
Continuous
 62
     7
100
AcDbLine
 10
62.1619383516
 20
147.3374508616
 30
0.0
 11
61.2959129478
 21
148.8374508616
 31
0.0
  0
LINE
  5
109
330
6F
100
AcDbEntity
  8
DV1_Standard
  6
Continuous
 62
     7
100
AcDbLine
 10
61.2959129478
 20
148.8374508616
 30
0.0
 11
59.3597552042
 21
148.8374508616
 31
0.0
  0
ARC
  5
10A
330
6F
100
AcDbEntity
  8
DV1_Standard
  6
Continuous
 62
     7
100
AcDbCircle
 10
59.3597552042
 20
149.0374508616
 30
0.0
 40
0.1999999999999988
100
AcDbArc
 50
180.0
 51
270.0
  0
LINE
  5
10B
330
6F
100
AcDbEntity
  8
DV1_Standard
  6
Continuous
 62
     7
100
AcDbLine
 10
59.1597552042
 20
149.0374508616
 30
0.0
 11
59.1597552042
 21
150.1374508616
 31
0.0
  0
ARC
  5
10C
330
6F
100
AcDbEntity
  8
DV1_Standard
  6
Continuous
 62
     7
100
AcDbCircle
 10
59.3597552042
 20
150.1374508616
 30
0.0
 40
0.1999999999911443
100
AcDbArc
 50
90.0
 51
180.0
  0
LINE
  5
10D
330
6F
100
AcDbEntity
  8
DV1_Standard
  6
Continuous
 62
     7
100
AcDbLine
 10
59.3597552042
 20
150.3374508616
 30
0.0
 11
59.9597552042
 21
150.3374508616
 31
0.0
  0
ARC
  5
10E
330
6F
100
AcDbEntity
  8
DV1_Standard
  6
Continuous
 62
     7
100
AcDbCircle
 10
59.9597552042
 20
150.5374508616
 30
0.0
 40
0.1999999999934953
100
AcDbArc
 50
269.9999999981
 51
0.0
  0
LINE
  5
10F
330
6F
100
AcDbEntity
  8
DV1_Standard
  6
Continuous
 62
     7
100
AcDbLine
 10
60.1597552042
 20
150.5374508616
 30
0.0
 11
60.1597552042
 21
151.1374508615
 31
0.0
  0
ARC
  5
110
330
6F
100
AcDbEntity
  8
DV1_Standard
  6
Continuous
 62
     7
100
AcDbCircle
 10
59.9597552042
 20
151.1374508615
 30
0.0
 40
0.2000000000065036
100
AcDbArc
 50
0.0
 51
89.999999999
  0
LINE
  5
111
330
6F
100
AcDbEntity
  8
DV1_Standard
  6
Continuous
 62
     7
100
AcDbLine
 10
59.9597552042
 20
151.3374508615
 30
0.0
 11
59.3209661265
 21
151.3374508615
 31
0.0
  0
ARC
  5
112
330
6F
100
AcDbEntity
  8
DV1_Standard
  6
Continuous
 62
     7
100
AcDbCircle
 10
59.3209661265
 20
151.1374508615
 30
0.0
 40
0.2000000000000023
100
AcDbArc
 50
90.0000000008
 51
120.0
  0
LINE
  5
113
330
6F
100
AcDbEntity
  8
DV1_Standard
  6
Continuous
 62
     7
100
AcDbLine
 10
59.2209661265
 20
151.3106559423
 30
0.0
 11
58.1597552042
 21
150.6979655306
 31
0.0
  0
LINE
  5
114
330
6F
100
AcDbEntity
  8
DV1_Standard
  6
Continuous
 62
     7
100
AcDbLine
 10
65.9098786328
 20
146.1341030931
 30
0.0
 11
65.9084571911
 21
146.1341030931
 31
0.0
  0
LINE
  5
115
330
6F
100
AcDbEntity
  8
DV1_Standard
  6
Continuous
 62
     7
100
AcDbLine
 10
59.2096317756
 20
146.1341030931
 30
0.0
 11
58.9596317756
 21
145.8841030931
 31
0.0
  0
LINE
  5
116
330
6F
100
AcDbEntity
  8
DV1_Standard
  6
Continuous
 62
     7
100
AcDbLine
 10
66.1598786328
 20
145.8841030931
 30
0.0
 11
65.9098786328
 21
146.1341030931
 31
0.0
  0
ARC
  5
118
330
6F
100
AcDbEntity
  8
DV1_Standard
  6
Continuous
 62
     7
100
AcDbCircle
 10
55.8619286483
 20
175.184333292
 30
0.0
 40
0.5
100
AcDbArc
 50
75.1831598296
 51
180.0
  0
LINE
  5
119
330
6F
100
AcDbEntity
  8
DV1_Standard
  6
Continuous
 62
     7
100
AcDbLine
 10
55.3619286483
 20
132.6374505266
 30
0.0
 11
55.3619286483
 21
165.0374508615
 31
0.0
  0
LINE
  5
11A
330
6F
100
AcDbEntity
  8
DV1_Standard
  6
Continuous
 62
     7
100
AcDbLine
 10
55.3619286483
 20
175.1925211162
 30
0.0
 11
55.3619286483
 21
191.6797493298
 31
0.0
  0
ARC
  5
11B
330
6F
100
AcDbEntity
  8
DV1_Standard
  6
Continuous
 62
     7
100
AcDbCircle
 10
55.8619286483
 20
165.0374508615
 30
0.0
 40
0.5
100
AcDbArc
 50
180.0
 51
270.0
  0
LINE
  5
11C
330
6F
100
AcDbEntity
  8
DV1_Standard
  6
Continuous
 62
     7
100
AcDbLine
 10
57.9619286483
 20
164.5374508615
 30
0.0
 11
55.8619286483
 21
164.5374508615
 31
0.0
  0
LINE
  5
11D
330
6F
100
AcDbEntity
  8
DV1_Standard
  6
Continuous
 62
     7
100
AcDbLine
 10
57.9619286483
 20
164.5374508615
 30
0.0
 11
57.9619286483
 21
164.3374508615
 31
0.0
  0
LINE
  5
11E
330
6F
100
AcDbEntity
  8
DV1_Standard
  6
Continuous
 62
     7
100
AcDbLine
 10
57.9619286483
 20
163.3374508615
 30
0.0
 11
57.9619286483
 21
164.3374508615
 31
0.0
  0
LINE
  5
11F
330
6F
100
AcDbEntity
  8
DV1_Standard
  6
Continuous
 62
     7
100
AcDbLine
 10
66.9619286483
 20
163.3374508615
 30
0.0
 11
57.9619286483
 21
163.3374508615
 31
0.0
  0
LINE
  5
120
330
6F
100
AcDbEntity
  8
DV1_Standard
  6
Continuous
 62
     7
100
AcDbLine
 10
66.9619286483
 20
164.3374508615
 30
0.0
 11
66.9619286483
 21
163.3374508615
 31
0.0
  0
LINE
  5
121
330
6F
100
AcDbEntity
  8
DV1_Standard
  6
Continuous
 62
     7
100
AcDbLine
 10
66.9619286483
 20
164.3374508615
 30
0.0
 11
66.9619286483
 21
164.5374508615
 31
0.0
  0
LINE
  5
122
330
6F
100
AcDbEntity
  8
DV1_Standard
  6
Continuous
 62
     7
100
AcDbLine
 10
66.9619286483
 20
164.5374508615
 30
0.0
 11
69.1993662347
 21
164.5374508615
 31
0.0
  0
ARC
  5
123
330
6F
100
AcDbEntity
  8
DV1_Standard
  6
Continuous
 62
     7
100
AcDbCircle
 10
69.1993662337
 20
165.4347935128
 30
0.0
 40
0.8973426513093095
100
AcDbArc
 50
270.0000000638
 51
0.0
  0
LINE
  5
124
330
6F
100
AcDbEntity
  8
DV1_Standard
  6
Continuous
 62
     7
100
AcDbLine
 10
70.096708885
 20
165.4347935128
 30
0.0
 11
70.096708885
 21
167.5569311186
 31
0.0
  0
ARC
  5
125
330
6F
100
AcDbEntity
  8
DV1_Standard
  6
Continuous
 62
     7
100
AcDbCircle
 10
64.8590892763
 20
167.9054544423
 30
0.0
 40
5.249202574939567
100
AcDbArc
 50
356.1930186344
 51
79.2476350651
  0
LINE
  5
126
330
6F
100
AcDbEntity
  8
DV1_Standard
  6
Continuous
 62
     7
100
AcDbLine
 10
55.9897936044
 20
175.6677074256
 30
0.0
 11
65.8384045888
 21
173.0624951821
 31
0.0
  0
LINE
  5
127
330
6F
100
AcDbEntity
  8
DV1_Standard
  6
Continuous
 62
     7
100
AcDbLine
 10
55.3619286483
 20
165.0374508615
 30
0.0
 11
55.3619286483
 21
175.184333292
 31
0.0
  0
ENDBLK
  5
129
330
6F
100
AcDbEntity
  8
0
100
AcDbBlockEnd
  0
BLOCK
  5
12C
330
12B
100
AcDbEntity
  8
0
100
AcDbBlockBegin
  2
_Oblique
 70
     0
 10
0.0
 20
0.0
 30
0.0
  3
_Oblique
  1

  0
LINE
  5
12E
330
12B
100
AcDbEntity
  8
0
  6
ByBlock
 62
     0
370
    -2
100
AcDbLine
 10
-0.5
 20
-0.5
 30
0.0
 11
0.5
 21
0.5
 31
0.0
  0
ENDBLK
  5
12D
330
12B
100
AcDbEntity
  8
0
100
AcDbBlockEnd
  0
BLOCK
  5
130
330
12F
100
AcDbEntity
  8
0
100
AcDbBlockBegin
  2
_Dot
 70
     0
 10
0.0
 20
0.0
 30
0.0
  3
_Dot
  1

  0
LWPOLYLINE
  5
132
330
12F
100
AcDbEntity
  8
0
  6
ByBlock
 62
     0
100
AcDbPolyline
 90
        2
 70
     1
 43
0.5
 10
-0.25
 20
0.0
 42
1.0
 10
0.25
 20
0.0
 42
1.0
  0
LINE
  5
133
330
12F
100
AcDbEntity
  8
0
  6
ByBlock
 62
     0
370
    -2
100
AcDbLine
 10
-0.5
 20
0.0
 30
0.0
 11
-1.0
 21
0.0
 31
0.0
  0
ENDBLK
  5
131
330
12F
100
AcDbEntity
  8
0
100
AcDbBlockEnd
  0
BLOCK
  5
138
330
134
100
AcDbEntity
  8
0
100
AcDbBlockBegin
  2
_SE_OPEN
 70
     0
 10
0.0
 20
0.0
 30
0.0
  3
_SE_OPEN
  1

  0
LINE
  5
135
330
134
100
AcDbEntity
  8
0
 62
     0
100
AcDbLine
 10
0.0
 20
0.0
 30
0.0
 11
-1.0
 21
-0.1665
 31
0.0
  0
LINE
  5
136
330
134
100
AcDbEntity
  8
0
 62
     0
100
AcDbLine
 10
-1.0
 20
0.1665
 30
0.0
 11
0.0
 21
0.0
 31
0.0
  0
LINE
  5
137
330
134
100
AcDbEntity
  8
0
 62
     0
100
AcDbLine
 10
0.0
 20
0.0
 30
0.0
 11
-1.0
 21
0.0
 31
0.0
  0
ENDBLK
  5
139
330
134
100
AcDbEntity
  8
0
100
AcDbBlockEnd
  0
BLOCK
  5
1F8
330
13F
100
AcDbEntity
  8
0
100
AcDbBlockBegin
  2
SE1
 70
     0
 10
0.0
 20
0.0
 30
0.0
  3
SE1
  1

  0
HATCH
  5
142
330
13F
100
AcDbEntity
  8
DV2_Füllung
  6
Continuous
 62
     7
100
AcDbHatch
 10
0.0
 20
0.0
 30
0.0
210
0.0
220
0.0
230
1.0
  2
SOLID
 70
     1
 71
     0
 91
        1
 92
        1
 93
        7
 72
     1
 10
140.1225986463448
 20
163.9247856973566
 11
140.1225986463448
 21
131.2247856973565
 72
     2
 10
140.6225986463448
 20
131.2247856973565
 40
0.5000000000000004
 50
180.0
 51
270.0
 73
     1
 72
     1
 10
140.6225986463448
 20
130.7247856973565
 11
141.1413130180798
 21
130.7247856973565
 72
     2
 10
141.1413130170798
 20
131.0405257226779
 40
0.3157400253214055
 50
270.0000001814631
 51
360.0
 73
     1
 72
     1
 10
141.4570530424012
 20
131.0405257226779
 11
141.4570530424012
 21
164.8221283486659
 72
     2
 10
140.5597103910919
 20
164.8221283486659
 40
0.8973426513093095
 50
0.0
 51
89.99999993615019
 73
     0
 72
     1
 10
140.5597103920919
 20
163.9247856973566
 11
140.1225986463447
 21
163.9247856973566
 97
        0
 75
     0
 76
     1
 98
        0
  0
LINE
  5
144
330
13F
100
AcDbEntity
  8
DV2_Standard
  6
Continuous
 62
     7
100
AcDbLine
 10
140.6225986463
 20
130.7247856974
 30
0.0
 11
141.1413130181
 21
130.7247856974
 31
0.0
  0
ARC
  5
145
330
13F
100
AcDbEntity
  8
DV2_Standard
  6
Continuous
 62
     7
100
AcDbCircle
 10
141.1413130171
 20
131.0405257227
 30
0.0
 40
0.3157400253214055
100
AcDbArc
 50
270.0000001815
 51
0.0
  0
LINE
  5
146
330
13F
100
AcDbEntity
  8
DV2_Standard
  6
Continuous
 62
     7
100
AcDbLine
 10
141.4570530424
 20
164.8221283487
 30
0.0
 11
141.4570530424
 21
131.0405257227
 31
0.0
  0
HATCH
  5
147
330
13F
100
AcDbEntity
  8
DV2_Füllung
  6
Continuous
 62
     7
100
AcDbHatch
 10
0.0
 20
0.0
 30
0.0
210
0.0
220
0.0
230
1.0
  2
SOLID
 70
     1
 71
     0
 91
        1
 92
        1
 93
       20
 72
     1
 10
117.6035880908533
 20
159.5518303991348
 11
117.2154004697221
 21
131.2316386021996
 72
     2
 10
117.7153535052117
 20
131.2247856973565
 40
0.5000000000000007
 50
179.2146903622222
 51
270.0
 73
     1
 72
     1
 10
117.7153535052117
 20
130.7247856973565
 11
127.420099361587
 21
130.7247856973565
 72
     2
 10
127.4200993615871
 20
131.2247856973565
 40
0.5000000000000004
 50
270.0
 51
360.0
 73
     1
 72
     1
 10
127.9200993615871
 20
131.2247856973565
 11
127.9200993615871
 21
163.9247856973565
 72
     1
 10
127.9200993615871
 20
163.9247856973566
 11
127.2222728057017
 21
163.9247856973566
 72
     2
 10
127.2222728057017
 20
164.4247856973566
 40
0.5
 50
90.0
 51
180.0
 73
     0
 72
     1
 10
126.7222728057017
 20
164.4247856973566
 11
126.7222728057017
 21
132.0247853624003
 72
     1
 10
126.7222728057017
 20
132.0247853624003
 11
126.7222728057017
 21
131.7247853624002
 72
     1
 10
126.7222728057017
 20
131.7247853624002
 11
123.2722728057018
 21
131.7247853624002
 72
     2
 10
123.2722728057017
 20
131.9247853624002
 40
0.1999999999999988
 50
90.0
 51
165.5224878140668
 73
     0
 72
     2
 10
122.884974471081
 20
131.8247853624002
 40
0.2000000000000005
 50
14.47751218592534
 51
90.0
 73
     1
 72
     1
 10
122.884974471081
 20
132.0247853624002
 11
122.2595711403225
 21
132.0247853624003
 72
     2
 10
122.2595711403225
 20
131.8247853624002
 40
0.1999999999999988
 50
90.0
 51
165.5224878140757
 73
     1
 72
     2
 10
121.8722728057017
 20
131.9247853624002
 40
0.2000000000000003
 50
14.47751218591645
 51
90.0
 73
     0
 72
     1
 10
121.8722728057017
 20
131.7247853624002
 11
118.4222728057018
 21
131.7247853624002
 72
     1
 10
118.4222728057018
 20
131.7247853624002
 11
118.815610139314
 21
160.4206739544546
 72
     2
 10
118.5156383180202
 20
160.4247856973605
 40
0.3000000000000004
 50
359.2146903622201
 51
489.5349054321948
 73
     1
 72
     2
 10
119.5977702363695
 20
159.1136829129497
 40
1.999999999999999
 50
129.5349054321942
 51
156.0018579740283
 73
     1
 72
     1
 10
117.7706529429251
 20
159.9270969502002
 11
117.6035880908533
 21
159.5518303991348
 97
        0
 75
     0
 76
     1
 98
        0
  0
HATCH
  5
148
330
13F
100
AcDbEntity
  8
DV2_Füllung
  6
Continuous
 62
     7
100
AcDbHatch
 10
0.0
 20
0.0
 30
0.0
210
0.0
220
0.0
230
1.0
  2
SOLID
 70
     1
 71
     0
 91
        1
 92
        1
 93
       24
 72
     1
 10
129.0700993615871
 20
151.7247856973565
 11
129.0700993615871
 21
161.4247856973566
 72
     1
 10
129.0700993615871
 20
161.4247856973566
 11
138.7681620494547
 21
161.4247856973566
 72
     1
 10
138.7681620494547
 20
161.4247856973566
 11
138.7681620494548
 21
151.7247856973565
 72
     1
 10
138.7681620494548
 20
151.7247856973565
 11
137.1200993615871
 21
151.7247856973565
 72
     2
 10
137.1200993615871
 20
151.5247856973565
 40
0.2000000000000005
 50
90.0
 51
239.9999999999992
 73
     1
 72
     1
 10
137.0200993615871
 20
151.3515806165996
 11
138.1057400076422
 21
150.7247856973565
 72
     1
 10
138.1057400076422
 20
150.7247856973565
 11
138.9200993615871
 21
150.7247856973565
 72
     1
 10
138.9200993615871
 20
150.7247856973565
 11
138.9200993615871
 21
131.0247856973565
 72
     2
 10
139.2200993615871
 20
131.0247856973565
 40
0.3000000000000017
 50
180.0000000000054
 51
270.0
 73
     1
 72
     1
 10
139.2200993615871
 20
130.7247856973565
 11
139.9200993615871
 21
130.7247856973565
 72
     1
 10
139.9200993615871
 20
130.7247856973565
 11
139.9200993615871
 21
163.9247856973565
 72
     1
 10
139.9200993615871
 20
163.9247856973565
 11
138.7681620494548
 21
163.9247856973566
 72
     1
 10
138.7681620494548
 20
163.9247856973566
 11
138.7681620494548
 21
162.4247856973566
 72
     1
 10
138.7681620494548
 20
162.4247856973566
 11
129.0700993615871
 21
162.4247856973566
 72
     1
 10
129.0700993615871
 20
162.4247856973566
 11
129.0700993615871
 21
163.9247856973566
 72
     1
 10
129.0700993615871
 20
163.9247856973566
 11
127.9200993615871
 21
163.9247856973566
 72
     1
 10
127.9200993615871
 20
163.9247856973566
 11
127.9200993615871
 21
130.7247856973565
 72
     1
 10
127.9200993615871
 20
130.7247856973565
 11
128.6200993615871
 21
130.7247856973565
 72
     2
 10
128.6200993615871
 20
131.0247856973565
 40
0.3000000000000008
 50
270.0
 51
360.0
 73
     1
 72
     1
 10
128.9200993615871
 20
131.0247856973565
 11
128.9200993615871
 21
150.7247856973565
 72
     1
 10
128.9200993615871
 20
150.7247856973565
 11
129.734458715532
 21
150.7247856973565
 72
     1
 10
129.734458715532
 20
150.7247856973565
 11
130.820099361587
 21
151.3515806165996
 72
     2
 10
130.7200993615871
 20
151.5247856973565
 40
0.2000000000000005
 50
300.0000000000008
 51
450.0
 73
     1
 72
     1
 10
130.7200993615871
 20
151.7247856973565
 11
129.0700993615871
 21
151.7247856973565
 97
        0
 75
     0
 76
     1
 98
        0
  0
HATCH
  5
149
330
13F
100
AcDbEntity
  8
DV2_Füllung
  6
Continuous
 62
     7
100
AcDbHatch
 10
0.0
 20
0.0
 30
0.0
210
0.0
220
0.0
230
1.0
  2
SOLID
 70
     1
 71
     0
 91
        1
 92
        1
 93
       44
 72
     2
 10
130.5199759329708
 20
145.3303585064945
 40
0.2000000000000023
 50
180.0
 51
315.3304740561252
 73
     0
 72
     1
 10
130.6622106309103
 20
145.4709618162068
 11
130.7891781032711
 21
145.3425211691387
 72
     2
 10
130.9391984170473
 20
145.4747856974692
 40
0.1999999999999998
 50
221.4008231341789
 51
302.4999999999897
 73
     1
 72
     1
 10
131.0466583387167
 20
145.3061074083066
 11
132.2239225215548
 21
146.0561074083066
 72
     2
 10
132.1164625998854
 20
146.2247856974692
 40
0.1999999999999998
 50
302.500000000001
 51
417.4999999999947
 73
     1
 72
     1
 10
132.2239225215548
 20
146.3934639866317
 11
131.0466583387167
 21
147.1434639866317
 72
     2
 10
130.9391984170473
 20
146.9747856974692
 40
0.1999999999999988
 50
57.50000000000586
 51
138.5991768658218
 73
     1
 72
     1
 10
130.7891781032711
 20
147.1070502257996
 11
130.6622106309103
 21
146.9786095787315
 72
     2
 10
130.5199759329708
 20
147.1192128884439
 40
0.2000000000000023
 50
44.66952594388059
 51
180.0
 73
     0
 72
     1
 10
130.3199759329708
 20
147.1192128884439
 11
130.3199759329708
 21
147.1793144518611
 72
     1
 10
130.3199759329708
 20
147.1793144518611
 11
129.7498266100409
 21
147.749463774791
 72
     1
 10
129.7498266100409
 20
147.749463774791
 11
129.3201890407734
 21
147.5014124085204
 72
     1
 10
129.3201890407734
 20
147.5014124085204
 11
129.3201890407733
 21
144.8250839832626
 72
     2
 10
129.320189040771
 20
144.425382269056
 40
0.3997017142065807
 50
270.0000000003382
 51
450.0000000000448
 73
     0
 72
     1
 10
129.3201890407707
 20
144.0256805548494
 11
129.3201890407707
 21
131.6318498484792
 72
     2
 10
130.3201890407707
 20
131.6318498484791
 40
1.0
 50
180.0
 51
250.8761023709717
 73
     1
 72
     2
 10
133.9239210564992
 20
142.0247856973533
 40
12.0
 50
250.8761023709711
 51
289.1238976290284
 73
     1
 72
     2
 10
137.5276530722276
 20
131.6318498484791
 40
0.9999999999999998
 50
289.1238976290268
 51
360.0
 73
     1
 72
     1
 10
138.5276530722276
 20
131.6318498484791
 11
138.5276530722276
 21
144.0256805548494
 72
     2
 10
138.5276530722273
 20
144.425382269056
 40
0.3997017142065807
 50
89.99999999995929
 51
269.9999999996618
 73
     0
 72
     1
 10
138.527653072225
 20
144.8250839832626
 11
138.527653072225
 21
147.5014124085204
 72
     1
 10
138.527653072225
 20
147.5014124085204
 11
138.0931697879809
 21
147.7522614496371
 72
     1
 10
138.0931697879809
 20
147.7522614496371
 11
137.5278661800274
 21
147.1869578416836
 72
     1
 10
137.5278661800275
 20
147.1869578416836
 11
137.5278661800275
 21
147.1192128884439
 72
     2
 10
137.3278661800275
 20
147.1192128884439
 40
0.2000000000000017
 50
0.0
 51
135.3304740561252
 73
     0
 72
     1
 10
137.185631482088
 20
146.9786095787316
 11
137.0586640097272
 21
147.1070502257996
 72
     2
 10
136.908643695951
 20
146.9747856974692
 40
0.1999999999999998
 50
41.40082313417818
 51
122.5000000000054
 73
     1
 72
     1
 10
136.8011837742816
 20
147.1434639866317
 11
135.6239195914435
 21
146.3934639866318
 72
     2
 10
135.7313795131129
 20
146.2247856974692
 40
0.200000000000002
 50
122.5000000000054
 51
237.4999999999989
 73
     1
 72
     1
 10
135.6239195914435
 20
146.0561074083066
 11
136.8011837742816
 21
145.3061074083066
 72
     2
 10
136.908643695951
 20
145.4747856974692
 40
0.1999999999999988
 50
237.4999999999989
 51
318.5991768658157
 73
     1
 72
     1
 10
137.0586640097272
 20
145.3425211691387
 11
137.185631482088
 21
145.4709618162068
 72
     2
 10
137.3278661800275
 20
145.3303585064945
 40
0.2000000000000057
 50
224.6695259438748
 51
360.0
 73
     0
 72
     1
 10
137.5278661800275
 20
145.3303585064945
 11
137.5278661800275
 21
141.825573314124
 72
     2
 10
137.5308462057214
 20
141.4255844149694
 40
0.3999999999998715
 50
269.5731388134711
 51
442.858689653026
 73
     0
 72
     2
 10
137.6306270010319
 20
140.6318315037341
 40
0.400000000000001
 50
97.18855601614433
 51
180.0
 73
     1
 72
     1
 10
137.2306270010319
 20
140.6318315037341
 11
137.2306270010319
 21
131.3888841492538
 72
     2
 10
136.7306270010319
 20
131.3888841492538
 40
0.5000000000000004
 50
0.0
 51
75.2172250918018
 73
     0
 72
     2
 10
133.9239210564992
 20
142.0247856973533
 40
11.49999999999735
 50
75.21722509180302
 51
104.7827749081915
 73
     0
 72
     2
 10
131.1172151119674
 20
131.3888841492535
 40
0.5000000000000013
 50
104.7827749081888
 51
180.0
 73
     0
 72
     1
 10
130.6172151119674
 20
131.3888841492535
 11
130.6172151119674
 21
140.6318315037341
 72
     2
 10
130.2172151119674
 20
140.6318315037341
 40
0.4000000000000004
 50
0.0
 51
82.81144398399957
 73
     1
 72
     2
 10
130.3169959072764
 20
141.4255844149698
 40
0.4
 50
97.1413103468942
 51
270.4268611866061
 73
     0
 72
     1
 10
130.3199759329708
 20
141.8255733141243
 11
130.3199759329708
 21
145.3303585064944
 97
        0
 75
     0
 76
     1
 98
        0
  0
HATCH
  5
14B
330
13F
100
AcDbEntity
  8
DV2_Füllung
  6
Continuous
 62
     7
100
AcDbHatch
 10
0.0
 20
0.0
 30
0.0
210
0.0
220
0.0
230
1.0
  2
SOLID
 70
     1
 71
     0
 91
        1
 92
        1
 93
       21
 72
     1
 10
137.1200993615871
 20
148.2247856974691
 11
135.1839416180056
 21
148.2247856974691
 72
     1
 10
135.1839416180056
 20
148.2247856974691
 11
134.8837088326235
 21
147.7047672590893
 72
     1
 10
134.8837088326234
 20
147.7047672590893
 11
135.7862258580525
 21
146.9025299031524
 72
     2
 10
136.5215207178258
 20
146.2247856974691
 40
0.9999978695709362
 50
222.667730326316
 51
289.48816962342
 73
     0
 72
     2
 10
136.908643695951
 20
146.9747856974692
 40
0.1999999999999998
 50
254.4810327736102
 51
318.5991768658218
 73
     0
 72
     1
 10
137.0586640097272
 20
147.1070502257996
 11
137.185631482088
 21
146.9786095787315
 72
     2
 10
137.3278661800275
 20
147.1192128884439
 40
0.2000000000000017
 50
224.6695259438748
 51
252.8781143341792
 73
     1
 72
     1
 10
137.2689851010972
 20
146.9280767627533
 11
137.5278661800274
 21
147.1869578416836
 72
     1
 10
137.5278661800274
 20
147.1869578416836
 11
138.0931697879809
 21
147.7522614496371
 72
     1
 10
138.0931697879809
 20
147.7522614496371
 11
138.3200993615871
 21
147.9791910232432
 72
     1
 10
138.3200993615871
 20
147.9791910232432
 11
138.3200993615871
 21
150.08530036649
 72
     1
 10
138.3200993615871
 20
150.0853003664899
 11
137.2588884393451
 21
150.6979907781133
 72
     2
 10
137.1588884393451
 20
150.5247856973565
 40
0.2000000000000016
 50
60.00000000000331
 51
90.0
 73
     1
 72
     1
 10
137.1588884393451
 20
150.7247856973565
 11
136.5200993615871
 21
150.7247856973565
 72
     2
 10
136.5200993615871
 20
150.5247856973565
 40
0.1999999999999988
 50
90.0
 51
180.0
 73
     1
 72
     1
 10
136.3200993615871
 20
150.5247856973565
 11
136.3200993615871
 21
149.9247856974691
 72
     2
 10
136.5200993615871
 20
149.9247856974691
 40
0.1999999999999988
 50
180.0
 51
270.0
 73
     1
 72
     1
 10
136.5200993615871
 20
149.7247856974691
 11
137.1200993615959
 21
149.7247856974691
 72
     2
 10
137.1200993615959
 20
149.524785697478
 40
0.1999999999911448
 50
270.0
 51
360.0
 73
     0
 72
     1
 10
137.3200993615871
 20
149.524785697478
 11
137.3200993615871
 21
148.4247856974692
 72
     2
 10
137.1200993615871
 20
148.4247856974691
 40
0.1999999999999988
 50
0.0
 51
90.0
 73
     0
 97
        0
 75
     0
 76
     1
 98
        0
  0
LINE
  5
14C
330
13F
100
AcDbEntity
  8
DV2_Standard
  6
Continuous
 62
     7
100
AcDbLine
 10
129.3200993616
 20
160.6747856974
 30
0.0
 11
129.3200993616
 21
160.6802959312
 31
0.0
  0
LINE
  5
14D
330
13F
100
AcDbEntity
  8
DV2_Standard
  6
Continuous
 62
     7
100
AcDbLine
 10
129.8700993616
 20
161.2247856974
 30
0.0
 11
129.8645891267
 21
161.2247856974
 31
0.0
  0
ARC
  5
14F
330
13F
100
AcDbEntity
  8
DV2_Standard
  6
Continuous
 62
     7
100
AcDbCircle
 10
129.8645891277
 20
160.6802959312
 30
0.0
 40
0.5444897661559106
100
AcDbArc
 50
90.0000001052
 51
180.0
  0
LINE
  5
150
330
13F
100
AcDbEntity
  8
DV2_Standard
  6
Continuous
 62
     7
100
AcDbLine
 10
129.3200993616
 20
152.4747856974
 30
0.0
 11
129.3200993616
 21
152.4513272909
 31
0.0
  0
ARC
  5
151
330
13F
100
AcDbEntity
  8
DV2_Standard
  6
Continuous
 62
     7
100
AcDbCircle
 10
129.73476688
 20
152.4513272919
 30
0.0
 40
0.4146675184271977
100
AcDbArc
 50
180.0000001382
 51
270.0
  0
LINE
  5
152
330
13F
100
AcDbEntity
  8
DV2_Standard
  6
Continuous
 62
     7
100
AcDbLine
 10
129.73476688
 20
152.0366597735
 30
0.0
 11
138.1156790147
 21
152.0366597735
 31
0.0
  0
ARC
  5
153
330
13F
100
AcDbEntity
  8
DV2_Standard
  6
Continuous
 62
     7
100
AcDbCircle
 10
138.1156790137
 20
152.5410801214
 30
0.0
 40
0.5044203479349803
100
AcDbArc
 50
270.0000001136
 51
0.0
  0
LINE
  5
154
330
13F
100
AcDbEntity
  8
DV2_Standard
  6
Continuous
 62
     7
100
AcDbLine
 10
138.6200993616
 20
160.6747856974
 30
0.0
 11
138.6200993616
 21
152.5410801214
 31
0.0
  0
ARC
  5
155
330
13F
100
AcDbEntity
  8
DV2_Standard
  6
Continuous
 62
     7
100
AcDbCircle
 10
138.0990206398
 20
160.7037069756
 30
0.0
 40
0.5218807091814156
100
AcDbArc
 50
356.8231887234
 51
93.1768112766
  0
HATCH
  5
156
330
13F
100
AcDbEntity
  8
DV2_Füllung
  6
Continuous
 62
     7
100
AcDbHatch
 10
0.0
 20
0.0
 30
0.0
210
0.0
220
0.0
230
1.0
  2
SOLID
 70
     1
 71
     0
 91
        1
 92
        1
 93
        5
 72
     1
 10
126.7222728057017
 20
191.0670841655998
 11
118.9222728057017
 21
191.0670841655998
 72
     1
 10
118.9222728057017
 20
191.0670841655998
 11
118.9222728057018
 21
132.0247853624002
 72
     1
 10
118.9222728057018
 20
132.0247853624002
 11
126.7222728057018
 21
132.0247853624003
 72
     1
 10
126.7222728057018
 20
132.0247853624003
 11
126.7222728057017
 21
174.5798559520408
 72
     1
 10
126.7222728057017
 20
174.5798559520408
 11
126.7222728057017
 21
191.0670841655998
 97
        0
 75
     0
 76
     1
 98
        0
  0
LINE
  5
157
330
13F
100
AcDbEntity
  8
DV2_Standard
  6
Continuous
 62
     7
100
AcDbLine
 10
126.7222728057
 20
164.4247856974
 30
0.0
 11
126.7222728057
 21
174.5716681279
 31
0.0
  0
ARC
  5
158
330
13F
100
AcDbEntity
  8
DV2_Standard
  6
Continuous
 62
     7
100
AcDbCircle
 10
137.630627001
 20
140.6318315037
 30
0.0
 40
0.400000000000001
100
AcDbArc
 50
97.1885560161
 51
180.0
  0
ARC
  5
159
330
13F
100
AcDbEntity
  8
DV2_Standard
  6
Continuous
 62
     7
100
AcDbCircle
 10
137.5308462057
 20
141.425584415
 30
0.0
 40
0.3999999999998715
100
AcDbArc
 50
277.141310347
 51
90.4268611865
  0
LINE
  5
15A
330
13F
100
AcDbEntity
  8
DV2_Standard
  6
Continuous
 62
     7
100
AcDbLine
 10
137.52786618
 20
141.8255733141
 30
0.0
 11
137.52786618
 21
145.3303585065
 31
0.0
  0
ARC
  5
15B
330
13F
100
AcDbEntity
  8
DV2_Standard
  6
Continuous
 62
     7
100
AcDbCircle
 10
137.32786618
 20
145.3303585065
 30
0.0
 40
0.2000000000000057
100
AcDbArc
 50
0.0
 51
135.3304740561
  0
LINE
  5
15C
330
13F
100
AcDbEntity
  8
DV2_Standard
  6
Continuous
 62
     7
100
AcDbLine
 10
137.1856314821
 20
145.4709618162
 30
0.0
 11
137.0586640097
 21
145.3425211691
 31
0.0
  0
ARC
  5
15D
330
13F
100
AcDbEntity
  8
DV2_Standard
  6
Continuous
 62
     7
100
AcDbCircle
 10
136.908643696
 20
145.4747856975
 30
0.0
 40
0.1999999999999988
100
AcDbArc
 50
237.5
 51
318.5991768658
  0
LINE
  5
15E
330
13F
100
AcDbEntity
  8
DV2_Standard
  6
Continuous
 62
     7
100
AcDbLine
 10
136.8011837743
 20
145.3061074083
 30
0.0
 11
135.6239195914
 21
146.0561074083
 31
0.0
  0
ARC
  5
15F
330
13F
100
AcDbEntity
  8
DV2_Standard
  6
Continuous
 62
     7
100
AcDbCircle
 10
135.7313795131
 20
146.2247856975
 30
0.0
 40
0.200000000000002
100
AcDbArc
 50
122.5
 51
237.5
  0
LINE
  5
160
330
13F
100
AcDbEntity
  8
DV2_Standard
  6
Continuous
 62
     7
100
AcDbLine
 10
135.6239195914
 20
146.3934639866
 30
0.0
 11
136.8011837743
 21
147.1434639866
 31
0.0
  0
ARC
  5
161
330
13F
100
AcDbEntity
  8
DV2_Standard
  6
Continuous
 62
     7
100
AcDbCircle
 10
136.908643696
 20
146.9747856975
 30
0.0
 40
0.1999999999999998
100
AcDbArc
 50
41.4008231342
 51
122.5
  0
LINE
  5
162
330
13F
100
AcDbEntity
  8
DV2_Standard
  6
Continuous
 62
     7
100
AcDbLine
 10
137.0586640097
 20
147.1070502258
 30
0.0
 11
137.1856314821
 21
146.9786095787
 31
0.0
  0
ARC
  5
163
330
13F
100
AcDbEntity
  8
DV2_Standard
  6
Continuous
 62
     7
100
AcDbCircle
 10
137.32786618
 20
147.1192128884
 30
0.0
 40
0.2000000000000017
100
AcDbArc
 50
224.6695259439
 51
0.0
  0
LINE
  5
164
330
13F
100
AcDbEntity
  8
DV2_Standard
  6
Continuous
 62
     7
100
AcDbLine
 10
137.52786618
 20
147.1192128884
 30
0.0
 11
137.52786618
 21
147.1869578417
 31
0.0
  0
LINE
  5
165
330
13F
100
AcDbEntity
  8
DV2_Standard
  6
Continuous
 62
     7
100
AcDbLine
 10
137.52786618
 20
147.1869578417
 30
0.0
 11
138.093169788
 21
147.7522614496
 31
0.0
  0
LINE
  5
166
330
13F
100
AcDbEntity
  8
DV2_Standard
  6
Continuous
 62
     7
100
AcDbLine
 10
138.093169788
 20
147.7522614496
 30
0.0
 11
138.5276530722
 21
147.5014124085
 31
0.0
  0
LINE
  5
167
330
13F
100
AcDbEntity
  8
DV2_Standard
  6
Continuous
 62
     7
100
AcDbLine
 10
138.5276530722
 20
147.5014124085
 30
0.0
 11
138.5276530722
 21
144.8250839833
 31
0.0
  0
ARC
  5
168
330
13F
100
AcDbEntity
  8
DV2_Standard
  6
Continuous
 62
     7
100
AcDbCircle
 10
138.5276530722
 20
144.4253822691
 30
0.0
 40
0.3997017142065807
100
AcDbArc
 50
90.0000000003
 51
270.0
  0
LINE
  5
169
330
13F
100
AcDbEntity
  8
DV2_Standard
  6
Continuous
 62
     7
100
AcDbLine
 10
138.5276530722
 20
144.0256805548
 30
0.0
 11
138.5276530722
 21
131.6318498485
 31
0.0
  0
ARC
  5
16A
330
13F
100
AcDbEntity
  8
DV2_Standard
  6
Continuous
 62
     7
100
AcDbCircle
 10
129.3201890408
 20
144.4253822691
 30
0.0
 40
0.3997017142065807
100
AcDbArc
 50
270.0
 51
89.9999999997
  0
LINE
  5
16B
330
13F
100
AcDbEntity
  8
DV2_Standard
  6
Continuous
 62
     7
100
AcDbLine
 10
129.3201890408
 20
144.8250839833
 30
0.0
 11
129.3201890408
 21
147.5014124085
 31
0.0
  0
LINE
  5
16C
330
13F
100
AcDbEntity
  8
DV2_Standard
  6
Continuous
 62
     7
100
AcDbLine
 10
129.3201890408
 20
147.5014124085
 30
0.0
 11
129.74982661
 21
147.7494637748
 31
0.0
  0
LINE
  5
16D
330
13F
100
AcDbEntity
  8
DV2_Standard
  6
Continuous
 62
     7
100
AcDbLine
 10
129.74982661
 20
147.7494637748
 30
0.0
 11
130.319975933
 21
147.1793144519
 31
0.0
  0
LINE
  5
16E
330
13F
100
AcDbEntity
  8
DV2_Standard
  6
Continuous
 62
     7
100
AcDbLine
 10
130.319975933
 20
147.1793144519
 30
0.0
 11
130.319975933
 21
147.1192128884
 31
0.0
  0
ARC
  5
16F
330
13F
100
AcDbEntity
  8
DV2_Standard
  6
Continuous
 62
     7
100
AcDbCircle
 10
130.519975933
 20
147.1192128884
 30
0.0
 40
0.2000000000000023
100
AcDbArc
 50
180.0
 51
315.3304740561
  0
LINE
  5
170
330
13F
100
AcDbEntity
  8
DV2_Standard
  6
Continuous
 62
     7
100
AcDbLine
 10
130.6622106309
 20
146.9786095787
 30
0.0
 11
130.7891781033
 21
147.1070502258
 31
0.0
  0
ARC
  5
171
330
13F
100
AcDbEntity
  8
DV2_Standard
  6
Continuous
 62
     7
100
AcDbCircle
 10
130.939198417
 20
146.9747856975
 30
0.0
 40
0.1999999999999988
100
AcDbArc
 50
57.5
 51
138.5991768658
  0
LINE
  5
172
330
13F
100
AcDbEntity
  8
DV2_Standard
  6
Continuous
 62
     7
100
AcDbLine
 10
131.0466583387
 20
147.1434639866
 30
0.0
 11
132.2239225216
 21
146.3934639866
 31
0.0
  0
ARC
  5
173
330
13F
100
AcDbEntity
  8
DV2_Standard
  6
Continuous
 62
     7
100
AcDbCircle
 10
132.1164625999
 20
146.2247856975
 30
0.0
 40
0.1999999999999998
100
AcDbArc
 50
302.5
 51
57.5
  0
LINE
  5
174
330
13F
100
AcDbEntity
  8
DV2_Standard
  6
Continuous
 62
     7
100
AcDbLine
 10
132.2239225216
 20
146.0561074083
 30
0.0
 11
131.0466583387
 21
145.3061074083
 31
0.0
  0
ARC
  5
175
330
13F
100
AcDbEntity
  8
DV2_Standard
  6
Continuous
 62
     7
100
AcDbCircle
 10
130.939198417
 20
145.4747856975
 30
0.0
 40
0.1999999999999998
100
AcDbArc
 50
221.4008231342
 51
302.5
  0
LINE
  5
176
330
13F
100
AcDbEntity
  8
DV2_Standard
  6
Continuous
 62
     7
100
AcDbLine
 10
130.7891781033
 20
145.3425211691
 30
0.0
 11
130.6622106309
 21
145.4709618162
 31
0.0
  0
ARC
  5
177
330
13F
100
AcDbEntity
  8
DV2_Standard
  6
Continuous
 62
     7
100
AcDbCircle
 10
130.519975933
 20
145.3303585065
 30
0.0
 40
0.2000000000000023
100
AcDbArc
 50
44.6695259439
 51
180.0
  0
LINE
  5
178
330
13F
100
AcDbEntity
  8
DV2_Standard
  6
Continuous
 62
     7
100
AcDbLine
 10
130.319975933
 20
145.3303585065
 30
0.0
 11
130.319975933
 21
141.8255733141
 31
0.0
  0
ARC
  5
179
330
13F
100
AcDbEntity
  8
DV2_Standard
  6
Continuous
 62
     7
100
AcDbCircle
 10
130.3169959073
 20
141.425584415
 30
0.0
 40
0.4
100
AcDbArc
 50
89.5731388134
 51
262.8586896531
  0
ARC
  5
17A
330
13F
100
AcDbEntity
  8
DV2_Standard
  6
Continuous
 62
     7
100
AcDbCircle
 10
130.217215112
 20
140.6318315037
 30
0.0
 40
0.4000000000000004
100
AcDbArc
 50
0.0
 51
82.811443984
  0
LINE
  5
17B
330
13F
100
AcDbEntity
  8
DV2_Standard
  6
Continuous
 62
     7
100
AcDbLine
 10
130.617215112
 20
140.6318315037
 30
0.0
 11
130.617215112
 21
131.3888841493
 31
0.0
  0
LINE
  5
17C
330
13F
100
AcDbEntity
  8
DV2_Standard
  6
Continuous
 62
     7
100
AcDbLine
 10
137.230627001
 20
131.3888841493
 30
0.0
 11
137.230627001
 21
140.6318315037
 31
0.0
  0
ARC
  5
17D
330
13F
100
AcDbEntity
  8
DV2_Standard
  6
Continuous
 62
     7
100
AcDbCircle
 10
136.730627001
 20
131.3888841493
 30
0.0
 40
0.5000000000000004
100
AcDbArc
 50
284.7827749082
 51
0.0
  0
ARC
  5
17E
330
13F
100
AcDbEntity
  8
DV2_Standard
  6
Continuous
 62
     7
100
AcDbCircle
 10
133.9239210565
 20
142.0247856974
 30
0.0
 40
11.49999999999735
100
AcDbArc
 50
255.2172250918
 51
284.7827749082
  0
ARC
  5
17F
330
13F
100
AcDbEntity
  8
DV2_Standard
  6
Continuous
 62
     7
100
AcDbCircle
 10
131.117215112
 20
131.3888841493
 30
0.0
 40
0.5000000000000013
100
AcDbArc
 50
180.0
 51
255.2172250918
  0
ARC
  5
180
330
13F
100
AcDbEntity
  8
DV2_Standard
  6
Continuous
 62
     7
100
AcDbCircle
 10
133.9239210565
 20
142.0247856974
 30
0.0
 40
12.0
100
AcDbArc
 50
250.876102371
 51
289.123897629
  0
ARC
  5
181
330
13F
100
AcDbEntity
  8
DV2_Standard
  6
Continuous
 62
     7
100
AcDbCircle
 10
137.5276530722
 20
131.6318498485
 30
0.0
 40
0.9999999999999998
100
AcDbArc
 50
289.123897629
 51
0.0
  0
LINE
  5
182
330
13F
100
AcDbEntity
  8
DV2_Standard
  6
Continuous
 62
     7
100
AcDbLine
 10
129.3201890408
 20
131.6318498485
 30
0.0
 11
129.3201890408
 21
144.0256805548
 31
0.0
  0
ARC
  5
183
330
13F
100
AcDbEntity
  8
DV2_Standard
  6
Continuous
 62
     7
100
AcDbCircle
 10
130.3201890408
 20
131.6318498485
 30
0.0
 40
1.0
100
AcDbArc
 50
180.0
 51
250.876102371
  0
LINE
  5
184
330
13F
100
AcDbEntity
  8
DV2_Standard
  6
Continuous
 62
     7
100
AcDbLine
 10
129.3200993616
 20
160.6747856974
 30
0.0
 11
129.3200993616
 21
152.4747856974
 31
0.0
  0
LINE
  5
185
330
13F
100
AcDbEntity
  8
DV2_Standard
  6
Continuous
 62
     7
100
AcDbLine
 10
129.8700993616
 20
161.2247856974
 30
0.0
 11
138.0700993616
 21
161.2247856974
 31
0.0
  0
LINE
  5
186
330
13F
100
AcDbEntity
  8
DV2_Standard
  6
Continuous
 62
     7
100
AcDbLine
 10
126.7222728057
 20
131.7247853624
 30
0.0
 11
126.7222728057
 21
164.4247856974
 31
0.0
  0
LINE
  5
187
330
13F
100
AcDbEntity
  8
DV2_Standard
  6
Continuous
 62
     7
100
AcDbLine
 10
118.4222728057
 20
131.7247853624
 30
0.0
 11
121.8722728057
 21
131.7247853624
 31
0.0
  0
ARC
  5
188
330
13F
100
AcDbEntity
  8
DV2_Standard
  6
Continuous
 62
     7
100
AcDbCircle
 10
127.2222728057
 20
174.579855952
 30
0.0
 40
0.4999999999999998
100
AcDbArc
 50
75.1831598296
 51
180.0
  0
LINE
  5
189
330
13F
100
AcDbEntity
  8
DV2_Standard
  6
Continuous
 62
     7
100
AcDbLine
 10
127.9200993616
 20
163.9247856974
 30
0.0
 11
127.9200993616
 21
131.2247856974
 31
0.0
  0
LINE
  5
18A
330
13F
100
AcDbEntity
  8
DV2_Standard
  6
Continuous
 62
     7
100
AcDbLine
 10
118.8156101393
 20
160.4206739545
 30
0.0
 11
118.4222728057
 21
131.7247853624
 31
0.0
  0
ARC
  5
18B
330
13F
100
AcDbEntity
  8
DV2_Standard
  6
Continuous
 62
     7
100
AcDbCircle
 10
119.5977702364
 20
159.1136829129
 30
0.0
 40
1.999999999999999
100
AcDbArc
 50
129.5349054322
 51
156.001857974
  0
ARC
  5
18C
330
13F
100
AcDbEntity
  8
DV2_Standard
  6
Continuous
 62
     7
100
AcDbCircle
 10
118.515638318
 20
160.4247856974
 30
0.0
 40
0.3000000000000004
100
AcDbArc
 50
359.2146903622
 51
129.5349054322
  0
LINE
  5
18D
330
13F
100
AcDbEntity
  8
DV2_Standard
  6
Continuous
 62
     7
100
AcDbLine
 10
117.7706529429
 20
159.9270969502
 30
0.0
 11
117.6035880909
 21
159.5518303991
 31
0.0
  0
LINE
  5
18E
330
13F
100
AcDbEntity
  8
DV2_Standard
  6
Continuous
 62
     7
100
AcDbLine
 10
117.2154004697
 20
131.2316386022
 30
0.0
 11
117.6035880909
 21
159.5518303991
 31
0.0
  0
ARC
  5
18F
330
13F
100
AcDbEntity
  8
DV2_Standard
  6
Continuous
 62
     7
100
AcDbCircle
 10
117.7153535052
 20
131.2247856974
 30
0.0
 40
0.5000000000000007
100
AcDbArc
 50
179.2146903622
 51
270.0
  0
LINE
  5
190
330
13F
100
AcDbEntity
  8
DV2_Standard
  6
Continuous
 62
     7
100
AcDbLine
 10
127.4200993616
 20
130.7247856974
 30
0.0
 11
117.7153535052
 21
130.7247856974
 31
0.0
  0
ARC
  5
191
330
13F
100
AcDbEntity
  8
DV2_Standard
  6
Continuous
 62
     7
100
AcDbCircle
 10
127.4200993616
 20
131.2247856974
 30
0.0
 40
0.5000000000000004
100
AcDbArc
 50
270.0
 51
0.0
  0
LINE
  5
192
330
13F
100
AcDbEntity
  8
DV2_Standard
  6
Continuous
 62
     7
100
AcDbLine
 10
123.2722728057
 20
131.7247853624
 30
0.0
 11
126.7222728057
 21
131.7247853624
 31
0.0
  0
ARC
  5
193
330
13F
100
AcDbEntity
  8
DV2_Standard
  6
Continuous
 62
     7
100
AcDbCircle
 10
123.2722728057
 20
131.9247853624
 30
0.0
 40
0.1999999999999988
100
AcDbArc
 50
194.4775121859
 51
270.0
  0
ARC
  5
194
330
13F
100
AcDbEntity
  8
DV2_Standard
  6
Continuous
 62
     7
100
AcDbCircle
 10
122.8849744711
 20
131.8247853624
 30
0.0
 40
0.2000000000000005
100
AcDbArc
 50
14.4775121859
 51
90.0
  0
LINE
  5
195
330
13F
100
AcDbEntity
  8
DV2_Standard
  6
Continuous
 62
     7
100
AcDbLine
 10
122.2595711403
 20
132.0247853624
 30
0.0
 11
122.8849744711
 21
132.0247853624
 31
0.0
  0
ARC
  5
196
330
13F
100
AcDbEntity
  8
DV2_Standard
  6
Continuous
 62
     7
100
AcDbCircle
 10
121.8722728057
 20
131.9247853624
 30
0.0
 40
0.2000000000000003
100
AcDbArc
 50
270.0
 51
345.5224878141
  0
ARC
  5
197
330
13F
100
AcDbEntity
  8
DV2_Standard
  6
Continuous
 62
     7
100
AcDbCircle
 10
122.2595711403
 20
131.8247853624
 30
0.0
 40
0.1999999999999988
100
AcDbArc
 50
90.0
 51
165.5224878141
  0
LINE
  5
198
330
13F
100
AcDbEntity
  8
DV2_Standard
  6
Continuous
 62
     7
100
AcDbLine
 10
140.1225986463
 20
131.2247856974
 30
0.0
 11
140.1225986463
 21
163.9247856974
 31
0.0
  0
ARC
  5
199
330
13F
100
AcDbEntity
  8
DV2_Standard
  6
Continuous
 62
     7
100
AcDbCircle
 10
140.6225986463
 20
131.2247856974
 30
0.0
 40
0.5000000000000004
100
AcDbArc
 50
180.0
 51
270.0
  0
LINE
  5
19A
330
13F
100
AcDbEntity
  8
DV2_Standard
  6
Continuous
 62
     7
100
AcDbLine
 10
137.1200993616
 20
151.7247856974
 30
0.0
 11
138.7681620495
 21
151.7247856974
 31
0.0
  0
LINE
  5
19B
330
13F
100
AcDbEntity
  8
DV2_Standard
  6
Continuous
 62
     7
100
AcDbLine
 10
138.7681620495
 20
151.7247856974
 30
0.0
 11
138.7681620495
 21
161.4247856974
 31
0.0
  0
LINE
  5
19C
330
13F
100
AcDbEntity
  8
DV2_Standard
  6
Continuous
 62
     7
100
AcDbLine
 10
138.7681620495
 20
161.4247856974
 30
0.0
 11
129.0700993616
 21
161.4247856974
 31
0.0
  0
LINE
  5
19D
330
13F
100
AcDbEntity
  8
DV2_Standard
  6
Continuous
 62
     7
100
AcDbLine
 10
129.0700993616
 20
161.4247856974
 30
0.0
 11
129.0700993616
 21
151.7247856974
 31
0.0
  0
LINE
  5
19E
330
13F
100
AcDbEntity
  8
DV2_Standard
  6
Continuous
 62
     7
100
AcDbLine
 10
129.0700993616
 20
151.7247856974
 30
0.0
 11
130.7200993616
 21
151.7247856974
 31
0.0
  0
ARC
  5
19F
330
13F
100
AcDbEntity
  8
DV2_Standard
  6
Continuous
 62
     7
100
AcDbCircle
 10
130.7200993616
 20
151.5247856974
 30
0.0
 40
0.2000000000000005
100
AcDbArc
 50
300.0
 51
90.0
  0
LINE
  5
1A0
330
13F
100
AcDbEntity
  8
DV2_Standard
  6
Continuous
 62
     7
100
AcDbLine
 10
130.8200993616
 20
151.3515806166
 30
0.0
 11
129.7344587155
 21
150.7247856974
 31
0.0
  0
LINE
  5
1A1
330
13F
100
AcDbEntity
  8
DV2_Standard
  6
Continuous
 62
     7
100
AcDbLine
 10
129.7344587155
 20
150.7247856974
 30
0.0
 11
128.9200993616
 21
150.7247856974
 31
0.0
  0
LINE
  5
1A2
330
13F
100
AcDbEntity
  8
DV2_Standard
  6
Continuous
 62
     7
100
AcDbLine
 10
128.9200993616
 20
150.7247856974
 30
0.0
 11
128.9200993616
 21
131.0247856974
 31
0.0
  0
ARC
  5
1A3
330
13F
100
AcDbEntity
  8
DV2_Standard
  6
Continuous
 62
     7
100
AcDbCircle
 10
128.6200993616
 20
131.0247856974
 30
0.0
 40
0.3000000000000008
100
AcDbArc
 50
270.0
 51
0.0
  0
LINE
  5
1A4
330
13F
100
AcDbEntity
  8
DV2_Standard
  6
Continuous
 62
     7
100
AcDbLine
 10
128.6200993616
 20
130.7247856974
 30
0.0
 11
127.9200993616
 21
130.7247856974
 31
0.0
  0
LINE
  5
1A5
330
13F
100
AcDbEntity
  8
DV2_Standard
  6
Continuous
 62
     7
100
AcDbLine
 10
127.9200993616
 20
130.7247856974
 30
0.0
 11
127.9200993616
 21
163.9247856974
 31
0.0
  0
LINE
  5
1A6
330
13F
100
AcDbEntity
  8
DV2_Standard
  6
Continuous
 62
     7
100
AcDbLine
 10
129.0700993616
 20
163.9247856974
 30
0.0
 11
129.0700993616
 21
162.4247856974
 31
0.0
  0
LINE
  5
1A7
330
13F
100
AcDbEntity
  8
DV2_Standard
  6
Continuous
 62
     7
100
AcDbLine
 10
129.0700993616
 20
162.4247856974
 30
0.0
 11
138.7681620495
 21
162.4247856974
 31
0.0
  0
LINE
  5
1A8
330
13F
100
AcDbEntity
  8
DV2_Standard
  6
Continuous
 62
     7
100
AcDbLine
 10
138.7681620495
 20
162.4247856974
 30
0.0
 11
138.7681620495
 21
163.9247856974
 31
0.0
  0
LINE
  5
1A9
330
13F
100
AcDbEntity
  8
DV2_Standard
  6
Continuous
 62
     7
100
AcDbLine
 10
139.9200993616
 20
163.9247856974
 30
0.0
 11
139.9200993616
 21
130.7247856974
 31
0.0
  0
LINE
  5
1AA
330
13F
100
AcDbEntity
  8
DV2_Standard
  6
Continuous
 62
     7
100
AcDbLine
 10
139.9200993616
 20
130.7247856974
 30
0.0
 11
139.2200993616
 21
130.7247856974
 31
0.0
  0
ARC
  5
1AB
330
13F
100
AcDbEntity
  8
DV2_Standard
  6
Continuous
 62
     7
100
AcDbCircle
 10
139.2200993616
 20
131.0247856974
 30
0.0
 40
0.3000000000000017
100
AcDbArc
 50
180.0
 51
270.0
  0
LINE
  5
1AC
330
13F
100
AcDbEntity
  8
DV2_Standard
  6
Continuous
 62
     7
100
AcDbLine
 10
138.9200993616
 20
131.0247856974
 30
0.0
 11
138.9200993616
 21
150.7247856974
 31
0.0
  0
LINE
  5
1AD
330
13F
100
AcDbEntity
  8
DV2_Standard
  6
Continuous
 62
     7
100
AcDbLine
 10
138.9200993616
 20
150.7247856974
 30
0.0
 11
138.1057400076
 21
150.7247856974
 31
0.0
  0
LINE
  5
1AE
330
13F
100
AcDbEntity
  8
DV2_Standard
  6
Continuous
 62
     7
100
AcDbLine
 10
138.1057400076
 20
150.7247856974
 30
0.0
 11
137.0200993616
 21
151.3515806166
 31
0.0
  0
ARC
  5
1AF
330
13F
100
AcDbEntity
  8
DV2_Standard
  6
Continuous
 62
     7
100
AcDbCircle
 10
137.1200993616
 20
151.5247856974
 30
0.0
 40
0.2000000000000005
100
AcDbArc
 50
90.0
 51
240.0
  0
LINE
  5
1B0
330
13F
100
AcDbEntity
  8
DV2_Standard
  6
Continuous
 62
     7
100
AcDbLine
 10
126.7222728057
 20
132.0247853624
 30
0.0
 11
118.9222728057
 21
132.0247853624
 31
0.0
  0
LINE
  5
1B1
330
13F
100
AcDbEntity
  8
DV2_Standard
  6
Continuous
 62
     7
100
AcDbLine
 10
118.9222728057
 20
132.0247853624
 30
0.0
 11
118.9222728057
 21
191.0670841656
 31
0.0
  0
LINE
  5
1B2
330
13F
100
AcDbEntity
  8
DV2_Standard
  6
Continuous
 62
     7
100
AcDbLine
 10
129.5200993616
 20
150.0853003665
 30
0.0
 11
129.5200993616
 21
147.9791910232
 31
0.0
  0
LINE
  5
1B3
330
13F
100
AcDbEntity
  8
DV2_Standard
  6
Continuous
 62
     7
100
AcDbLine
 10
129.5200993616
 20
147.9791910232
 30
0.0
 11
129.74982661
 21
147.7494637748
 31
0.0
  0
LINE
  5
1B4
330
13F
100
AcDbEntity
  8
DV2_Standard
  6
Continuous
 62
     7
100
AcDbLine
 10
130.319975933
 20
147.1793144519
 30
0.0
 11
130.5697036316
 21
146.9295867532
 31
0.0
  0
LINE
  5
1B5
330
13F
100
AcDbEntity
  8
DV2_Standard
  6
Continuous
 62
     7
100
AcDbLine
 10
130.5697036316
 20
146.9295867532
 30
0.0
 11
130.5835520985
 21
146.9295867532
 31
0.0
  0
ARC
  5
1B6
330
13F
100
AcDbEntity
  8
DV2_Standard
  6
Continuous
 62
     7
100
AcDbCircle
 10
131.3186780053
 20
146.2247856975
 30
0.0
 40
0.9999978695709412
100
AcDbArc
 50
227.2649489396
 51
229.2436613883
  0
ARC
  5
1B7
330
13F
100
AcDbEntity
  8
DV2_Standard
  6
Continuous
 62
     7
100
AcDbCircle
 10
131.3186780053
 20
146.2247856975
 30
0.0
 40
0.9999978695709412
100
AcDbArc
 50
250.71150351
 51
109.28849649
  0
ARC
  5
1B8
330
13F
100
AcDbEntity
  8
DV2_Standard
  6
Continuous
 62
     7
100
AcDbCircle
 10
131.3186780053
 20
146.2247856975
 30
0.0
 40
0.9999978695709412
100
AcDbArc
 50
130.7563386118
 51
132.7350510604
  0
LINE
  5
1B9
330
13F
100
AcDbEntity
  8
DV2_Standard
  6
Continuous
 62
     7
100
AcDbLine
 10
130.5790407645
 20
145.5214379289
 30
0.0
 11
130.569975933
 21
145.5214379289
 31
0.0
  0
ARC
  5
1BA
330
13F
100
AcDbEntity
  8
DV2_Standard
  6
Continuous
 62
     7
100
AcDbCircle
 10
131.3186780053
 20
146.2247856975
 30
0.0
 40
1.999999999999983
100
AcDbArc
 50
240.0429258204
 51
252.5816887241
  0
LINE
  5
1BB
330
13F
100
AcDbEntity
  8
DV2_Standard
  6
Continuous
 62
     7
100
AcDbLine
 10
130.7199865161
 20
144.31649628
 30
0.0
 11
130.7199865161
 21
135.7222379998
 31
0.0
  0
ARC
  5
1BC
330
13F
100
AcDbEntity
  8
DV2_Standard
  6
Continuous
 62
     7
100
AcDbCircle
 10
131.2198421425
 20
135.7342526894
 30
0.0
 40
0.5000000000000265
100
AcDbArc
 50
181.3769145337
 51
358.6230854662
  0
LINE
  5
1BD
330
13F
100
AcDbEntity
  8
DV2_Standard
  6
Continuous
 62
     7
100
AcDbLine
 10
131.7196977689
 20
135.7222379998
 30
0.0
 11
131.7196977689
 21
144.265402338
 31
0.0
  0
ARC
  5
1BE
330
13F
100
AcDbEntity
  8
DV2_Standard
  6
Continuous
 62
     7
100
AcDbCircle
 10
131.3186780053
 20
146.2247856975
 30
0.0
 40
1.999999999999984
100
AcDbArc
 50
281.5667771078
 51
345.5224878141
  0
LINE
  5
1BF
330
13F
100
AcDbEntity
  8
DV2_Standard
  6
Continuous
 62
     7
100
AcDbLine
 10
133.2551696785
 20
145.7247856975
 30
0.0
 11
134.5850290447
 21
145.7247856975
 31
0.0
  0
ARC
  5
1C0
330
13F
100
AcDbEntity
  8
DV2_Standard
  6
Continuous
 62
     7
100
AcDbCircle
 10
136.5215207178
 20
146.2247856975
 30
0.0
 40
1.999999999999984
100
AcDbArc
 50
194.4775121859
 51
258.4332228922
  0
LINE
  5
1C1
330
13F
100
AcDbEntity
  8
DV2_Standard
  6
Continuous
 62
     7
100
AcDbLine
 10
136.1205009543
 20
144.265402338
 30
0.0
 11
136.1205009543
 21
135.7222379998
 31
0.0
  0
ARC
  5
1C2
330
13F
100
AcDbEntity
  8
DV2_Standard
  6
Continuous
 62
     7
100
AcDbCircle
 10
136.6203565806
 20
135.7342526894
 30
0.0
 40
0.5000000000000256
100
AcDbArc
 50
181.3769145337
 51
358.6230854661
  0
LINE
  5
1C3
330
13F
100
AcDbEntity
  8
DV2_Standard
  6
Continuous
 62
     7
100
AcDbLine
 10
137.120212207
 20
135.7222379998
 30
0.0
 11
137.120212207
 21
144.31649628
 31
0.0
  0
ARC
  5
1C4
330
13F
100
AcDbEntity
  8
DV2_Standard
  6
Continuous
 62
     7
100
AcDbCircle
 10
136.5215207178
 20
146.2247856975
 30
0.0
 40
1.999999999999984
100
AcDbArc
 50
287.4183112759
 51
299.9570741796
  0
LINE
  5
1C5
330
13F
100
AcDbEntity
  8
DV2_Standard
  6
Continuous
 62
     7
100
AcDbLine
 10
137.5202227902
 20
144.4919861792
 30
0.0
 11
137.5202227902
 21
145.2714379289
 31
0.0
  0
ARC
  5
1C6
330
13F
100
AcDbEntity
  8
DV2_Standard
  6
Continuous
 62
     7
100
AcDbCircle
 10
136.5215207178
 20
146.2247856975
 30
0.0
 40
0.9999978695709362
100
AcDbArc
 50
70.5118303766
 51
289.4881696235
  0
LINE
  5
1C7
330
13F
100
AcDbEntity
  8
DV2_Standard
  6
Continuous
 62
     7
100
AcDbLine
 10
137.2642900145
 20
146.9295867532
 30
0.0
 11
137.2704950915
 21
146.9295867532
 31
0.0
  0
LINE
  5
1C8
330
13F
100
AcDbEntity
  8
DV2_Standard
  6
Continuous
 62
     7
100
AcDbLine
 10
137.2704950915
 20
146.9295867532
 30
0.0
 11
137.52786618
 21
147.1869578417
 31
0.0
  0
LINE
  5
1C9
330
13F
100
AcDbEntity
  8
DV2_Standard
  6
Continuous
 62
     7
100
AcDbLine
 10
138.093169788
 20
147.7522614496
 30
0.0
 11
138.3200993616
 21
147.9791910232
 31
0.0
  0
LINE
  5
1CA
330
13F
100
AcDbEntity
  8
DV2_Standard
  6
Continuous
 62
     7
100
AcDbLine
 10
138.3200993616
 20
147.9791910232
 30
0.0
 11
138.3200993616
 21
150.0853003665
 31
0.0
  0
LINE
  5
1CB
330
13F
100
AcDbEntity
  8
DV2_Standard
  6
Continuous
 62
     7
100
AcDbLine
 10
138.3200993616
 20
150.0853003665
 30
0.0
 11
137.2588884393
 21
150.6979907781
 31
0.0
  0
ARC
  5
1CC
330
13F
100
AcDbEntity
  8
DV2_Standard
  6
Continuous
 62
     7
100
AcDbCircle
 10
137.1588884393
 20
150.5247856974
 30
0.0
 40
0.2000000000000016
100
AcDbArc
 50
60.0
 51
90.0
  0
LINE
  5
1CD
330
13F
100
AcDbEntity
  8
DV2_Standard
  6
Continuous
 62
     7
100
AcDbLine
 10
137.1588884393
 20
150.7247856974
 30
0.0
 11
136.5200993616
 21
150.7247856974
 31
0.0
  0
ARC
  5
1CE
330
13F
100
AcDbEntity
  8
DV2_Standard
  6
Continuous
 62
     7
100
AcDbCircle
 10
136.5200993616
 20
150.5247856974
 30
0.0
 40
0.1999999999999988
100
AcDbArc
 50
90.0
 51
180.0
  0
LINE
  5
1CF
330
13F
100
AcDbEntity
  8
DV2_Standard
  6
Continuous
 62
     7
100
AcDbLine
 10
136.3200993616
 20
150.5247856974
 30
0.0
 11
136.3200993616
 21
149.9247856975
 31
0.0
  0
ARC
  5
1D0
330
13F
100
AcDbEntity
  8
DV2_Standard
  6
Continuous
 62
     7
100
AcDbCircle
 10
136.5200993616
 20
149.9247856975
 30
0.0
 40
0.1999999999999988
100
AcDbArc
 50
180.0
 51
270.0
  0
LINE
  5
1D1
330
13F
100
AcDbEntity
  8
DV2_Standard
  6
Continuous
 62
     7
100
AcDbLine
 10
136.5200993616
 20
149.7247856975
 30
0.0
 11
137.1200993616
 21
149.7247856975
 31
0.0
  0
ARC
  5
1D2
330
13F
100
AcDbEntity
  8
DV2_Standard
  6
Continuous
 62
     7
100
AcDbCircle
 10
137.1200993616
 20
149.5247856975
 30
0.0
 40
0.1999999999911448
100
AcDbArc
 50
0.0
 51
90.0
  0
LINE
  5
1D3
330
13F
100
AcDbEntity
  8
DV2_Standard
  6
Continuous
 62
     7
100
AcDbLine
 10
137.3200993616
 20
149.5247856975
 30
0.0
 11
137.3200993616
 21
148.4247856975
 31
0.0
  0
ARC
  5
1D4
330
13F
100
AcDbEntity
  8
DV2_Standard
  6
Continuous
 62
     7
100
AcDbCircle
 10
137.1200993616
 20
148.4247856975
 30
0.0
 40
0.1999999999999988
100
AcDbArc
 50
270.0
 51
0.0
  0
LINE
  5
1D5
330
13F
100
AcDbEntity
  8
DV2_Standard
  6
Continuous
 62
     7
100
AcDbLine
 10
137.1200993616
 20
148.2247856975
 30
0.0
 11
135.183941618
 21
148.2247856975
 31
0.0
  0
LINE
  5
1D6
330
13F
100
AcDbEntity
  8
DV2_Standard
  6
Continuous
 62
     7
100
AcDbLine
 10
135.183941618
 20
148.2247856975
 30
0.0
 11
134.3179162142
 21
146.7247856975
 31
0.0
  0
LINE
  5
1D7
330
13F
100
AcDbEntity
  8
DV2_Standard
  6
Continuous
 62
     7
100
AcDbLine
 10
134.3179162142
 20
146.7247856975
 30
0.0
 11
133.522282509
 21
146.7247856975
 31
0.0
  0
LINE
  5
1D8
330
13F
100
AcDbEntity
  8
DV2_Standard
  6
Continuous
 62
     7
100
AcDbLine
 10
133.522282509
 20
146.7247856975
 30
0.0
 11
132.6562571052
 21
148.2247856975
 31
0.0
  0
LINE
  5
1D9
330
13F
100
AcDbEntity
  8
DV2_Standard
  6
Continuous
 62
     7
100
AcDbLine
 10
132.6562571052
 20
148.2247856975
 30
0.0
 11
130.7200993616
 21
148.2247856975
 31
0.0
  0
ARC
  5
1DA
330
13F
100
AcDbEntity
  8
DV2_Standard
  6
Continuous
 62
     7
100
AcDbCircle
 10
130.7200993616
 20
148.4247856975
 30
0.0
 40
0.1999999999999988
100
AcDbArc
 50
180.0
 51
270.0
  0
LINE
  5
1DB
330
13F
100
AcDbEntity
  8
DV2_Standard
  6
Continuous
 62
     7
100
AcDbLine
 10
130.5200993616
 20
148.4247856975
 30
0.0
 11
130.5200993616
 21
149.5247856975
 31
0.0
  0
ARC
  5
1DC
330
13F
100
AcDbEntity
  8
DV2_Standard
  6
Continuous
 62
     7
100
AcDbCircle
 10
130.7200993616
 20
149.5247856975
 30
0.0
 40
0.1999999999911443
100
AcDbArc
 50
90.0
 51
180.0
  0
LINE
  5
1DD
330
13F
100
AcDbEntity
  8
DV2_Standard
  6
Continuous
 62
     7
100
AcDbLine
 10
130.7200993616
 20
149.7247856975
 30
0.0
 11
131.3200993616
 21
149.7247856975
 31
0.0
  0
ARC
  5
1DE
330
13F
100
AcDbEntity
  8
DV2_Standard
  6
Continuous
 62
     7
100
AcDbCircle
 10
131.3200993616
 20
149.9247856975
 30
0.0
 40
0.1999999999934953
100
AcDbArc
 50
269.9999999981
 51
0.0
  0
LINE
  5
1DF
330
13F
100
AcDbEntity
  8
DV2_Standard
  6
Continuous
 62
     7
100
AcDbLine
 10
131.5200993616
 20
149.9247856975
 30
0.0
 11
131.5200993616
 21
150.5247856974
 31
0.0
  0
ARC
  5
1E0
330
13F
100
AcDbEntity
  8
DV2_Standard
  6
Continuous
 62
     7
100
AcDbCircle
 10
131.3200993616
 20
150.5247856974
 30
0.0
 40
0.2000000000065036
100
AcDbArc
 50
0.0
 51
89.999999999
  0
LINE
  5
1E1
330
13F
100
AcDbEntity
  8
DV2_Standard
  6
Continuous
 62
     7
100
AcDbLine
 10
131.3200993616
 20
150.7247856974
 30
0.0
 11
130.6813102838
 21
150.7247856974
 31
0.0
  0
ARC
  5
1E2
330
13F
100
AcDbEntity
  8
DV2_Standard
  6
Continuous
 62
     7
100
AcDbCircle
 10
130.6813102838
 20
150.5247856974
 30
0.0
 40
0.2000000000000023
100
AcDbArc
 50
90.0000000008
 51
120.0
  0
LINE
  5
1E3
330
13F
100
AcDbEntity
  8
DV2_Standard
  6
Continuous
 62
     7
100
AcDbLine
 10
130.5813102838
 20
150.6979907781
 30
0.0
 11
129.5200993616
 21
150.0853003665
 31
0.0
  0
LINE
  5
1E4
330
13F
100
AcDbEntity
  8
DV2_Standard
  6
Continuous
 62
     7
100
AcDbLine
 10
137.2702227902
 20
145.5214379289
 30
0.0
 11
137.2688013485
 21
145.5214379289
 31
0.0
  0
LINE
  5
1E5
330
13F
100
AcDbEntity
  8
DV2_Standard
  6
Continuous
 62
     7
100
AcDbLine
 10
130.569975933
 20
145.5214379289
 30
0.0
 11
130.319975933
 21
145.2714379289
 31
0.0
  0
LINE
  5
1E6
330
13F
100
AcDbEntity
  8
DV2_Standard
  6
Continuous
 62
     7
100
AcDbLine
 10
137.5202227902
 20
145.2714379289
 30
0.0
 11
137.2702227902
 21
145.5214379289
 31
0.0
  0
ARC
  5
1E8
330
13F
100
AcDbEntity
  8
DV2_Standard
  6
Continuous
 62
     7
100
AcDbCircle
 10
127.2222728057
 20
174.5716681279
 30
0.0
 40
0.5
100
AcDbArc
 50
75.1831598296
 51
180.0
  0
LINE
  5
1E9
330
13F
100
AcDbEntity
  8
DV2_Standard
  6
Continuous
 62
     7
100
AcDbLine
 10
126.7222728057
 20
132.0247853624
 30
0.0
 11
126.7222728057
 21
164.4247856974
 31
0.0
  0
LINE
  5
1EA
330
13F
100
AcDbEntity
  8
DV2_Standard
  6
Continuous
 62
     7
100
AcDbLine
 10
126.7222728057
 20
174.579855952
 30
0.0
 11
126.7222728057
 21
191.0670841656
 31
0.0
  0
ARC
  5
1EB
330
13F
100
AcDbEntity
  8
DV2_Standard
  6
Continuous
 62
     7
100
AcDbCircle
 10
127.2222728057
 20
164.4247856974
 30
0.0
 40
0.5
100
AcDbArc
 50
180.0
 51
270.0
  0
LINE
  5
1EC
330
13F
100
AcDbEntity
  8
DV2_Standard
  6
Continuous
 62
     7
100
AcDbLine
 10
129.3222728057
 20
163.9247856974
 30
0.0
 11
127.2222728057
 21
163.9247856974
 31
0.0
  0
LINE
  5
1ED
330
13F
100
AcDbEntity
  8
DV2_Standard
  6
Continuous
 62
     7
100
AcDbLine
 10
129.3222728057
 20
163.9247856974
 30
0.0
 11
129.3222728057
 21
163.7247856974
 31
0.0
  0
LINE
  5
1EE
330
13F
100
AcDbEntity
  8
DV2_Standard
  6
Continuous
 62
     7
100
AcDbLine
 10
129.3222728057
 20
162.7247856974
 30
0.0
 11
129.3222728057
 21
163.7247856974
 31
0.0
  0
LINE
  5
1EF
330
13F
100
AcDbEntity
  8
DV2_Standard
  6
Continuous
 62
     7
100
AcDbLine
 10
138.3222728057
 20
162.7247856974
 30
0.0
 11
129.3222728057
 21
162.7247856974
 31
0.0
  0
LINE
  5
1F0
330
13F
100
AcDbEntity
  8
DV2_Standard
  6
Continuous
 62
     7
100
AcDbLine
 10
138.3222728057
 20
163.7247856974
 30
0.0
 11
138.3222728057
 21
162.7247856974
 31
0.0
  0
LINE
  5
1F1
330
13F
100
AcDbEntity
  8
DV2_Standard
  6
Continuous
 62
     7
100
AcDbLine
 10
138.3222728057
 20
163.7247856974
 30
0.0
 11
138.3222728057
 21
163.9247856974
 31
0.0
  0
LINE
  5
1F2
330
13F
100
AcDbEntity
  8
DV2_Standard
  6
Continuous
 62
     7
100
AcDbLine
 10
138.3222728057
 20
163.9247856974
 30
0.0
 11
140.5597103921
 21
163.9247856974
 31
0.0
  0
ARC
  5
1F3
330
13F
100
AcDbEntity
  8
DV2_Standard
  6
Continuous
 62
     7
100
AcDbCircle
 10
140.5597103911
 20
164.8221283487
 30
0.0
 40
0.8973426513093095
100
AcDbArc
 50
270.0000000638
 51
0.0
  0
LINE
  5
1F4
330
13F
100
AcDbEntity
  8
DV2_Standard
  6
Continuous
 62
     7
100
AcDbLine
 10
141.4570530424
 20
164.8221283487
 30
0.0
 11
141.4570530424
 21
166.9442659544
 31
0.0
  0
ARC
  5
1F5
330
13F
100
AcDbEntity
  8
DV2_Standard
  6
Continuous
 62
     7
100
AcDbCircle
 10
136.2194334337
 20
167.2927892781
 30
0.0
 40
5.249202574939567
100
AcDbArc
 50
356.1930186344
 51
79.2476350651
  0
LINE
  5
1F6
330
13F
100
AcDbEntity
  8
DV2_Standard
  6
Continuous
 62
     7
100
AcDbLine
 10
127.3501377618
 20
175.0550422615
 30
0.0
 11
137.1987487461
 21
172.4498300179
 31
0.0
  0
LINE
  5
1F7
330
13F
100
AcDbEntity
  8
DV2_Standard
  6
Continuous
 62
     7
100
AcDbLine
 10
126.7222728057
 20
164.4247856974
 30
0.0
 11
126.7222728057
 21
174.5716681279
 31
0.0
  0
ENDBLK
  5
1F9
330
13F
100
AcDbEntity
  8
0
100
AcDbBlockEnd
  0
BLOCK
  5
20E
330
1FA
100
AcDbEntity
  8
0
100
AcDbBlockBegin
  2
SE2
 70
     0
 10
0.0
 20
0.0
 30
0.0
  3
SE2
  1

  0
CIRCLE
  5
1FD
330
1FA
100
AcDbEntity
  8
50555_ABC_SPAX_S
  6
Continuous
 62
     7
100
AcDbCircle
 10
62.4619286483
 20
168.8355437813
 30
0.0
 40
3.5
  0
ARC
  5
1FE
330
1FA
100
AcDbEntity
  8
50555_ABC_SPAX_S
  6
Continuous
 62
     7
100
AcDbCircle
 10
61.5319287142
 20
166.5899388896
 30
0.0
 40
0.9300000000000029
100
AcDbArc
 50
25.4671842922
 51
109.5267541326
  0
ARC
  5
1FF
330
1FA
100
AcDbEntity
  8
50555_ABC_SPAX_S
  6
Continuous
 62
     7
100
AcDbCircle
 10
61.1876543175
 20
167.5606989731
 30
0.0
 40
0.1000000000000032
100
AcDbArc
 50
160.4395700989
 51
289.5267541326
  0
ARC
  5
200
330
1FA
100
AcDbEntity
  8
50555_ABC_SPAX_S
  6
Continuous
 62
     7
100
AcDbCircle
 10
62.4618453736
 20
167.0328327895
 30
0.0
 40
0.0999999999999985
100
AcDbArc
 50
205.4671842922
 51
334.554378728
  0
ARC
  5
201
330
1FA
100
AcDbEntity
  8
50555_ABC_SPAX_S
  6
Continuous
 62
     7
100
AcDbCircle
 10
60.2170967499
 20
167.9055438775
 30
0.0
 40
0.9300000000000027
100
AcDbArc
 50
340.4395700989
 51
64.5566262212
  0
ARC
  5
202
330
1FA
100
AcDbEntity
  8
50555_ABC_SPAX_S
  6
Continuous
 62
     7
100
AcDbCircle
 10
63.3919286483
 20
166.5902888911
 30
0.0
 40
0.9300000000000022
100
AcDbArc
 50
70.4579812343
 51
154.554378728
  0
ARC
  5
203
330
1FA
100
AcDbEntity
  8
50555_ABC_SPAX_S
  6
Continuous
 62
     7
100
AcDbCircle
 10
60.6596041644
 20
168.8356445108
 30
0.0
 40
0.1000000000000004
100
AcDbArc
 50
115.4694337484
 51
244.5566262212
  0
ARC
  5
204
330
1FA
100
AcDbEntity
  8
50555_ABC_SPAX_S
  6
Continuous
 62
     7
100
AcDbCircle
 10
63.7364616609
 20
167.5609572192
 30
0.0
 40
0.0999999999999994
100
AcDbArc
 50
250.4579812343
 51
19.5451798403
  0
ARC
  5
205
330
1FA
100
AcDbEntity
  8
50555_ABC_SPAX_S
  6
Continuous
 62
     7
100
AcDbCircle
 10
60.2166737559
 20
169.7655437813
 30
0.0
 40
0.9300000000000046
100
AcDbArc
 50
295.4694337484
 51
19.5420187954
  0
ARC
  5
206
330
1FA
100
AcDbEntity
  8
50555_ABC_SPAX_S
  6
Continuous
 62
     7
100
AcDbCircle
 10
64.7071109793
 20
167.9055437841
 30
0.0
 40
0.9300000000000014
100
AcDbArc
 50
115.4541655472
 51
199.5451798403
  0
ARC
  5
207
330
1FA
100
AcDbEntity
  8
50555_ABC_SPAX_S
  6
Continuous
 62
     7
100
AcDbCircle
 10
61.1873420839
 20
170.1100767944
 30
0.0
 40
0.1
100
AcDbArc
 50
70.4548201894
 51
199.5420187954
  0
ARC
  5
208
330
1FA
100
AcDbEntity
  8
50555_ABC_SPAX_S
  6
Continuous
 62
     7
100
AcDbCircle
 10
64.2644283864
 20
168.8355610538
 30
0.0
 40
0.1000000000000006
100
AcDbArc
 50
295.4541655472
 51
64.5413640616
  0
ARC
  5
209
330
1FA
100
AcDbEntity
  8
50555_ABC_SPAX_S
  6
Continuous
 62
     7
100
AcDbCircle
 10
61.5319286483
 20
171.0807261129
 30
0.0
 40
0.9300000000000027
100
AcDbArc
 50
250.4548201894
 51
334.5435993495
  0
ARC
  5
20A
330
1FA
100
AcDbEntity
  8
50555_ABC_SPAX_S
  6
Continuous
 62
     7
100
AcDbCircle
 10
64.7071835407
 20
169.7655437813
 30
0.0
 40
0.9300000000000028
100
AcDbArc
 50
160.4579812036
 51
244.5413640616
  0
ARC
  5
20B
330
1FA
100
AcDbEntity
  8
50555_ABC_SPAX_S
  6
Continuous
 62
     7
100
AcDbCircle
 10
62.4619286483
 20
170.6380072405
 30
0.0
 40
0.0999999999999969
100
AcDbArc
 50
25.4564006519
 51
154.5435993495
  0
ARC
  5
20C
330
1FA
100
AcDbEntity
  8
50555_ABC_SPAX_S
  6
Continuous
 62
     7
100
AcDbCircle
 10
63.7365152127
 20
170.1100767944
 30
0.0
 40
0.1000000000000003
100
AcDbArc
 50
340.4579812036
 51
109.5451798096
  0
ARC
  5
20D
330
1FA
100
AcDbEntity
  8
50555_ABC_SPAX_S
  6
Continuous
 62
     7
100
AcDbCircle
 10
63.3919286483
 20
171.0807261129
 30
0.0
 40
0.9300000000000027
100
AcDbArc
 50
205.4564006519
 51
289.5451798096
  0
ENDBLK
  5
20F
330
1FA
100
AcDbEntity
  8
0
100
AcDbBlockEnd
  0
BLOCK
  5
223
330
210
100
AcDbEntity
  8
0
100
AcDbBlockBegin
  2
SE3
 70
     0
 10
0.0
 20
0.0
 30
0.0
  3
SE3
  1

  0
CIRCLE
  5
212
330
210
100
AcDbEntity
  8
50555_ABC_SPAX_S
  6
Continuous
 62
     7
100
AcDbCircle
 10
133.8222728057
 20
168.2228786171
 30
0.0
 40
3.5
  0
ARC
  5
213
330
210
100
AcDbEntity
  8
50555_ABC_SPAX_S
  6
Continuous
 62
     7
100
AcDbCircle
 10
132.8922728716
 20
165.9772737254
 30
0.0
 40
0.9300000000000029
100
AcDbArc
 50
25.4671842922
 51
109.5267541326
  0
ARC
  5
214
330
210
100
AcDbEntity
  8
50555_ABC_SPAX_S
  6
Continuous
 62
     7
100
AcDbCircle
 10
132.5479984748
 20
166.9480338089
 30
0.0
 40
0.1000000000000032
100
AcDbArc
 50
160.4395700989
 51
289.5267541326
  0
ARC
  5
215
330
210
100
AcDbEntity
  8
50555_ABC_SPAX_S
  6
Continuous
 62
     7
100
AcDbCircle
 10
133.822189531
 20
166.4201676253
 30
0.0
 40
0.0999999999999985
100
AcDbArc
 50
205.4671842922
 51
334.5543787281
  0
ARC
  5
216
330
210
100
AcDbEntity
  8
50555_ABC_SPAX_S
  6
Continuous
 62
     7
100
AcDbCircle
 10
131.5774409073
 20
167.2928787133
 30
0.0
 40
0.9300000000000027
100
AcDbArc
 50
340.4395700989
 51
64.5566262212
  0
ARC
  5
217
330
210
100
AcDbEntity
  8
50555_ABC_SPAX_S
  6
Continuous
 62
     7
100
AcDbCircle
 10
134.7522728057
 20
165.9776237269
 30
0.0
 40
0.9300000000000022
100
AcDbArc
 50
70.4579812343
 51
154.554378728
  0
ARC
  5
218
330
210
100
AcDbEntity
  8
50555_ABC_SPAX_S
  6
Continuous
 62
     7
100
AcDbCircle
 10
132.0199483218
 20
168.2229793467
 30
0.0
 40
0.1000000000000004
100
AcDbArc
 50
115.4694337484
 51
244.5566262212
  0
ARC
  5
219
330
210
100
AcDbEntity
  8
50555_ABC_SPAX_S
  6
Continuous
 62
     7
100
AcDbCircle
 10
135.0968058183
 20
166.948292055
 30
0.0
 40
0.0999999999999994
100
AcDbArc
 50
250.4579812343
 51
19.5451798403
  0
ARC
  5
21A
330
210
100
AcDbEntity
  8
50555_ABC_SPAX_S
  6
Continuous
 62
     7
100
AcDbCircle
 10
131.5770179133
 20
169.1528786171
 30
0.0
 40
0.9300000000000046
100
AcDbArc
 50
295.4694337483
 51
19.5420187954
  0
ARC
  5
21B
330
210
100
AcDbEntity
  8
50555_ABC_SPAX_S
  6
Continuous
 62
     7
100
AcDbCircle
 10
136.0674551366
 20
167.29287862
 30
0.0
 40
0.9300000000000014
100
AcDbArc
 50
115.4541655472
 51
199.5451798403
  0
ARC
  5
21C
330
210
100
AcDbEntity
  8
50555_ABC_SPAX_S
  6
Continuous
 62
     7
100
AcDbCircle
 10
132.5476862413
 20
169.4974116302
 30
0.0
 40
0.1
100
AcDbArc
 50
70.4548201894
 51
199.5420187954
  0
ARC
  5
21D
330
210
100
AcDbEntity
  8
50555_ABC_SPAX_S
  6
Continuous
 62
     7
100
AcDbCircle
 10
135.6247725438
 20
168.2228958897
 30
0.0
 40
0.1000000000000006
100
AcDbArc
 50
295.4541655472
 51
64.5413640616
  0
ARC
  5
21E
330
210
100
AcDbEntity
  8
50555_ABC_SPAX_S
  6
Continuous
 62
     7
100
AcDbCircle
 10
132.8922728057
 20
170.4680609488
 30
0.0
 40
0.9300000000000027
100
AcDbArc
 50
250.4548201894
 51
334.5435993495
  0
ARC
  5
21F
330
210
100
AcDbEntity
  8
50555_ABC_SPAX_S
  6
Continuous
 62
     7
100
AcDbCircle
 10
136.0675276981
 20
169.1528786171
 30
0.0
 40
0.9300000000000028
100
AcDbArc
 50
160.4579812036
 51
244.5413640616
  0
ARC
  5
220
330
210
100
AcDbEntity
  8
50555_ABC_SPAX_S
  6
Continuous
 62
     7
100
AcDbCircle
 10
133.8222728057
 20
170.0253420763
 30
0.0
 40
0.0999999999999969
100
AcDbArc
 50
25.4564006519
 51
154.5435993495
  0
ARC
  5
221
330
210
100
AcDbEntity
  8
50555_ABC_SPAX_S
  6
Continuous
 62
     7
100
AcDbCircle
 10
135.0968593701
 20
169.4974116302
 30
0.0
 40
0.1000000000000003
100
AcDbArc
 50
340.4579812036
 51
109.5451798096
  0
ARC
  5
222
330
210
100
AcDbEntity
  8
50555_ABC_SPAX_S
  6
Continuous
 62
     7
100
AcDbCircle
 10
134.7522728057
 20
170.4680609488
 30
0.0
 40
0.9300000000000027
100
AcDbArc
 50
205.4564006519
 51
289.5451798096
  0
ENDBLK
  5
224
330
210
100
AcDbEntity
  8
0
100
AcDbBlockEnd
  0
BLOCK
  5
22F
330
22D
100
AcDbEntity
  8
0
100
AcDbBlockBegin
  2
SEANNOT_GROUP
 70
     0
 10
0.0
 20
0.0
 30
0.0
  3
SEANNOT_GROUP
  1

  0
ENDBLK
  5
230
330
22D
100
AcDbEntity
  8
0
100
AcDbBlockEnd
  0
BLOCK
  5
232
330
231
100
AcDbEntity
  8
0
100
AcDbBlockBegin
  2
_NONE
 70
     0
 10
0.0
 20
0.0
 30
0.0
  3
_NONE
  1

  0
ENDBLK
  5
233
330
231
100
AcDbEntity
  8
0
100
AcDbBlockEnd
  0
ENDSEC
  0
SECTION
  2
ENTITIES
  0
INSERT
  5
70
330
1F
100
AcDbEntity
  8
Standard
100
AcDbBlockReference
  2
SE
 10
0.0
 20
0.0
 30
0.0
  0
DIMENSION
  5
13C
330
1F
100
AcDbEntity
  8
Standard
  6
Continuous
 62
     7
100
AcDbDimension
 10
47.5619286483
 20
181.6239450677
 30
0.0
 11
51.4619285425
 21
181.6239450677
 31
0.0
 70
   161
  1
\A1;<>
 71
     5
 42
-1.0
 73
     0
 74
     0
 75
     0
  3
E-Katalog
100
AcDbAlignedDimension
 13
47.5619286483
 23
132.6374505266
 33
0.0
 14
55.3619286483
 24
132.6374505266
 34
0.0
  0
DIMENSION
  5
13D
330
1F
100
AcDbEntity
  8
Standard
  6
Continuous
 62
     7
100
AcDbDimension
 10
76.2190642862
 20
131.3374508615
 30
0.0
 11
76.2190642862
 21
153.5066721945
 31
0.0
 70
   160
  1
\A1;44,5 {}
 71
     5
 42
-1.0
 73
     0
 74
     0
 75
     0
  3
E-Katalog
100
AcDbAlignedDimension
 13
55.9897936044
 23
175.6758952498
 33
0.0
 14
69.7809688607
 24
131.3374508615
 34
0.0
 50
90.0
100
AcDbRotatedDimension
1001
ACAD
1000
DSTYLE
1002
{
1070
   271
1070
     2
1070
     0
1002
}
  0
DIMENSION
  5
13E
330
1F
100
AcDbEntity
  8
Standard
  6
Continuous
 62
     7
100
AcDbDimension
 10
70.096708885
 20
181.6239450734
 30
0.0
 11
63.5584008386
 21
181.6239450734
 31
0.0
 70
   160
  1
\A1;14,6 {}
 71
     5
 42
-1.0
 73
     0
 74
     0
 75
     0
  3
E-Katalog
100
AcDbAlignedDimension
 13
55.3619286483
 23
175.184333292
 33
0.0
 14
70.096708885
 24
167.5569311186
 34
0.0
100
AcDbRotatedDimension
1001
ACAD
1000
DSTYLE
1002
{
1070
   271
1070
     2
1070
     0
1002
}
  0
INSERT
  5
140
330
1F
100
AcDbEntity
  8
Standard
100
AcDbBlockReference
  2
SE1
 10
0.0
 20
0.0
 30
0.0
  0
INSERT
  5
1FB
330
1F
100
AcDbEntity
  8
Standard
100
AcDbBlockReference
  2
SE2
 10
0.0
 20
0.0
 30
0.0
  0
INSERT
  5
211
330
1F
100
AcDbEntity
  8
Standard
100
AcDbBlockReference
  2
SE3
 10
0.0
 20
0.0
 30
0.0
  0
MTEXT
  5
226
330
1F
100
AcDbEntity
  8
Default
100
AcDbMText
 10
139.6221177889
 20
28.161474171
 30
0.0
 40
2.5
 41
60.0887616677
 46
5.4782708696
 71
     4
 72
     1
  1
{\fSolid Edge ISO|b0||i0||c0|p34;\C7;\H2.5;\W1.;Schall-Ex Slide GS-8 C-31}
 73
     1
 44
1.0
1001
ACAD
1000
ACAD_MTEXT_DEFINED_HEIGHT_BEGIN
1070
    46
1040
5.4782708696
1000
ACAD_MTEXT_DEFINED_HEIGHT_END
  0
LINE
  5
227
330
1F
100
AcDbEntity
  8
Default
  6
Continuous
 62
     7
100
AcDbLine
 10
138.2000000051
 20
9.9999999541
 30
0.0
 11
138.2000000051
 21
34.3502211504
 31
0.0
  0
MTEXT
  5
228
330
1F
100
AcDbEntity
  8
Default
100
AcDbMText
 10
122.5168744495
 20
17.5485405285
 30
0.0
 40
2.2
 41
15.7520375387
 46
4.0615484615
 71
     1
 72
     1
  1
{\fSolid Edge ANSI|b0||i0||c0|p34;\C7;\H2.2;\W1.;Maßst.}{\fSolid Edge ANSI|b0||i0||c0|p34;\C7;\H1.5;\W1.;/ scale}
 73
     1
 44
1.0
1001
ACAD
1000
ACAD_MTEXT_DEFINED_HEIGHT_BEGIN
1070
    46
1040
4.0615484615
1000
ACAD_MTEXT_DEFINED_HEIGHT_END
  0
MTEXT
  5
229
330
1F
100
AcDbEntity
  8
Default
100
AcDbMText
 10
148.2238718478
 20
15.907103298
 30
0.0
 40
2.2
 41
18.1206027323
 46
4.0615484615
 71
     5
 72
     1
  1
{\fSolid Edge ANSI|b0||i0||c0|p34;\C7;\H2.2;\W1.;Art. Nr.}{\fSolid Edge ANSI|b0||i0||c0|p34;\C7;\H1.5;\W1.;/ art. no.}
 73
     1
 44
1.0
1001
ACAD
1000
ACAD_MTEXT_DEFINED_HEIGHT_BEGIN
1070
    46
1040
4.0615484615
1000
ACAD_MTEXT_DEFINED_HEIGHT_END
  0
MTEXT
  5
22A
330
1F
100
AcDbEntity
  8
Default
100
AcDbMText
 10
139.5512791446
 20
32.9682471949
 30
0.0
 40
2.2
 41
21.7100432289
 46
4.0615484615
 71
     1
 72
     1
  1
{\fSolid Edge ANSI|b0||i0||c0|p34;\C7;\H2.2;\W1.;Benennung}{\fSolid Edge ANSI|b0||i0||c0|p34;\C7;\H1.5;\W1.;/ title}
 73
     1
 44
1.0
1001
ACAD
1000
ACAD_MTEXT_DEFINED_HEIGHT_BEGIN
1070
    46
1040
4.0615484615
1000
ACAD_MTEXT_DEFINED_HEIGHT_END
  0
LINE
  5
22B
330
1F
100
AcDbEntity
  8
Default
  6
Continuous
 62
     7
100
AcDbLine
 10
9.9999999859
 20
25.9987912971
 30
0.0
 11
199.9999999859
 21
25.9987912971
 31
0.0
  0
LINE
  5
22C
330
1F
100
AcDbEntity
  8
Default
  6
Continuous
 62
     7
100
AcDbLine
 10
138.2000000051
 20
34.3502211504
 30
0.0
 11
199.9999999859
 21
34.3502211504
 31
0.0
  0
INSERT
  5
22E
330
1F
100
AcDbEntity
  8
Standard
100
AcDbBlockReference
  2
SEANNOT_GROUP
 10
0.0
 20
0.0
 30
0.0
  0
MULTILEADER
  5
234
330
1F
100
AcDbEntity
  8
Standard
  6
Continuous
 62
     7
 92
      224
310
E0000000020000000C00000013000000993A0000CC0000002600000024AC20655A0D60407E6F6387C31D2640000000000000000000000000000000000000000000000000000000000000F03F000000000000F03F0000000000000000000000000000000031003A003100000003000000010000003333333333330940000000
310
000000F03F0000000000000000000000000000F03F00000000000000000000000000000000000000000000000000000000000000002200000053006F006C0069006400200045006400670065002000490053004F00000000000000000000000000
100
AcDbMLeader
300
CONTEXT_DATA{
 40
1.0
 10
126.5558845495
 20
12.6331323918
 30
0.0
 41
3.15
140
4.725
145
1.1025
174
     1
175
     1
176
     0
177
     0
290
     1
304
{\pxsm1.;\fSolid Edge ISO|b0||i0||c0|p34;\W1.;1:1\P}
 11
0.0
 21
0.0
 31
1.0
340
11
 12
128.5558845495
 22
14.2112823918
 32
0.0
 13
1.0
 23
0.0
 33
0.0
 42
0.0
 43
0.0
 44
0.0
 45
1.0
170
     1
 90
-1023410169
171
     1
172
     1
 91
-939524096
141
1.5
 92
        0
291
     0
292
     0
173
     0
293
     0
142
0.0
143
0.0
294
     0
295
     0
296
     0
110
0.0
120
0.0
130
0.0
111
1.0
121
0.0
131
0.0
112
0.0
122
1.0
132
0.0
297
     0
301
}
340
6C
 90
 35119009
170
     0
 91
-1056964608
341
14
171
    -2
290
     1
291
     1
 41
0.0
342
231
 42
4.725
172
     2
343
11
173
     1
 95
        1
174
     1
175
     0
 92
-1023410169
292
     0
 93
-1023410169
 10
1.0
 20
1.0
 30
1.0
 43
0.0
176
     0
293
     0
294
     0
178
     0
179
     1
 45
1.0
1001
ACAD_MLEADERVER
1070
     2
  0
MTEXT
  5
235
330
1F
100
AcDbEntity
  8
Default
100
AcDbMText
 10
139.7786414766
 20
12.1030055624
 30
0.0
 40
3.0
 41
18.7991063348
 46
5.0845858028
 71
     4
 72
     1
  1
{\fSolid Edge ISO|b0||i0||c0|p34;\C7;\H3.;\W1.;1-678}
 73
     1
 44
1.0
1001
ACAD
1000
ACAD_MTEXT_DEFINED_HEIGHT_BEGIN
1070
    46
1040
5.0845858028
1000
ACAD_MTEXT_DEFINED_HEIGHT_END
  0
MTEXT
  5
236
330
1F
100
AcDbEntity
  8
Standard
100
AcDbMText
 10
128.2243715112
 20
21.9523050455
 30
0.0
 40
2.5
 41
4.125011
 46
4.0909190909
 71
     1
 72
     1
  1
{\fSolid Edge ISO|b0||i0||c0|p34;\C7;\H2.5;\W1.;mm}
 73
     1
 44
1.0
1001
ACAD
1000
ACAD_MTEXT_DEFINED_HEIGHT_BEGIN
1070
    46
1040
4.0909190909
1000
ACAD_MTEXT_DEFINED_HEIGHT_END
  0
LINE
  5
237
330
1F
100
AcDbEntity
  8
Standard
  6
Continuous
 62
     7
100
AcDbLine
 10
138.2000000051
 20
18.2287912793
 30
0.0
 11
106.3095894048
 21
18.2287912793
 31
0.0
  0
LINE
  5
238
330
1F
100
AcDbEntity
  8
Standard
  6
Continuous
 62
     7
100
AcDbLine
 10
106.3095894048
 20
25.9987912971
 30
0.0
 11
106.3095894048
 21
9.9999999541
 31
0.0
  0
MTEXT
  5
239
330
1F
100
AcDbEntity
  8
Standard
100
AcDbMText
 10
106.9145404388
 20
25.2290846617
 30
0.0
 40
2.2
 41
14.4015494615
 46
4.0615484615
 71
     1
 72
     1
  1
{\fSolid Edge ANSI|b0||i0||c0|p34;\C7;\H2.2;\W1.;freig.}{\fSolid Edge ANSI|b0||i0||c0|p34;\C7;\H1.5;\W1.;/ appr.}
 73
     1
 44
1.0
1001
ACAD
1000
ACAD_MTEXT_DEFINED_HEIGHT_BEGIN
1070
    46
1040
4.0615484615
1000
ACAD_MTEXT_DEFINED_HEIGHT_END
  0
MTEXT
  5
23A
330
1F
100
AcDbEntity
  8
Default
100
AcDbMText
 10
107.6188207159
 20
17.6037681847
 30
0.0
 40
2.2
 41
13.1956831311
 46
4.0615484615
 71
     1
 72
     1
  1
{\fSolid Edge ANSI|b0||i0||c0|p34;\C7;\H2.2;\W1.;Blatt}{\fSolid Edge ANSI|b0||i0||c0|p34;\C7;\H1.5;\W1.;/ sheet}
 73
     1
 44
1.0
1001
ACAD
1000
ACAD_MTEXT_DEFINED_HEIGHT_BEGIN
1070
    46
1040
4.0615484615
1000
ACAD_MTEXT_DEFINED_HEIGHT_END
  0
MTEXT
  5
23B
330
1F
100
AcDbEntity
  8
Standard
100
AcDbMText
 10
112.0531670475
 20
14.2192192227
 30
0.0
 40
3.0
 41
3.750011
 46
4.9091009091
 71
     1
 72
     1
  1
{\fSolid Edge ISO|b0||i0||c0|p34;\C7;\H3.;\W1.;A4}
 73
     1
 44
1.0
1001
ACAD
1000
ACAD_MTEXT_DEFINED_HEIGHT_BEGIN
1070
    46
1040
4.9091009091
1000
ACAD_MTEXT_DEFINED_HEIGHT_END
  0
MTEXT
  5
23C
330
1F
100
AcDbEntity
  8
Default
100
AcDbMText
 10
107.1395513873
 20
20.4081738308
 30
0.0
 40
2.2
 41
14.7330465525
 46
3.6
 71
     4
 72
     1
  1
{\fSolid Edge ISO|b0||i0||c0|p34;\C7;\H2.2;\W1.;23.11.2023}
 73
     1
 44
1.0
1001
ACAD
1000
ACAD_MTEXT_DEFINED_HEIGHT_BEGIN
1070
    46
1040
3.6
1000
ACAD_MTEXT_DEFINED_HEIGHT_END
  0
MTEXT
  5
23D
330
1F
100
AcDbEntity
  8
Standard
100
AcDbMText
 10
10.6587314417
 20
33.7981133176
 30
0.0
 40
1.2
 41
127.5412685634
 46
8.1685527897
 71
     1
 72
     1
  3
{\fSolid Edge ANSI|b0||i0||c0|p34;\C7;\H1.2;\W1.;Weitergabe sowie Vervielfältigung dieser vertraulichen Unterlage(n), Verwertung und Mitteilung ihres Inhalts nicht ohne unsere vorherige schriftliche Genehmigung gestattet. \P}{\fSolid Edge ANSI|b0||i0
  3
||c0|p34;\C7;\H1.2;\W1.;Zuwiderhandlungen verpflichten zu Schadenersatz. Alle Rechte für den Fall der Patenterteilung oder Gebrauchsmuster-Eintragung vorbehalten.\P}{\fSolid Edge ANSI|b0||i0||c0|p34;\C7;\H1.;\W1.;The copying, use, distribution or dis
  3
closure of the confidential and proprietary information contained in this document(s) is strictly prohibited without prior written consent. Any breach shall subject the \P}{\fSolid Edge ANSI|b0||i0||c0|p34;\C7;\H1.;\W1.;infringing party to remedies. 
  1
The owner reserves all rights in the event of the grant of a patent or the registration of a utility model or design.}
 73
     1
 44
1.0
1001
ACAD
1000
ACAD_MTEXT_DEFINED_HEIGHT_BEGIN
1070
    46
1040
8.1685527897
1000
ACAD_MTEXT_DEFINED_HEIGHT_END
  0
MTEXT
  5
23E
330
1F
100
AcDbEntity
  8
Default
100
AcDbMText
 10
139.5531289039
 20
20.5520608538
 30
0.0
 40
2.5
 41
59.872727305
 46
4.6153946154
 71
     4
 72
     1
  1
{\fSolid Edge ISO|b0||i0||c0|p34;\C7;\H2.5;\W1.;technische Zeichnung_mkt}
 73
     1
 44
1.0
1001
ACAD
1000
ACAD_MTEXT_DEFINED_HEIGHT_BEGIN
1070
    46
1040
4.6153946154
1000
ACAD_MTEXT_DEFINED_HEIGHT_END
  0
MTEXT
  5
23F
330
1F
100
AcDbEntity
  8
Default
100
AcDbMText
 10
139.645932934
 20
25.5772390452
 30
0.0
 40
2.2
 41
33.0612482929
 46
4.0615484615
 71
     1
 72
     1
  1
{\fSolid Edge ANSI|b0||i0||c0|p34;\C7;\H2.2;\W1.;Zeichnungsart}{\fSolid Edge ANSI|b0||i0||c0|p34;\C7;\H1.5;\W1.;/ drawing type}
 73
     1
 44
1.0
1001
ACAD
1000
ACAD_MTEXT_DEFINED_HEIGHT_BEGIN
1070
    46
1040
4.0615484615
1000
ACAD_MTEXT_DEFINED_HEIGHT_END
  0
MTEXT
  5
240
330
1F
100
AcDbEntity
  8
Standard
100
AcDbMText
 10
122.722860057
 20
25.1473558409
 30
0.0
 40
2.2
 41
15.8428315128
 46
4.0615484615
 71
     1
 72
     1
  1
{\fSolid Edge ANSI|b0||i0||c0|p34;\C7;\H2.2;\W1.;Einheit}{\fSolid Edge ANSI|b0||i0||c0|p34;\C7;\H1.5;\W1.;/ unit}
 73
     1
 44
1.0
1001
ACAD
1000
ACAD_MTEXT_DEFINED_HEIGHT_BEGIN
1070
    46
1040
4.0615484615
1000
ACAD_MTEXT_DEFINED_HEIGHT_END
  0
LINE
  5
241
330
1F
100
AcDbEntity
  8
Standard
  6
Continuous
 62
     7
100
AcDbLine
 10
122.1841943695
 20
25.9987912971
 30
0.0
 11
122.1841943695
 21
10.0
 31
0.0
  0
LINE
  5
242
330
1F
100
AcDbEntity
  8
Standard
  6
Continuous
 62
     7
100
AcDbLine
 10
138.2000000051
 20
18.2287912793
 30
0.0
 11
200.0
 21
18.2287912793
 31
0.0
  0
LINE
  5
243
330
1F
100
AcDbEntity
  8
Standard
  6
Continuous
 62
     7
100
AcDbLine
 10
138.2000000051
 20
34.3502211504
 30
0.0
 11
10.0
 21
34.3502211504
 31
0.0
  0
LINE
  5
245
330
1F
100
AcDbEntity
  8
Skizziergeometrie(DIN)
  6
Continuous
 62
     7
100
AcDbLine
 10
10.0
 20
287.0
 30
0.0
 11
200.0
 21
287.0
 31
0.0
  0
LINE
  5
246
330
1F
100
AcDbEntity
  8
Skizziergeometrie(DIN)
  6
Continuous
 62
     7
100
AcDbLine
 10
200.0
 20
287.0
 30
0.0
 11
200.0
 21
9.9999926436
 31
0.0
  0
LINE
  5
247
330
1F
100
AcDbEntity
  8
Skizziergeometrie(DIN)
  6
Continuous
 62
     7
100
AcDbLine
 10
200.0
 20
9.9999926436
 30
0.0
 11
10.0
 21
9.9999926436
 31
0.0
  0
LINE
  5
248
330
1F
100
AcDbEntity
  8
Skizziergeometrie(DIN)
  6
Continuous
 62
     7
100
AcDbLine
 10
10.0
 20
10.0
 30
0.0
 11
10.0
 21
287.0
 31
0.0
  0
IMAGE
  5
24C
330
1F
100
AcDbEntity
  8
0
 92
      140
310
8C000000010000008400000006000000050000000E64D78BE9972B40BC01B030F29425400000000000000000559114E8E5774740BC01B030F29425400000000000000000559114E8E5774740017F9619FA7E384000000000000000000E64D78BE9972B40017F9619FA7E384000000000000000000E64D78BE9972B40BC01B0
310
30F29425400000000000000000
100
AcDbRasterImage
 90
        0
 10
13.7967036915
 20
10.7909102645
 30
0.0
 11
0.07742990654205607
 21
0.0
 31
0.0
 12
0.0
 22
0.07742990654205609
 32
0.0
 13
428.0
 23
177.0
340
24B
 70
     7
280
     0
281
    50
282
    50
283
     0
360
24D
 71
     1
 91
        2
 14
-0.5
 24
-0.5
 14
427.5
 24
176.5
  0
ENDSEC
  0
SECTION
  2
OBJECTS
  0
DICTIONARY
  5
C
330
0
100
AcDbDictionary
281
     1
  3
ACAD_DETAILVIEWSTYLE
350
289
  3
ACAD_GROUP
350
D
  3
ACAD_IMAGE_DICT
350
24A
  3
ACAD_IMAGE_VARS
350
249
  3
ACAD_LAYOUT
350
1A
  3
ACAD_MATERIAL
350
43
  3
ACAD_MLEADERSTYLE
350
6B
  3
ACAD_MLINESTYLE
350
17
  3
ACAD_PLOTSETTINGS
350
19
  3
ACAD_PLOTSTYLENAME
350
E
  3
ACAD_SCALELIST
350
47
  3
ACAD_SECTIONVIEWSTYLE
350
28A
  3
ACAD_TABLESTYLE
350
69
  3
ACAD_VISUALSTYLE
350
2A
  3
ACDB_RECOMPOSE_DATA
350
286
  3
AcDbVariableDictionary
350
24F
  0
SUN
  5
6D
330
29
100
AcDbSun
 90
        1
290
     0
 63
     7
421
 16777215
 40
1.0
291
     1
 91
  2455826
 92
 54000000
292
     0
 70
     2
 71
   256
280
     1
  0
IMAGEDEF_REACTOR
  5
24D
330
24C
100
AcDbRasterImageDefReactor
 90
        2
330
24C
  0
DICTIONARY
  5
289
102
{ACAD_REACTORS
330
C
102
}
330
C
100
AcDbDictionary
281
     1
  0
DICTIONARY
  5
D
102
{ACAD_REACTORS
330
C
102
}
330
C
100
AcDbDictionary
281
     1
  0
DICTIONARY
  5
24A
102
{ACAD_REACTORS
330
C
102
}
330
C
100
AcDbDictionary
281
     1
  3
1-678-1x_1.bmp
350
24B
  0
RASTERVARIABLES
  5
249
102
{ACAD_REACTORS
330
C
102
}
330
C
100
AcDbRasterVariables
 90
        0
 70
     1
 71
     1
 72
     1
  0
DICTIONARY
  5
1A
102
{ACAD_REACTORS
330
C
102
}
330
C
100
AcDbDictionary
281
     1
  3
Layout1
350
1E
  3
Model
350
22
  0
DICTIONARY
  5
43
102
{ACAD_REACTORS
330
C
102
}
330
C
100
AcDbDictionary
281
     1
  3
ByBlock
350
45
  3
ByLayer
350
44
  3
Global
350
46
  0
DICTIONARY
  5
6B
102
{ACAD_REACTORS
330
C
102
}
330
C
100
AcDbDictionary
281
     1
  3
Standard
350
6C
  0
DICTIONARY
  5
17
102
{ACAD_REACTORS
330
C
102
}
330
C
100
AcDbDictionary
281
     1
  3
Standard
350
18
  0
DICTIONARY
  5
19
102
{ACAD_REACTORS
330
C
102
}
330
C
100
AcDbDictionary
281
     1
  0
ACDBDICTIONARYWDFLT
  5
E
102
{ACAD_REACTORS
330
C
102
}
330
C
100
AcDbDictionary
281
     1
  3
Normal
350
F
100
AcDbDictionaryWithDefault
340
F
  0
DICTIONARY
  5
47
102
{ACAD_REACTORS
330
C
102
}
330
C
100
AcDbDictionary
281
     1
  3
A0
350
48
  3
A1
350
49
  3
A2
350
4A
  3
A3
350
4B
  3
A4
350
4C
  3
A5
350
4D
  3
A6
350
4E
  3
A7
350
4F
  3
A8
350
50
  3
A9
350
51
  3
B0
350
52
  3
B1
350
53
  3
B2
350
54
  3
B3
350
55
  3
B4
350
56
  3
B5
350
57
  3
B6
350
58
  3
B7
350
59
  3
B8
350
5A
  3
B9
350
5B
  3
C0
350
5C
  3
C1
350
5D
  3
C2
350
5E
  3
C3
350
5F
  3
C4
350
60
  3
C5
350
61
  3
C6
350
62
  3
C7
350
63
  3
C8
350
64
  3
C9
350
65
  3
D0
350
66
  3
D1
350
67
  3
D2
350
68
  0
DICTIONARY
  5
28A
102
{ACAD_REACTORS
330
C
102
}
330
C
100
AcDbDictionary
281
     1
  0
DICTIONARY
  5
69
102
{ACAD_REACTORS
330
C
102
}
330
C
100
AcDbDictionary
281
     1
  3
Standard
350
6A
  0
DICTIONARY
  5
2A
102
{ACAD_REACTORS
330
C
102
}
330
C
100
AcDbDictionary
281
     1
  3
2dWireframe
350
2F
  3
Basic
350
32
  3
Brighten
350
36
  3
ColorChange
350
3A
  3
Conceptual
350
34
  3
Dim
350
35
  3
EdgeColorOff
350
3D
  3
Facepattern
350
39
  3
Flat
350
2B
  3
FlatWithEdges
350
2C
  3
Gouraud
350
2D
  3
GouraudWithEdges
350
2E
  3
Hidden
350
31
  3
JitterOff
350
3B
  3
Linepattern
350
38
  3
OverhangOff
350
3C
  3
Realistic
350
33
  3
Shaded
350
42
  3
Shaded with edges
350
41
  3
Shades of Gray
350
3E
  3
Sketchy
350
3F
  3
Thicken
350
37
  3
Wireframe
350
30
  3
X-Ray
350
40
  0
XRECORD
  5
286
102
{ACAD_REACTORS
330
C
102
}
330
C
100
AcDbXrecord
280
     1
 90
        1
330
6A
  0
DICTIONARY
  5
24F
102
{ACAD_REACTORS
330
C
102
}
330
C
100
AcDbDictionary
281
     1
  3
CANNOSCALE
350
250
  3
CENTEREXE
350
28B
  3
CENTERLTYPEFILE
350
28C
  3
CMLEADERSTYLE
350
288
  3
CTABLESTYLE
350
287
  3
XCLIPFRAME
350
251
  0
IMAGEDEF
  5
24B
102
{ACAD_REACTORS
330
24A
330
24D
102
}
330
24A
100
AcDbRasterImageDef
 90
        0
  1
1-678-1x_1.bmp
 10
428.0
 20
177.0
 11
0.002336448598130841
 21
0.002336448598130841
280
     1
281
     5
  0
LAYOUT
  5
1E
102
{ACAD_REACTORS
330
1A
102
}
330
1A
100
AcDbPlotSettings
  1

  2
none_device
  4

  6

 40
0.0
 41
0.0
 42
0.0
 43
0.0
 44
0.0
 45
0.0
 46
0.0
 47
0.0
 48
0.0
 49
0.0
140
0.0
141
0.0
142
1.0
143
1.0
 70
   688
 72
     1
 73
     0
 74
     5
  7

 75
    16
 76
     0
 77
     2
 78
   300
147
1.0
148
0.0
149
0.0
100
AcDbLayout
  1
Layout1
 70
     1
 71
     1
 10
0.0
 20
0.0
 11
210.0
 21
297.0
 12
0.0
 22
0.0
 32
0.0
 14
0.0
 24
0.0
 34
0.0
 15
210.0
 25
297.0
 35
0.0
146
0.0
 13
0.0
 23
0.0
 33
0.0
 16
1.0
 26
0.0
 36
0.0
 17
0.0
 27
1.0
 37
0.0
 76
     0
330
1B
  0
LAYOUT
  5
22
102
{ACAD_REACTORS
330
1A
102
}
330
1A
100
AcDbPlotSettings
  1

  2
none_device
  4
Letter_(8.50_x_11.00_Inches)
  6

 40
6.35
 41
6.35
 42
6.35000508
 43
6.35000508
 44
215.9
 45
279.4
 46
0.0
 47
0.0
 48
0.0
 49
0.0
140
0.0
141
0.0
142
1.0
143
1.0
 70
  1712
 72
     1
 73
     0
 74
     0
  7

 75
     0
 76
     0
 77
     2
 78
   300
147
1.0
148
0.0
149
0.0
100
AcDbLayout
  1
Model
 70
     1
 71
     0
 10
0.0
 20
0.0
 11
210.0
 21
297.0
 12
0.0
 22
0.0
 32
0.0
 14
0.0
 24
0.0
 34
0.0
 15
210.0
 25
297.0
 35
0.0
146
0.0
 13
0.0
 23
0.0
 33
0.0
 16
1.0
 26
0.0
 36
0.0
 17
0.0
 27
1.0
 37
0.0
 76
     0
330
1F
331
29
  0
MATERIAL
  5
45
102
{ACAD_REACTORS
330
43
102
}
330
43
100
AcDbMaterial
  1
ByBlock
 72
     1
 94
      127
  0
MATERIAL
  5
44
102
{ACAD_REACTORS
330
43
102
}
330
43
100
AcDbMaterial
  1
ByLayer
 72
     1
 94
      127
  0
MATERIAL
  5
46
102
{ACAD_REACTORS
330
43
102
}
330
43
100
AcDbMaterial
  1
Global
 72
     1
 94
      127
  0
MLEADERSTYLE
  5
6C
102
{ACAD_REACTORS
330
6B
102
}
102
{ACAD_XDICTIONARY
360
284
102
}
330
6B
100
AcDbMLeaderStyle
170
     2
171
     1
172
     0
 90
        2
 40
0.0
 41
0.0
173
     1
 91
-1056964608
340
14
 92
       -2
290
     1
 42
2.0
291
     1
 43
8.0
  3
Standard
341
0
 44
4.0
300

342
11
174
     1
178
     6
175
     1
176
     0
 93
-1056964608
 45
4.0
292
     0
297
     0
 46
4.0
343
0
 94
-1056964608
 47
1.0
 49
1.0
140
1.0
293
     1
141
0.0
294
     1
177
     0
142
1.0
295
     0
296
     0
143
3.75
1001
ACAD_MLEADERVER
1070
     2
  0
MLINESTYLE
  5
18
102
{ACAD_REACTORS
330
17
102
}
330
17
100
AcDbMlineStyle
  2
Standard
 70
     0
  3

 62
   256
 51
90.0
 52
90.0
 71
     2
 49
0.5
 62
   256
  6
BYLAYER
 49
-0.5
 62
   256
  6
BYLAYER
  0
ACDBPLACEHOLDER
  5
F
102
{ACAD_REACTORS
330
E
102
}
330
E
  0
SCALE
  5
48
102
{ACAD_REACTORS
330
47
102
}
330
47
100
AcDbScale
 70
     0
300
1:1
140
1.0
141
1.0
290
     1
  0
SCALE
  5
49
102
{ACAD_REACTORS
330
47
102
}
330
47
100
AcDbScale
 70
     0
300
1:2
140
1.0
141
2.0
290
     0
  0
SCALE
  5
4A
102
{ACAD_REACTORS
330
47
102
}
330
47
100
AcDbScale
 70
     0
300
1:4
140
1.0
141
4.0
290
     0
  0
SCALE
  5
4B
102
{ACAD_REACTORS
330
47
102
}
330
47
100
AcDbScale
 70
     0
300
1:5
140
1.0
141
5.0
290
     0
  0
SCALE
  5
4C
102
{ACAD_REACTORS
330
47
102
}
330
47
100
AcDbScale
 70
     0
300
1:8
140
1.0
141
8.0
290
     0
  0
SCALE
  5
4D
102
{ACAD_REACTORS
330
47
102
}
330
47
100
AcDbScale
 70
     0
300
1:10
140
1.0
141
10.0
290
     0
  0
SCALE
  5
4E
102
{ACAD_REACTORS
330
47
102
}
330
47
100
AcDbScale
 70
     0
300
1:16
140
1.0
141
16.0
290
     0
  0
SCALE
  5
4F
102
{ACAD_REACTORS
330
47
102
}
330
47
100
AcDbScale
 70
     0
300
1:20
140
1.0
141
20.0
290
     0
  0
SCALE
  5
50
102
{ACAD_REACTORS
330
47
102
}
330
47
100
AcDbScale
 70
     0
300
1:30
140
1.0
141
30.0
290
     0
  0
SCALE
  5
51
102
{ACAD_REACTORS
330
47
102
}
330
47
100
AcDbScale
 70
     0
300
1:40
140
1.0
141
40.0
290
     0
  0
SCALE
  5
52
102
{ACAD_REACTORS
330
47
102
}
330
47
100
AcDbScale
 70
     0
300
1:50
140
1.0
141
50.0
290
     0
  0
SCALE
  5
53
102
{ACAD_REACTORS
330
47
102
}
330
47
100
AcDbScale
 70
     0
300
1:100
140
1.0
141
100.0
290
     0
  0
SCALE
  5
54
102
{ACAD_REACTORS
330
47
102
}
330
47
100
AcDbScale
 70
     0
300
2:1
140
2.0
141
1.0
290
     0
  0
SCALE
  5
55
102
{ACAD_REACTORS
330
47
102
}
330
47
100
AcDbScale
 70
     0
300
4:1
140
4.0
141
1.0
290
     0
  0
SCALE
  5
56
102
{ACAD_REACTORS
330
47
102
}
330
47
100
AcDbScale
 70
     0
300
8:1
140
8.0
141
1.0
290
     0
  0
SCALE
  5
57
102
{ACAD_REACTORS
330
47
102
}
330
47
100
AcDbScale
 70
     0
300
10:1
140
10.0
141
1.0
290
     0
  0
SCALE
  5
58
102
{ACAD_REACTORS
330
47
102
}
330
47
100
AcDbScale
 70
     0
300
100:1
140
100.0
141
1.0
290
     0
  0
SCALE
  5
59
102
{ACAD_REACTORS
330
47
102
}
330
47
100
AcDbScale
 70
     0
300
1/128" = 1'-0"
140
0.0078125
141
12.0
290
     0
  0
SCALE
  5
5A
102
{ACAD_REACTORS
330
47
102
}
330
47
100
AcDbScale
 70
     0
300
1/64" = 1'-0"
140
0.015625
141
12.0
290
     0
  0
SCALE
  5
5B
102
{ACAD_REACTORS
330
47
102
}
330
47
100
AcDbScale
 70
     0
300
1/32" = 1'-0"
140
0.03125
141
12.0
290
     0
  0
SCALE
  5
5C
102
{ACAD_REACTORS
330
47
102
}
330
47
100
AcDbScale
 70
     0
300
1/16" = 1'-0"
140
0.0625
141
12.0
290
     0
  0
SCALE
  5
5D
102
{ACAD_REACTORS
330
47
102
}
330
47
100
AcDbScale
 70
     0
300
3/32" = 1'-0"
140
0.09375
141
12.0
290
     0
  0
SCALE
  5
5E
102
{ACAD_REACTORS
330
47
102
}
330
47
100
AcDbScale
 70
     0
300
1/8" = 1'-0"
140
0.125
141
12.0
290
     0
  0
SCALE
  5
5F
102
{ACAD_REACTORS
330
47
102
}
330
47
100
AcDbScale
 70
     0
300
3/16" = 1'-0"
140
0.1875
141
12.0
290
     0
  0
SCALE
  5
60
102
{ACAD_REACTORS
330
47
102
}
330
47
100
AcDbScale
 70
     0
300
1/4" = 1'-0"
140
0.25
141
12.0
290
     0
  0
SCALE
  5
61
102
{ACAD_REACTORS
330
47
102
}
330
47
100
AcDbScale
 70
     0
300
3/8" = 1'-0"
140
0.375
141
12.0
290
     0
  0
SCALE
  5
62
102
{ACAD_REACTORS
330
47
102
}
330
47
100
AcDbScale
 70
     0
300
1/2" = 1'-0"
140
0.5
141
12.0
290
     0
  0
SCALE
  5
63
102
{ACAD_REACTORS
330
47
102
}
330
47
100
AcDbScale
 70
     0
300
3/4" = 1'-0"
140
0.75
141
12.0
290
     0
  0
SCALE
  5
64
102
{ACAD_REACTORS
330
47
102
}
330
47
100
AcDbScale
 70
     0
300
1" = 1'-0"
140
1.0
141
12.0
290
     0
  0
SCALE
  5
65
102
{ACAD_REACTORS
330
47
102
}
330
47
100
AcDbScale
 70
     0
300
1-1/2" = 1'-0"
140
1.5
141
12.0
290
     0
  0
SCALE
  5
66
102
{ACAD_REACTORS
330
47
102
}
330
47
100
AcDbScale
 70
     0
300
3" = 1'-0"
140
3.0
141
12.0
290
     0
  0
SCALE
  5
67
102
{ACAD_REACTORS
330
47
102
}
330
47
100
AcDbScale
 70
     0
300
6" = 1'-0"
140
6.0
141
12.0
290
     0
  0
SCALE
  5
68
102
{ACAD_REACTORS
330
47
102
}
330
47
100
AcDbScale
 70
     0
300
1'-0" = 1'-0"
140
12.0
141
12.0
290
     0
  0
TABLESTYLE
  5
6A
102
{ACAD_REACTORS
330
69
102
}
102
{ACAD_XDICTIONARY
360
282
102
}
330
69
100
AcDbTableStyle
  3
Standard
 70
     0
 71
     0
 40
0.06
 41
0.06
280
     0
281
     0
  7
Standard
140
4.5
170
     2
 62
     0
 63
   257
283
     0
 90
        4
 91
        0
  1

274
    -2
284
     1
 64
     0
275
    -2
285
     1
 65
     0
276
    -2
286
     1
 66
     0
277
    -2
287
     1
 67
     0
278
    -2
288
     1
 68
     0
279
    -2
289
     1
 69
     0
  7
Standard
140
6.0
170
     5
 62
     0
 63
   257
283
     0
 90
        4
 91
        0
  1

274
    -2
284
     1
 64
     0
275
    -2
285
     1
 65
     0
276
    -2
286
     1
 66
     0
277
    -2
287
     1
 67
     0
278
    -2
288
     1
 68
     0
279
    -2
289
     1
 69
     0
  7
Standard
140
4.5
170
     5
 62
     0
 63
   257
283
     0
 90
        4
 91
        0
  1

274
    -2
284
     1
 64
     0
275
    -2
285
     1
 65
     0
276
    -2
286
     1
 66
     0
277
    -2
287
     1
 67
     0
278
    -2
288
     1
 68
     0
279
    -2
289
     1
 69
     0
  0
VISUALSTYLE
  5
2F
102
{ACAD_REACTORS
330
2A
102
}
102
{ACAD_XDICTIONARY
360
25A
102
}
330
2A
100
AcDbVisualStyle
  2
2dWireframe
 70
     4
 71
     0
 72
     2
 73
     0
 90
        0
 40
0.6
 41
30.0
 62
     5
 63
     7
421
 16777215
 74
     1
 91
        4
 64
     7
 65
   257
 75
     1
175
     1
 42
1.0
 92
        0
 66
   257
 43
1.0
 76
     1
 77
     6
 78
     2
 67
     7
 79
     5
170
     0
171
     0
290
     0
174
     0
 93
        1
 44
0.0
173
     0
291
     0
 45
0.0
  0
VISUALSTYLE
  5
32
102
{ACAD_REACTORS
330
2A
102
}
102
{ACAD_XDICTIONARY
360
260
102
}
330
2A
100
AcDbVisualStyle
  2
Basic
 70
     7
 71
     1
 72
     0
 73
     1
 90
        0
 40
0.6
 41
30.0
 62
     5
 63
     7
421
 16777215
 74
     0
 91
        4
 64
     7
 65
   257
 75
     1
175
     1
 42
1.0
 92
        8
 66
     7
 43
1.0
 76
     1
 77
     6
 78
     2
 67
     7
 79
     5
170
     0
171
     0
290
     0
174
     0
 93
        1
 44
0.0
173
     0
291
     1
 45
0.0
  0
VISUALSTYLE
  5
36
102
{ACAD_REACTORS
330
2A
102
}
102
{ACAD_XDICTIONARY
360
268
102
}
330
2A
100
AcDbVisualStyle
  2
Brighten
 70
    12
 71
     2
 72
     2
 73
     0
 90
        0
 40
0.6
 41
30.0
 62
     5
 63
     7
421
 16777215
 74
     1
 91
        4
 64
     7
 65
   257
 75
     1
175
     1
 42
1.0
 92
        8
 66
     7
 43
1.0
 76
     1
 77
     6
 78
     2
 67
     7
 79
     5
170
     0
171
     0
290
     0
174
     0
 93
        1
 44
50.0
173
     0
291
     1
 45
0.0
  0
VISUALSTYLE
  5
3A
102
{ACAD_REACTORS
330
2A
102
}
102
{ACAD_XDICTIONARY
360
270
102
}
330
2A
100
AcDbVisualStyle
  2
ColorChange
 70
    16
 71
     2
 72
     2
 73
     3
 90
        0
 40
0.6
 41
30.0
 62
     5
 63
     8
421
  8421504
 74
     1
 91
        4
 64
     7
 65
   257
 75
     1
175
     1
 42
1.0
 92
        8
 66
     8
424
  8421504
 43
1.0
 76
     1
 77
     6
 78
     2
 67
     7
 79
     5
170
     0
171
     0
290
     0
174
     0
 93
        1
 44
0.0
173
     0
291
     1
 45
0.0
  0
VISUALSTYLE
  5
34
102
{ACAD_REACTORS
330
2A
102
}
102
{ACAD_XDICTIONARY
360
264
102
}
330
2A
100
AcDbVisualStyle
  2
Conceptual
 70
     9
 71
     3
 72
     2
 73
     0
 90
        0
 40
0.6
 41
30.0
 62
     5
 63
     7
421
 16777215
 74
     2
 91
        2
 64
     7
 65
   257
 75
     1
175
     1
 42
179.0
 92
        8
 66
     7
 43
1.0
 76
     1
 77
     6
 78
     2
 67
     7
 79
     3
170
     0
171
     0
290
     0
174
     0
 93
        1
 44
0.0
173
     0
291
     0
 45
0.0
  0
VISUALSTYLE
  5
35
102
{ACAD_REACTORS
330
2A
102
}
102
{ACAD_XDICTIONARY
360
266
102
}
330
2A
100
AcDbVisualStyle
  2
Dim
 70
    11
 71
     2
 72
     2
 73
     0
 90
        0
 40
0.6
 41
30.0
 62
     5
 63
     7
421
 16777215
 74
     1
 91
        4
 64
     7
 65
   257
 75
     1
175
     1
 42
1.0
 92
        8
 66
     7
 43
1.0
 76
     1
 77
     6
 78
     2
 67
     7
 79
     5
170
     0
171
     0
290
     0
174
     0
 93
        1
 44
-50.0
173
     0
291
     1
 45
0.0
  0
VISUALSTYLE
  5
3D
102
{ACAD_REACTORS
330
2A
102
}
102
{ACAD_XDICTIONARY
360
276
102
}
330
2A
100
AcDbVisualStyle
  2
EdgeColorOff
 70
    22
 71
     2
 72
     2
 73
     0
 90
        0
 40
0.6
 41
30.0
 62
     5
 63
     7
421
 16777215
 74
     1
 91
        4
 64
     7
 65
   257
 75
     1
175
     1
 42
1.0
 92
        8
 66
     7
 43
1.0
 76
     1
 77
     6
 78
     2
 67
     7
 79
     5
170
     0
171
     0
290
     0
174
     0
 93
        1
 44
0.0
173
     0
291
     1
 45
0.0
  0
VISUALSTYLE
  5
39
102
{ACAD_REACTORS
330
2A
102
}
102
{ACAD_XDICTIONARY
360
26E
102
}
330
2A
100
AcDbVisualStyle
  2
Facepattern
 70
    15
 71
     2
 72
     2
 73
     0
 90
        0
 40
0.6
 41
30.0
 62
     5
 63
     7
421
 16777215
 74
     1
 91
        4
 64
     7
 65
   257
 75
     1
175
     1
 42
1.0
 92
        8
 66
     7
 43
1.0
 76
     1
 77
     6
 78
     2
 67
     7
 79
     5
170
     0
171
     0
290
     0
174
     0
 93
        1
 44
0.0
173
     0
291
     1
 45
0.0
  0
VISUALSTYLE
  5
2B
102
{ACAD_REACTORS
330
2A
102
}
102
{ACAD_XDICTIONARY
360
252
102
}
330
2A
100
AcDbVisualStyle
  2
Flat
 70
     0
 71
     2
 72
     1
 73
     1
 90
        2
 40
0.6
 41
30.0
 62
     5
 63
     7
421
 16777215
 74
     0
 91
        0
 64
     7
 65
   257
 75
     1
175
     1
 42
1.0
 92
        8
 66
     7
 43
1.0
 76
     1
 77
     6
 78
     2
 67
     7
 79
     5
170
     0
171
     0
290
     0
174
     0
 93
       13
 44
0.0
173
     0
291
     1
 45
0.0
  0
VISUALSTYLE
  5
2C
102
{ACAD_REACTORS
330
2A
102
}
102
{ACAD_XDICTIONARY
360
254
102
}
330
2A
100
AcDbVisualStyle
  2
FlatWithEdges
 70
     1
 71
     2
 72
     1
 73
     1
 90
        2
 40
0.6
 41
30.0
 62
     5
 63
     7
421
 16777215
 74
     1
 91
        0
 64
     7
 65
   257
 75
     1
175
     1
 42
1.0
 92
        0
 66
   257
 43
1.0
 76
     1
 77
     6
 78
     2
 67
     7
 79
     5
170
     0
171
     0
290
     0
174
     0
 93
       13
 44
0.0
173
     0
291
     1
 45
0.0
  0
VISUALSTYLE
  5
2D
102
{ACAD_REACTORS
330
2A
102
}
102
{ACAD_XDICTIONARY
360
256
102
}
330
2A
100
AcDbVisualStyle
  2
Gouraud
 70
     2
 71
     2
 72
     2
 73
     1
 90
        2
 40
0.6
 41
30.0
 62
     5
 63
     7
421
 16777215
 74
     0
 91
        0
 64
     7
 65
   257
 75
     1
175
     1
 42
1.0
 92
        0
 66
     7
 43
1.0
 76
     1
 77
     6
 78
     2
 67
     7
 79
     5
170
     0
171
     0
290
     0
174
     0
 93
       13
 44
0.0
173
     0
291
     1
 45
0.0
  0
VISUALSTYLE
  5
2E
102
{ACAD_REACTORS
330
2A
102
}
102
{ACAD_XDICTIONARY
360
258
102
}
330
2A
100
AcDbVisualStyle
  2
GouraudWithEdges
 70
     3
 71
     2
 72
     2
 73
     1
 90
        2
 40
0.6
 41
30.0
 62
     5
 63
     7
421
 16777215
 74
     1
 91
        0
 64
     7
 65
   257
 75
     1
175
     1
 42
1.0
 92
        0
 66
   257
 43
1.0
 76
     1
 77
     6
 78
     2
 67
     7
 79
     5
170
     0
171
     0
290
     0
174
     0
 93
       13
 44
0.0
173
     0
291
     1
 45
0.0
  0
VISUALSTYLE
  5
31
102
{ACAD_REACTORS
330
2A
102
}
102
{ACAD_XDICTIONARY
360
25E
102
}
330
2A
100
AcDbVisualStyle
  2
Hidden
 70
     6
 71
     1
 72
     2
 73
     2
 90
        0
 40
0.6
 41
30.0
 62
     5
 63
     7
421
 16777215
 74
     2
 91
        2
 64
     7
 65
   257
 75
     2
175
     1
 42
40.0
 92
        0
 66
   257
 43
1.0
 76
     1
 77
     6
 78
     2
 67
     7
 79
     3
170
     0
171
     0
290
     0
174
     0
 93
        1
 44
0.0
173
     0
291
     0
 45
0.0
  0
VISUALSTYLE
  5
3B
102
{ACAD_REACTORS
330
2A
102
}
102
{ACAD_XDICTIONARY
360
272
102
}
330
2A
100
AcDbVisualStyle
  2
JitterOff
 70
    20
 71
     2
 72
     2
 73
     0
 90
        0
 40
0.6
 41
30.0
 62
     5
 63
     7
421
 16777215
 74
     1
 91
        4
 64
     7
 65
   257
 75
     1
175
     1
 42
1.0
 92
       10
 66
     7
 43
1.0
 76
     1
 77
     6
 78
     2
 67
     7
 79
     5
170
     0
171
     0
290
     0
174
     0
 93
        1
 44
0.0
173
     0
291
     1
 45
0.0
  0
VISUALSTYLE
  5
38
102
{ACAD_REACTORS
330
2A
102
}
102
{ACAD_XDICTIONARY
360
26C
102
}
330
2A
100
AcDbVisualStyle
  2
Linepattern
 70
    14
 71
     2
 72
     2
 73
     0
 90
        0
 40
0.6
 41
30.0
 62
     5
 63
     7
421
 16777215
 74
     1
 91
        4
 64
     7
 65
   257
 75
     7
175
     7
 42
1.0
 92
        8
 66
     7
 43
1.0
 76
     1
 77
     6
 78
     2
 67
     7
 79
     5
170
     0
171
     0
290
     0
174
     0
 93
        1
 44
0.0
173
     0
291
     1
 45
0.0
  0
VISUALSTYLE
  5
3C
102
{ACAD_REACTORS
330
2A
102
}
102
{ACAD_XDICTIONARY
360
274
102
}
330
2A
100
AcDbVisualStyle
  2
OverhangOff
 70
    21
 71
     2
 72
     2
 73
     0
 90
        0
 40
0.6
 41
30.0
 62
     5
 63
     7
421
 16777215
 74
     1
 91
        4
 64
     7
 65
   257
 75
     1
175
     1
 42
1.0
 92
        9
 66
     7
 43
1.0
 76
     1
 77
     6
 78
     2
 67
     7
 79
     5
170
     0
171
     0
290
     0
174
     0
 93
        1
 44
0.0
173
     0
291
     1
 45
0.0
  0
VISUALSTYLE
  5
33
102
{ACAD_REACTORS
330
2A
102
}
102
{ACAD_XDICTIONARY
360
262
102
}
330
2A
100
AcDbVisualStyle
  2
Realistic
 70
     8
 71
     2
 72
     3
 73
     0
 90
        2
 40
0.6
 41
30.0
 62
     5
 63
     7
421
 16777215
 74
     0
 91
        0
 64
     7
 65
   257
 75
     1
175
     1
 42
1.0
 92
        8
 66
   257
 43
1.0
 76
     1
 77
     6
 78
     2
 67
     7
 79
     3
170
     0
171
     0
290
     0
174
     0
 93
       13
 44
0.0
173
     0
291
     0
 45
0.0
  0
VISUALSTYLE
  5
42
102
{ACAD_REACTORS
330
2A
102
}
102
{ACAD_XDICTIONARY
360
280
102
}
330
2A
100
AcDbVisualStyle
  2
Shaded
 70
    27
 71
     2
 72
     2
 73
     1
 90
        2
 40
0.6
 41
30.0
 62
     5
 63
     7
421
 16777215
 74
     0
 91
        4
 64
     7
 65
   257
 75
     1
175
     1
 42
1.0
 92
        8
 66
   257
 43
1.0
 76
     1
 77
     6
 78
     2
 67
     8
425
  7895160
 79
     3
170
     0
171
     0
290
     0
174
     0
 93
        5
 44
0.0
173
     0
291
     0
 45
0.0
  0
VISUALSTYLE
  5
41
102
{ACAD_REACTORS
330
2A
102
}
102
{ACAD_XDICTIONARY
360
27E
102
}
330
2A
100
AcDbVisualStyle
  2
Shaded with edges
 70
    26
 71
     2
 72
     2
 73
     1
 90
        2
 40
0.6
 41
30.0
 62
     5
 63
     7
421
 16777215
 74
     1
 91
       10
 64
     7
 65
   257
 75
     2
175
     1
 42
1.0
 92
        8
 66
   257
 43
1.0
 76
     1
 77
     6
 78
     2
 67
     7
 79
     3
170
     0
171
     0
290
     0
174
     0
 93
        5
 44
0.0
173
     0
291
     0
 45
0.0
  0
VISUALSTYLE
  5
3E
102
{ACAD_REACTORS
330
2A
102
}
102
{ACAD_XDICTIONARY
360
278
102
}
330
2A
100
AcDbVisualStyle
  2
Shades of Gray
 70
    23
 71
     2
 72
     2
 73
     3
 90
        0
 40
0.6
 41
30.0
 62
     5
 63
     7
421
 16777215
 74
     2
 91
        2
 64
     7
 65
     7
 75
     1
175
     1
 42
40.0
 92
        8
 66
     7
 43
1.0
 76
     1
 77
     6
 78
     2
 67
     7
 79
     3
170
     0
171
     0
290
     0
174
     0
 93
        1
 44
0.0
173
     0
291
     0
 45
0.0
  0
VISUALSTYLE
  5
3F
102
{ACAD_REACTORS
330
2A
102
}
102
{ACAD_XDICTIONARY
360
27A
102
}
330
2A
100
AcDbVisualStyle
  2
Sketchy
 70
    24
 71
     1
 72
     2
 73
     2
 90
        0
 40
0.6
 41
30.0
 62
     5
 63
     7
421
 16777215
 74
     2
 91
        2
 64
     7
 65
     7
 75
     1
175
     1
 42
40.0
 92
       11
 66
     7
 43
1.0
 76
     1
 77
     6
 78
     2
 67
     7
 79
     6
170
     0
171
     0
290
     0
174
     0
 93
        1
 44
0.0
173
     0
291
     0
 45
0.0
  0
VISUALSTYLE
  5
37
102
{ACAD_REACTORS
330
2A
102
}
102
{ACAD_XDICTIONARY
360
26A
102
}
330
2A
100
AcDbVisualStyle
  2
Thicken
 70
    13
 71
     2
 72
     2
 73
     0
 90
        0
 40
0.6
 41
30.0
 62
     5
 63
     7
421
 16777215
 74
     1
 91
        4
 64
     7
 65
   257
 75
     1
175
     1
 42
1.0
 92
       12
 66
     7
 43
1.0
 76
     1
 77
     6
 78
     2
 67
     7
 79
     5
170
     0
171
     0
290
     0
174
     0
 93
        1
 44
0.0
173
     0
291
     1
 45
0.0
  0
VISUALSTYLE
  5
30
102
{ACAD_REACTORS
330
2A
102
}
102
{ACAD_XDICTIONARY
360
25C
102
}
330
2A
100
AcDbVisualStyle
  2
Wireframe
 70
     5
 71
     0
 72
     2
 73
     0
 90
        0
 40
0.6
 41
30.0
 62
     5
 63
     7
421
 16777215
 74
     1
 91
        4
 64
     7
 65
   257
 75
     1
175
     1
 42
1.0
 92
        0
 66
   257
 43
1.0
 76
     1
 77
     6
 78
     2
 67
     7
 79
     3
170
     0
171
     0
290
     0
174
     0
 93
        1
 44
0.0
173
     0
291
     0
 45
0.0
  0
VISUALSTYLE
  5
40
102
{ACAD_REACTORS
330
2A
102
}
102
{ACAD_XDICTIONARY
360
27C
102
}
330
2A
100
AcDbVisualStyle
  2
X-Ray
 70
    25
 71
     2
 72
     2
 73
     1
 90
        1
 40
0.5
 41
30.0
 62
     5
 63
     7
421
 16777215
 74
     1
 91
        0
 64
     7
 65
   257
 75
     1
175
     1
 42
1.0
 92
        8
 66
     7
 43
1.0
 76
     1
 77
     6
 78
     2
 67
     7
 79
     3
170
     0
171
     0
290
     0
174
     0
 93
       13
 44
0.0
173
     0
291
     0
 45
0.0
  0
DICTIONARYVAR
  5
250
102
{ACAD_REACTORS
330
24F
102
}
330
24F
100
DictionaryVariables
280
     0
  1
1:1
  0
DICTIONARYVAR
  5
28B
102
{ACAD_REACTORS
330
24F
102
}
330
24F
100
DictionaryVariables
280
     0
  1
3.500000
  0
DICTIONARYVAR
  5
28C
102
{ACAD_REACTORS
330
24F
102
}
330
24F
100
DictionaryVariables
280
     0
  1
acadiso.lin
  0
DICTIONARYVAR
  5
288
102
{ACAD_REACTORS
330
24F
102
}
330
24F
100
DictionaryVariables
280
     0
  1
Standard
  0
DICTIONARYVAR
  5
287
102
{ACAD_REACTORS
330
24F
102
}
330
24F
100
DictionaryVariables
280
     0
  1
Standard
  0
DICTIONARYVAR
  5
251
102
{ACAD_REACTORS
330
24F
102
}
330
24F
100
DictionaryVariables
280
     0
  1
2
  0
DICTIONARY
  5
284
330
6C
100
AcDbDictionary
280
     1
281
     1
  3
ACAD_XREC_ROUNDTRIP
360
285
  0
DICTIONARY
  5
282
330
6A
100
AcDbDictionary
280
     1
281
     1
  3
ACAD_ROUNDTRIP_2008_TABLESTYLE_CELLSTYLEMAP
360
283
  0
DICTIONARY
  5
25A
330
2F
100
AcDbDictionary
280
     1
281
     1
  3
ACAD_XREC_ROUNDTRIP
360
25B
  0
DICTIONARY
  5
260
330
32
100
AcDbDictionary
280
     1
281
     1
  3
ACAD_XREC_ROUNDTRIP
360
261
  0
DICTIONARY
  5
268
330
36
100
AcDbDictionary
280
     1
281
     1
  3
ACAD_XREC_ROUNDTRIP
360
269
  0
DICTIONARY
  5
270
330
3A
100
AcDbDictionary
280
     1
281
     1
  3
ACAD_XREC_ROUNDTRIP
360
271
  0
DICTIONARY
  5
264
330
34
100
AcDbDictionary
280
     1
281
     1
  3
ACAD_XREC_ROUNDTRIP
360
265
  0
DICTIONARY
  5
266
330
35
100
AcDbDictionary
280
     1
281
     1
  3
ACAD_XREC_ROUNDTRIP
360
267
  0
DICTIONARY
  5
276
330
3D
100
AcDbDictionary
280
     1
281
     1
  3
ACAD_XREC_ROUNDTRIP
360
277
  0
DICTIONARY
  5
26E
330
39
100
AcDbDictionary
280
     1
281
     1
  3
ACAD_XREC_ROUNDTRIP
360
26F
  0
DICTIONARY
  5
252
330
2B
100
AcDbDictionary
280
     1
281
     1
  3
ACAD_XREC_ROUNDTRIP
360
253
  0
DICTIONARY
  5
254
330
2C
100
AcDbDictionary
280
     1
281
     1
  3
ACAD_XREC_ROUNDTRIP
360
255
  0
DICTIONARY
  5
256
330
2D
100
AcDbDictionary
280
     1
281
     1
  3
ACAD_XREC_ROUNDTRIP
360
257
  0
DICTIONARY
  5
258
330
2E
100
AcDbDictionary
280
     1
281
     1
  3
ACAD_XREC_ROUNDTRIP
360
259
  0
DICTIONARY
  5
25E
330
31
100
AcDbDictionary
280
     1
281
     1
  3
ACAD_XREC_ROUNDTRIP
360
25F
  0
DICTIONARY
  5
272
330
3B
100
AcDbDictionary
280
     1
281
     1
  3
ACAD_XREC_ROUNDTRIP
360
273
  0
DICTIONARY
  5
26C
330
38
100
AcDbDictionary
280
     1
281
     1
  3
ACAD_XREC_ROUNDTRIP
360
26D
  0
DICTIONARY
  5
274
330
3C
100
AcDbDictionary
280
     1
281
     1
  3
ACAD_XREC_ROUNDTRIP
360
275
  0
DICTIONARY
  5
262
330
33
100
AcDbDictionary
280
     1
281
     1
  3
ACAD_XREC_ROUNDTRIP
360
263
  0
DICTIONARY
  5
280
330
42
100
AcDbDictionary
280
     1
281
     1
  3
ACAD_XREC_ROUNDTRIP
360
281
  0
DICTIONARY
  5
27E
330
41
100
AcDbDictionary
280
     1
281
     1
  3
ACAD_XREC_ROUNDTRIP
360
27F
  0
DICTIONARY
  5
278
330
3E
100
AcDbDictionary
280
     1
281
     1
  3
ACAD_XREC_ROUNDTRIP
360
279
  0
DICTIONARY
  5
27A
330
3F
100
AcDbDictionary
280
     1
281
     1
  3
ACAD_XREC_ROUNDTRIP
360
27B
  0
DICTIONARY
  5
26A
330
37
100
AcDbDictionary
280
     1
281
     1
  3
ACAD_XREC_ROUNDTRIP
360
26B
  0
DICTIONARY
  5
25C
330
30
100
AcDbDictionary
280
     1
281
     1
  3
ACAD_XREC_ROUNDTRIP
360
25D
  0
DICTIONARY
  5
27C
330
40
100
AcDbDictionary
280
     1
281
     1
  3
ACAD_XREC_ROUNDTRIP
360
27D
  0
XRECORD
  5
285
102
{ACAD_REACTORS
330
284
102
}
330
284
100
AcDbXrecord
280
     1
102
ACAD_ROUNDTRIP_2010_MLEADER_STYLE
  0
CELLSTYLEMAP
  5
283
102
{ACAD_REACTORS
330
282
102
}
330
282
100
AcDbCellStyleMap
 90
        3
300
CELLSTYLE
  1
TABLEFORMAT_BEGIN
 90
        5
170
     1
 91
        0
 92
    32768
 62
   257
 93
        1
300
CONTENTFORMAT
  1
CONTENTFORMAT_BEGIN
 90
        0
 91
        0
 92
        4
 93
        0
300

 40
0.0
140
1.0
 94
        5
 62
     0
340
11
144
6.0
309
CONTENTFORMAT_END
171
     1
301
MARGIN
  1
CELLMARGIN_BEGIN
 40
1.5
 40
1.5
 40
1.5
 40
1.5
 40
1.5
 40
1.5
309
CELLMARGIN_END
 94
        6
 95
        1
302
GRIDFORMAT
  1
GRIDFORMAT_BEGIN
 90
        0
 91
        1
 62
     0
 92
       -2
340
14
 93
        0
 40
0.045
309
GRIDFORMAT_END
 95
        2
302
GRIDFORMAT
  1
GRIDFORMAT_BEGIN
 90
        0
 91
        1
 62
     0
 92
       -2
340
14
 93
        0
 40
0.045
309
GRIDFORMAT_END
 95
        4
302
GRIDFORMAT
  1
GRIDFORMAT_BEGIN
 90
        0
 91
        1
 62
     0
 92
       -2
340
14
 93
        0
 40
0.045
309
GRIDFORMAT_END
 95
        8
302
GRIDFORMAT
  1
GRIDFORMAT_BEGIN
 90
        0
 91
        1
 62
     0
 92
       -2
340
14
 93
        0
 40
0.045
309
GRIDFORMAT_END
 95
       16
302
GRIDFORMAT
  1
GRIDFORMAT_BEGIN
 90
        0
 91
        1
 62
     0
 92
       -2
340
14
 93
        0
 40
0.045
309
GRIDFORMAT_END
 95
       32
302
GRIDFORMAT
  1
GRIDFORMAT_BEGIN
 90
        0
 91
        1
 62
     0
 92
       -2
340
14
 93
        0
 40
0.045
309
GRIDFORMAT_END
309
TABLEFORMAT_END
  1
CELLSTYLE_BEGIN
 90
        1
 91
        1
300
_TITLE
309
CELLSTYLE_END
300
CELLSTYLE
  1
TABLEFORMAT_BEGIN
 90
        5
170
     1
 91
        0
 92
        0
 62
   257
 93
        1
300
CONTENTFORMAT
  1
CONTENTFORMAT_BEGIN
 90
        0
 91
        0
 92
        4
 93
        0
300

 40
0.0
140
1.0
 94
        5
 62
     0
340
11
144
4.5
309
CONTENTFORMAT_END
171
     1
301
MARGIN
  1
CELLMARGIN_BEGIN
 40
1.5
 40
1.5
 40
1.5
 40
1.5
 40
1.5
 40
1.5
309
CELLMARGIN_END
 94
        6
 95
        1
302
GRIDFORMAT
  1
GRIDFORMAT_BEGIN
 90
        0
 91
        1
 62
     0
 92
       -2
340
14
 93
        0
 40
0.045
309
GRIDFORMAT_END
 95
        2
302
GRIDFORMAT
  1
GRIDFORMAT_BEGIN
 90
        0
 91
        1
 62
     0
 92
       -2
340
14
 93
        0
 40
0.045
309
GRIDFORMAT_END
 95
        4
302
GRIDFORMAT
  1
GRIDFORMAT_BEGIN
 90
        0
 91
        1
 62
     0
 92
       -2
340
14
 93
        0
 40
0.045
309
GRIDFORMAT_END
 95
        8
302
GRIDFORMAT
  1
GRIDFORMAT_BEGIN
 90
        0
 91
        1
 62
     0
 92
       -2
340
14
 93
        0
 40
0.045
309
GRIDFORMAT_END
 95
       16
302
GRIDFORMAT
  1
GRIDFORMAT_BEGIN
 90
        0
 91
        1
 62
     0
 92
       -2
340
14
 93
        0
 40
0.045
309
GRIDFORMAT_END
 95
       32
302
GRIDFORMAT
  1
GRIDFORMAT_BEGIN
 90
        0
 91
        1
 62
     0
 92
       -2
340
14
 93
        0
 40
0.045
309
GRIDFORMAT_END
309
TABLEFORMAT_END
  1
CELLSTYLE_BEGIN
 90
        2
 91
        1
300
_HEADER
309
CELLSTYLE_END
300
CELLSTYLE
  1
TABLEFORMAT_BEGIN
 90
        5
170
     1
 91
        0
 92
        0
 62
   257
 93
        1
300
CONTENTFORMAT
  1
CONTENTFORMAT_BEGIN
 90
        0
 91
        0
 92
        4
 93
        0
300

 40
0.0
140
1.0
 94
        2
 62
     0
340
11
144
4.5
309
CONTENTFORMAT_END
171
     1
301
MARGIN
  1
CELLMARGIN_BEGIN
 40
1.5
 40
1.5
 40
1.5
 40
1.5
 40
1.5
 40
1.5
309
CELLMARGIN_END
 94
        6
 95
        1
302
GRIDFORMAT
  1
GRIDFORMAT_BEGIN
 90
        0
 91
        1
 62
     0
 92
       -2
340
14
 93
        0
 40
0.045
309
GRIDFORMAT_END
 95
        2
302
GRIDFORMAT
  1
GRIDFORMAT_BEGIN
 90
        0
 91
        1
 62
     0
 92
       -2
340
14
 93
        0
 40
0.045
309
GRIDFORMAT_END
 95
        4
302
GRIDFORMAT
  1
GRIDFORMAT_BEGIN
 90
        0
 91
        1
 62
     0
 92
       -2
340
14
 93
        0
 40
0.045
309
GRIDFORMAT_END
 95
        8
302
GRIDFORMAT
  1
GRIDFORMAT_BEGIN
 90
        0
 91
        1
 62
     0
 92
       -2
340
14
 93
        0
 40
0.045
309
GRIDFORMAT_END
 95
       16
302
GRIDFORMAT
  1
GRIDFORMAT_BEGIN
 90
        0
 91
        1
 62
     0
 92
       -2
340
14
 93
        0
 40
0.045
309
GRIDFORMAT_END
 95
       32
302
GRIDFORMAT
  1
GRIDFORMAT_BEGIN
 90
        0
 91
        1
 62
     0
 92
       -2
340
14
 93
        0
 40
0.045
309
GRIDFORMAT_END
309
TABLEFORMAT_END
  1
CELLSTYLE_BEGIN
 90
        3
 91
        2
300
_DATA
309
CELLSTYLE_END
  0
XRECORD
  5
25B
102
{ACAD_REACTORS
330
25A
102
}
330
25A
100
AcDbXrecord
280
     1
102
RTVSPropertyOp0
 70
     1
102
RTVSPropertyOp1
 70
     1
102
RTVSPropertyOp2
 70
     1
102
RTVSPropertyOp3
 70
     1
102
RTVSPropertyOp4
 70
     1
102
RTVSPropertyOp5
 70
     1
102
RTVSPropertyOp6
 70
     1
102
RTVSPropertyOp7
 70
     1
102
RTVSPropertyOp8
 70
     1
102
RTVSPropertyOp9
 70
     1
102
RTVSPropertyOp10
 70
     1
102
RTVSPropertyOp11
 70
     1
102
RTVSPropertyOp12
 70
     1
102
RTVSPropertyOp13
 70
     1
102
RTVSPropertyOp14
 70
     1
102
RTVSPropertyOp15
 70
     1
102
RTVSPropertyOp16
 70
     1
102
RTVSPropertyOp17
 70
     1
102
RTVSPropertyOp18
 70
     1
102
RTVSPropertyOp19
 70
     1
102
RTVSPropertyOp20
 70
     1
102
RTVSPropertyOp21
 70
     1
102
RTVSPropertyOp22
 70
     1
102
RTVSPropertyOp23
 70
     1
102
RTVSPropertyOp24
 70
     1
102
RTVSPropertyOp25
 70
     1
102
RTVSPropertyOp26
 70
     1
102
RTVSPropertyOp27
 70
     1
102
RTVSPropertyOp28
 70
     1
102
RTVSPropertyOp29
 70
     1
102
RTVSPropertyOp30
 70
     1
102
RTVSPropertyOp31
 70
     1
102
RTVSPropertyOp32
 70
     1
102
RTVSPropertyOp33
 70
     1
102
RTVSPropertyOp34
 70
     1
102
RTVSPropertyOp35
 70
     1
102
RTVSPropertyOp36
 70
     1
102
RTVSPropertyOp37
 70
     1
102
RTVSPropertyOp38
 70
     1
102
RTVSPropertyOp39
 70
     1
102
RTVSPropertyOp40
 70
     1
102
RTVSPropertyOp41
 70
     1
102
RTVSPropertyOp42
 70
     1
102
RTVSPropertyOp43
 70
     1
102
RTVSPropertyOp44
 70
     1
102
RTVSPropertyOp45
 70
     1
102
RTVSPropertyOp46
 70
     1
102
RTVSPropertyOp47
 70
     1
102
RTVSPropertyOp48
 70
     1
102
RTVSPropertyOp49
 70
     1
102
RTVSPropertyOp50
 70
     1
102
RTVSPropertyOp51
 70
     0
102
RTVSPropertyOp52
 70
     0
102
RTVSPropertyOp53
 70
     1
102
RTVSPropertyOp54
 70
     1
102
RTVSPropertyOp55
 70
     1
102
RTVSPropertyOp56
 70
     1
102
RTVSPropertyOp57
 70
     1
102
RTVSPost2010Prop28
280
     1
102
RTVSPost2010PropOp28
 70
     1
102
RTVSPost2010Prop29
280
     1
102
RTVSPost2010PropOp29
 70
     1
102
RTVSPost2010Prop30
280
     0
102
RTVSPost2010PropOp30
 70
     1
102
RTVSPost2010Prop31
280
     0
102
RTVSPost2010PropOp31
 70
     1
102
RTVSPost2010Prop32
280
     0
102
RTVSPost2010PropOp32
 70
     1
102
RTVSPost2010Prop33
280
     0
102
RTVSPost2010PropOp33
 70
     1
102
RTVSPost2010Prop34
280
     0
102
RTVSPost2010PropOp34
 70
     1
102
RTVSPost2010Prop35
280
     0
102
RTVSPost2010PropOp35
 70
     1
102
RTVSPost2010Prop36
280
     0
102
RTVSPost2010PropOp36
 70
     1
102
RTVSPost2010Prop37
 90
       50
102
RTVSPost2010PropOp37
 70
     1
102
RTVSPost2010Prop38
140
0.0
102
RTVSPost2010PropOp38
 70
     1
102
RTVSPost2010Prop39
140
1.0
102
RTVSPost2010PropOp39
 70
     1
102
RTVSPost2010Prop40
 90
        0
102
RTVSPost2010PropOp40
 70
     1
102
RTVSPost2010Prop41ColorIndex
 90
       18
102
RTVSPost2010Prop41ColorRGB
 90
        0
102
RTVSPost2010PropOp41
 70
     1
102
RTVSPost2010Prop42
 90
       50
102
RTVSPost2010PropOp42
 70
     1
102
RTVSPost2010Prop43
 90
        3
102
RTVSPost2010PropOp43
 70
     1
102
RTVSPost2010Prop44ColorIndex
 90
        5
102
RTVSPost2010Prop44ColorRGB
 90
      255
102
RTVSPost2010PropOp44
 70
     1
102
RTVSPost2010Prop45
280
     0
102
RTVSPost2010PropOp45
 70
     1
102
RTVSPost2010Prop46
 90
       50
102
RTVSPost2010PropOp46
 70
     1
102
RTVSPost2010Prop47
 90
       50
102
RTVSPost2010PropOp47
 70
     1
102
RTVSPost2010Prop48
 90
       50
102
RTVSPost2010PropOp48
 70
     1
102
RTVSPost2010Prop49
280
     0
102
RTVSPost2010PropOp49
 70
     1
102
RTVSPost2010Prop50
 90
       50
102
RTVSPost2010PropOp50
 70
     1
102
RTVSPost2010Prop51ColorIndex
 90
      256
102
RTVSPost2010Prop51ColorRGB
 90
-16777216
102
RTVSPost2010PropOp51
 70
     0
102
RTVSPost2010Prop52
140
1.0
102
RTVSPost2010PropOp52
 70
     0
102
RTVSPost2010Prop53
 90
        2
102
RTVSPost2010PropOp53
 70
     1
102
RTVSPost2010Prop54
  1
strokes_ogs.tif
102
RTVSPost2010PropOp54
 70
     1
102
RTVSPost2010Prop55
280
     0
102
RTVSPost2010PropOp55
 70
     1
102
RTVSPost2010Prop56
140
1.0
102
RTVSPost2010PropOp56
 70
     1
102
RTVSPost2010Prop57
140
1.0
102
RTVSPost2010PropOp57
 70
     1
  0
XRECORD
  5
261
102
{ACAD_REACTORS
330
260
102
}
330
260
100
AcDbXrecord
280
     1
102
RTVSPropertyOp0
 70
     1
102
RTVSPropertyOp1
 70
     1
102
RTVSPropertyOp2
 70
     1
102
RTVSPropertyOp3
 70
     1
102
RTVSPropertyOp4
 70
     1
102
RTVSPropertyOp5
 70
     1
102
RTVSPropertyOp6
 70
     1
102
RTVSPropertyOp7
 70
     1
102
RTVSPropertyOp8
 70
     1
102
RTVSPropertyOp9
 70
     1
102
RTVSPropertyOp10
 70
     1
102
RTVSPropertyOp11
 70
     1
102
RTVSPropertyOp12
 70
     1
102
RTVSPropertyOp13
 70
     1
102
RTVSPropertyOp14
 70
     1
102
RTVSPropertyOp15
 70
     1
102
RTVSPropertyOp16
 70
     1
102
RTVSPropertyOp17
 70
     1
102
RTVSPropertyOp18
 70
     1
102
RTVSPropertyOp19
 70
     1
102
RTVSPropertyOp20
 70
     1
102
RTVSPropertyOp21
 70
     1
102
RTVSPropertyOp22
 70
     1
102
RTVSPropertyOp23
 70
     1
102
RTVSPropertyOp24
 70
     1
102
RTVSPropertyOp25
 70
     1
102
RTVSPropertyOp26
 70
     1
102
RTVSPropertyOp27
 70
     1
102
RTVSPropertyOp28
 70
     1
102
RTVSPropertyOp29
 70
     1
102
RTVSPropertyOp30
 70
     1
102
RTVSPropertyOp31
 70
     1
102
RTVSPropertyOp32
 70
     1
102
RTVSPropertyOp33
 70
     1
102
RTVSPropertyOp34
 70
     1
102
RTVSPropertyOp35
 70
     1
102
RTVSPropertyOp36
 70
     1
102
RTVSPropertyOp37
 70
     1
102
RTVSPropertyOp38
 70
     1
102
RTVSPropertyOp39
 70
     1
102
RTVSPropertyOp40
 70
     1
102
RTVSPropertyOp41
 70
     1
102
RTVSPropertyOp42
 70
     1
102
RTVSPropertyOp43
 70
     1
102
RTVSPropertyOp44
 70
     1
102
RTVSPropertyOp45
 70
     1
102
RTVSPropertyOp46
 70
     1
102
RTVSPropertyOp47
 70
     1
102
RTVSPropertyOp48
 70
     1
102
RTVSPropertyOp49
 70
     1
102
RTVSPropertyOp50
 70
     1
102
RTVSPropertyOp51
 70
     0
102
RTVSPropertyOp52
 70
     0
102
RTVSPropertyOp53
 70
     1
102
RTVSPropertyOp54
 70
     1
102
RTVSPropertyOp55
 70
     1
102
RTVSPropertyOp56
 70
     1
102
RTVSPropertyOp57
 70
     1
102
RTVSPost2010Prop28
280
     0
102
RTVSPost2010PropOp28
 70
     1
102
RTVSPost2010Prop29
280
     1
102
RTVSPost2010PropOp29
 70
     1
102
RTVSPost2010Prop30
280
     1
102
RTVSPost2010PropOp30
 70
     1
102
RTVSPost2010Prop31
280
     0
102
RTVSPost2010PropOp31
 70
     1
102
RTVSPost2010Prop32
280
     0
102
RTVSPost2010PropOp32
 70
     1
102
RTVSPost2010Prop33
280
     0
102
RTVSPost2010PropOp33
 70
     1
102
RTVSPost2010Prop34
280
     0
102
RTVSPost2010PropOp34
 70
     1
102
RTVSPost2010Prop35
280
     0
102
RTVSPost2010PropOp35
 70
     1
102
RTVSPost2010Prop36
280
     0
102
RTVSPost2010PropOp36
 70
     1
102
RTVSPost2010Prop37
 90
       50
102
RTVSPost2010PropOp37
 70
     1
102
RTVSPost2010Prop38
140
0.0
102
RTVSPost2010PropOp38
 70
     1
102
RTVSPost2010Prop39
140
1.0
102
RTVSPost2010PropOp39
 70
     1
102
RTVSPost2010Prop40
 90
        0
102
RTVSPost2010PropOp40
 70
     1
102
RTVSPost2010Prop41ColorIndex
 90
       18
102
RTVSPost2010Prop41ColorRGB
 90
        0
102
RTVSPost2010PropOp41
 70
     1
102
RTVSPost2010Prop42
 90
       50
102
RTVSPost2010PropOp42
 70
     1
102
RTVSPost2010Prop43
 90
        3
102
RTVSPost2010PropOp43
 70
     1
102
RTVSPost2010Prop44ColorIndex
 90
        5
102
RTVSPost2010Prop44ColorRGB
 90
      255
102
RTVSPost2010PropOp44
 70
     1
102
RTVSPost2010Prop45
280
     0
102
RTVSPost2010PropOp45
 70
     1
102
RTVSPost2010Prop46
 90
       50
102
RTVSPost2010PropOp46
 70
     1
102
RTVSPost2010Prop47
 90
       50
102
RTVSPost2010PropOp47
 70
     1
102
RTVSPost2010Prop48
 90
       50
102
RTVSPost2010PropOp48
 70
     1
102
RTVSPost2010Prop49
280
     0
102
RTVSPost2010PropOp49
 70
     1
102
RTVSPost2010Prop50
 90
       50
102
RTVSPost2010PropOp50
 70
     1
102
RTVSPost2010Prop51ColorIndex
 90
      256
102
RTVSPost2010Prop51ColorRGB
 90
-16777216
102
RTVSPost2010PropOp51
 70
     0
102
RTVSPost2010Prop52
140
1.0
102
RTVSPost2010PropOp52
 70
     0
102
RTVSPost2010Prop53
 90
        2
102
RTVSPost2010PropOp53
 70
     1
102
RTVSPost2010Prop54
  1
strokes_ogs.tif
102
RTVSPost2010PropOp54
 70
     1
102
RTVSPost2010Prop55
280
     0
102
RTVSPost2010PropOp55
 70
     1
102
RTVSPost2010Prop56
140
1.0
102
RTVSPost2010PropOp56
 70
     1
102
RTVSPost2010Prop57
140
1.0
102
RTVSPost2010PropOp57
 70
     1
  0
XRECORD
  5
269
102
{ACAD_REACTORS
330
268
102
}
330
268
100
AcDbXrecord
280
     1
102
RTVSPropertyOp0
 70
     1
102
RTVSPropertyOp1
 70
     1
102
RTVSPropertyOp2
 70
     1
102
RTVSPropertyOp3
 70
     1
102
RTVSPropertyOp4
 70
     1
102
RTVSPropertyOp5
 70
     1
102
RTVSPropertyOp6
 70
     1
102
RTVSPropertyOp7
 70
     1
102
RTVSPropertyOp8
 70
     1
102
RTVSPropertyOp9
 70
     1
102
RTVSPropertyOp10
 70
     1
102
RTVSPropertyOp11
 70
     1
102
RTVSPropertyOp12
 70
     1
102
RTVSPropertyOp13
 70
     1
102
RTVSPropertyOp14
 70
     1
102
RTVSPropertyOp15
 70
     1
102
RTVSPropertyOp16
 70
     1
102
RTVSPropertyOp17
 70
     1
102
RTVSPropertyOp18
 70
     1
102
RTVSPropertyOp19
 70
     1
102
RTVSPropertyOp20
 70
     1
102
RTVSPropertyOp21
 70
     1
102
RTVSPropertyOp22
 70
     1
102
RTVSPropertyOp23
 70
     1
102
RTVSPropertyOp24
 70
     1
102
RTVSPropertyOp25
 70
     1
102
RTVSPropertyOp26
 70
     1
102
RTVSPropertyOp27
 70
     1
102
RTVSPropertyOp28
 70
     1
102
RTVSPropertyOp29
 70
     1
102
RTVSPropertyOp30
 70
     1
102
RTVSPropertyOp31
 70
     1
102
RTVSPropertyOp32
 70
     1
102
RTVSPropertyOp33
 70
     1
102
RTVSPropertyOp34
 70
     1
102
RTVSPropertyOp35
 70
     1
102
RTVSPropertyOp36
 70
     1
102
RTVSPropertyOp37
 70
     1
102
RTVSPropertyOp38
 70
     1
102
RTVSPropertyOp39
 70
     1
102
RTVSPropertyOp40
 70
     1
102
RTVSPropertyOp41
 70
     1
102
RTVSPropertyOp42
 70
     1
102
RTVSPropertyOp43
 70
     1
102
RTVSPropertyOp44
 70
     1
102
RTVSPropertyOp45
 70
     1
102
RTVSPropertyOp46
 70
     1
102
RTVSPropertyOp47
 70
     1
102
RTVSPropertyOp48
 70
     1
102
RTVSPropertyOp49
 70
     1
102
RTVSPropertyOp50
 70
     1
102
RTVSPropertyOp51
 70
     0
102
RTVSPropertyOp52
 70
     0
102
RTVSPropertyOp53
 70
     1
102
RTVSPropertyOp54
 70
     1
102
RTVSPropertyOp55
 70
     1
102
RTVSPropertyOp56
 70
     1
102
RTVSPropertyOp57
 70
     1
102
RTVSPost2010Prop28
280
     0
102
RTVSPost2010PropOp28
 70
     1
102
RTVSPost2010Prop29
280
     1
102
RTVSPost2010PropOp29
 70
     1
102
RTVSPost2010Prop30
280
     1
102
RTVSPost2010PropOp30
 70
     1
102
RTVSPost2010Prop31
280
     0
102
RTVSPost2010PropOp31
 70
     1
102
RTVSPost2010Prop32
280
     0
102
RTVSPost2010PropOp32
 70
     1
102
RTVSPost2010Prop33
280
     0
102
RTVSPost2010PropOp33
 70
     1
102
RTVSPost2010Prop34
280
     0
102
RTVSPost2010PropOp34
 70
     1
102
RTVSPost2010Prop35
280
     0
102
RTVSPost2010PropOp35
 70
     1
102
RTVSPost2010Prop36
280
     0
102
RTVSPost2010PropOp36
 70
     1
102
RTVSPost2010Prop37
 90
       50
102
RTVSPost2010PropOp37
 70
     1
102
RTVSPost2010Prop38
140
0.0
102
RTVSPost2010PropOp38
 70
     1
102
RTVSPost2010Prop39
140
1.0
102
RTVSPost2010PropOp39
 70
     1
102
RTVSPost2010Prop40
 90
        0
102
RTVSPost2010PropOp40
 70
     1
102
RTVSPost2010Prop41ColorIndex
 90
       18
102
RTVSPost2010Prop41ColorRGB
 90
        0
102
RTVSPost2010PropOp41
 70
     1
102
RTVSPost2010Prop42
 90
       50
102
RTVSPost2010PropOp42
 70
     1
102
RTVSPost2010Prop43
 90
        3
102
RTVSPost2010PropOp43
 70
     1
102
RTVSPost2010Prop44ColorIndex
 90
        5
102
RTVSPost2010Prop44ColorRGB
 90
      255
102
RTVSPost2010PropOp44
 70
     1
102
RTVSPost2010Prop45
280
     0
102
RTVSPost2010PropOp45
 70
     1
102
RTVSPost2010Prop46
 90
       50
102
RTVSPost2010PropOp46
 70
     1
102
RTVSPost2010Prop47
 90
       50
102
RTVSPost2010PropOp47
 70
     1
102
RTVSPost2010Prop48
 90
       50
102
RTVSPost2010PropOp48
 70
     1
102
RTVSPost2010Prop49
280
     0
102
RTVSPost2010PropOp49
 70
     1
102
RTVSPost2010Prop50
 90
       50
102
RTVSPost2010PropOp50
 70
     1
102
RTVSPost2010Prop51ColorIndex
 90
      256
102
RTVSPost2010Prop51ColorRGB
 90
-16777216
102
RTVSPost2010PropOp51
 70
     0
102
RTVSPost2010Prop52
140
1.0
102
RTVSPost2010PropOp52
 70
     0
102
RTVSPost2010Prop53
 90
        2
102
RTVSPost2010PropOp53
 70
     1
102
RTVSPost2010Prop54
  1
strokes_ogs.tif
102
RTVSPost2010PropOp54
 70
     1
102
RTVSPost2010Prop55
280
     0
102
RTVSPost2010PropOp55
 70
     1
102
RTVSPost2010Prop56
140
1.0
102
RTVSPost2010PropOp56
 70
     1
102
RTVSPost2010Prop57
140
1.0
102
RTVSPost2010PropOp57
 70
     1
  0
XRECORD
  5
271
102
{ACAD_REACTORS
330
270
102
}
330
270
100
AcDbXrecord
280
     1
102
RTVSPropertyOp0
 70
     1
102
RTVSPropertyOp1
 70
     1
102
RTVSPropertyOp2
 70
     1
102
RTVSPropertyOp3
 70
     1
102
RTVSPropertyOp4
 70
     1
102
RTVSPropertyOp5
 70
     1
102
RTVSPropertyOp6
 70
     1
102
RTVSPropertyOp7
 70
     1
102
RTVSPropertyOp8
 70
     1
102
RTVSPropertyOp9
 70
     1
102
RTVSPropertyOp10
 70
     1
102
RTVSPropertyOp11
 70
     1
102
RTVSPropertyOp12
 70
     1
102
RTVSPropertyOp13
 70
     1
102
RTVSPropertyOp14
 70
     1
102
RTVSPropertyOp15
 70
     1
102
RTVSPropertyOp16
 70
     1
102
RTVSPropertyOp17
 70
     1
102
RTVSPropertyOp18
 70
     1
102
RTVSPropertyOp19
 70
     1
102
RTVSPropertyOp20
 70
     1
102
RTVSPropertyOp21
 70
     1
102
RTVSPropertyOp22
 70
     1
102
RTVSPropertyOp23
 70
     1
102
RTVSPropertyOp24
 70
     1
102
RTVSPropertyOp25
 70
     1
102
RTVSPropertyOp26
 70
     1
102
RTVSPropertyOp27
 70
     1
102
RTVSPropertyOp28
 70
     1
102
RTVSPropertyOp29
 70
     1
102
RTVSPropertyOp30
 70
     1
102
RTVSPropertyOp31
 70
     1
102
RTVSPropertyOp32
 70
     1
102
RTVSPropertyOp33
 70
     1
102
RTVSPropertyOp34
 70
     1
102
RTVSPropertyOp35
 70
     1
102
RTVSPropertyOp36
 70
     1
102
RTVSPropertyOp37
 70
     1
102
RTVSPropertyOp38
 70
     1
102
RTVSPropertyOp39
 70
     1
102
RTVSPropertyOp40
 70
     1
102
RTVSPropertyOp41
 70
     1
102
RTVSPropertyOp42
 70
     1
102
RTVSPropertyOp43
 70
     1
102
RTVSPropertyOp44
 70
     1
102
RTVSPropertyOp45
 70
     1
102
RTVSPropertyOp46
 70
     1
102
RTVSPropertyOp47
 70
     1
102
RTVSPropertyOp48
 70
     1
102
RTVSPropertyOp49
 70
     1
102
RTVSPropertyOp50
 70
     1
102
RTVSPropertyOp51
 70
     0
102
RTVSPropertyOp52
 70
     0
102
RTVSPropertyOp53
 70
     1
102
RTVSPropertyOp54
 70
     1
102
RTVSPropertyOp55
 70
     1
102
RTVSPropertyOp56
 70
     1
102
RTVSPropertyOp57
 70
     1
102
RTVSPost2010Prop28
280
     0
102
RTVSPost2010PropOp28
 70
     1
102
RTVSPost2010Prop29
280
     1
102
RTVSPost2010PropOp29
 70
     1
102
RTVSPost2010Prop30
280
     1
102
RTVSPost2010PropOp30
 70
     1
102
RTVSPost2010Prop31
280
     0
102
RTVSPost2010PropOp31
 70
     1
102
RTVSPost2010Prop32
280
     0
102
RTVSPost2010PropOp32
 70
     1
102
RTVSPost2010Prop33
280
     0
102
RTVSPost2010PropOp33
 70
     1
102
RTVSPost2010Prop34
280
     0
102
RTVSPost2010PropOp34
 70
     1
102
RTVSPost2010Prop35
280
     0
102
RTVSPost2010PropOp35
 70
     1
102
RTVSPost2010Prop36
280
     0
102
RTVSPost2010PropOp36
 70
     1
102
RTVSPost2010Prop37
 90
       50
102
RTVSPost2010PropOp37
 70
     1
102
RTVSPost2010Prop38
140
0.0
102
RTVSPost2010PropOp38
 70
     1
102
RTVSPost2010Prop39
140
1.0
102
RTVSPost2010PropOp39
 70
     1
102
RTVSPost2010Prop40
 90
        0
102
RTVSPost2010PropOp40
 70
     1
102
RTVSPost2010Prop41ColorIndex
 90
       18
102
RTVSPost2010Prop41ColorRGB
 90
        0
102
RTVSPost2010PropOp41
 70
     1
102
RTVSPost2010Prop42
 90
       50
102
RTVSPost2010PropOp42
 70
     1
102
RTVSPost2010Prop43
 90
        3
102
RTVSPost2010PropOp43
 70
     1
102
RTVSPost2010Prop44ColorIndex
 90
        5
102
RTVSPost2010Prop44ColorRGB
 90
      255
102
RTVSPost2010PropOp44
 70
     1
102
RTVSPost2010Prop45
280
     0
102
RTVSPost2010PropOp45
 70
     1
102
RTVSPost2010Prop46
 90
       50
102
RTVSPost2010PropOp46
 70
     1
102
RTVSPost2010Prop47
 90
       50
102
RTVSPost2010PropOp47
 70
     1
102
RTVSPost2010Prop48
 90
       50
102
RTVSPost2010PropOp48
 70
     1
102
RTVSPost2010Prop49
280
     0
102
RTVSPost2010PropOp49
 70
     1
102
RTVSPost2010Prop50
 90
       50
102
RTVSPost2010PropOp50
 70
     1
102
RTVSPost2010Prop51ColorIndex
 90
      256
102
RTVSPost2010Prop51ColorRGB
 90
-16777216
102
RTVSPost2010PropOp51
 70
     0
102
RTVSPost2010Prop52
140
1.0
102
RTVSPost2010PropOp52
 70
     0
102
RTVSPost2010Prop53
 90
        2
102
RTVSPost2010PropOp53
 70
     1
102
RTVSPost2010Prop54
  1
strokes_ogs.tif
102
RTVSPost2010PropOp54
 70
     1
102
RTVSPost2010Prop55
280
     0
102
RTVSPost2010PropOp55
 70
     1
102
RTVSPost2010Prop56
140
1.0
102
RTVSPost2010PropOp56
 70
     1
102
RTVSPost2010Prop57
140
1.0
102
RTVSPost2010PropOp57
 70
     1
  0
XRECORD
  5
265
102
{ACAD_REACTORS
330
264
102
}
330
264
100
AcDbXrecord
280
     1
102
RTVSPropertyOp0
 70
     1
102
RTVSPropertyOp1
 70
     1
102
RTVSPropertyOp2
 70
     1
102
RTVSPropertyOp3
 70
     1
102
RTVSPropertyOp4
 70
     1
102
RTVSPropertyOp5
 70
     1
102
RTVSPropertyOp6
 70
     1
102
RTVSPropertyOp7
 70
     1
102
RTVSPropertyOp8
 70
     1
102
RTVSPropertyOp9
 70
     1
102
RTVSPropertyOp10
 70
     1
102
RTVSPropertyOp11
 70
     1
102
RTVSPropertyOp12
 70
     1
102
RTVSPropertyOp13
 70
     1
102
RTVSPropertyOp14
 70
     1
102
RTVSPropertyOp15
 70
     1
102
RTVSPropertyOp16
 70
     1
102
RTVSPropertyOp17
 70
     1
102
RTVSPropertyOp18
 70
     1
102
RTVSPropertyOp19
 70
     1
102
RTVSPropertyOp20
 70
     1
102
RTVSPropertyOp21
 70
     1
102
RTVSPropertyOp22
 70
     1
102
RTVSPropertyOp23
 70
     1
102
RTVSPropertyOp24
 70
     1
102
RTVSPropertyOp25
 70
     1
102
RTVSPropertyOp26
 70
     1
102
RTVSPropertyOp27
 70
     1
102
RTVSPropertyOp28
 70
     1
102
RTVSPropertyOp29
 70
     1
102
RTVSPropertyOp30
 70
     1
102
RTVSPropertyOp31
 70
     1
102
RTVSPropertyOp32
 70
     1
102
RTVSPropertyOp33
 70
     1
102
RTVSPropertyOp34
 70
     1
102
RTVSPropertyOp35
 70
     1
102
RTVSPropertyOp36
 70
     1
102
RTVSPropertyOp37
 70
     1
102
RTVSPropertyOp38
 70
     1
102
RTVSPropertyOp39
 70
     1
102
RTVSPropertyOp40
 70
     1
102
RTVSPropertyOp41
 70
     1
102
RTVSPropertyOp42
 70
     1
102
RTVSPropertyOp43
 70
     1
102
RTVSPropertyOp44
 70
     1
102
RTVSPropertyOp45
 70
     1
102
RTVSPropertyOp46
 70
     1
102
RTVSPropertyOp47
 70
     1
102
RTVSPropertyOp48
 70
     1
102
RTVSPropertyOp49
 70
     1
102
RTVSPropertyOp50
 70
     1
102
RTVSPropertyOp51
 70
     0
102
RTVSPropertyOp52
 70
     0
102
RTVSPropertyOp53
 70
     1
102
RTVSPropertyOp54
 70
     1
102
RTVSPropertyOp55
 70
     1
102
RTVSPropertyOp56
 70
     1
102
RTVSPropertyOp57
 70
     1
102
RTVSPost2010Prop28
280
     0
102
RTVSPost2010PropOp28
 70
     1
102
RTVSPost2010Prop29
280
     1
102
RTVSPost2010PropOp29
 70
     1
102
RTVSPost2010Prop30
280
     1
102
RTVSPost2010PropOp30
 70
     1
102
RTVSPost2010Prop31
280
     0
102
RTVSPost2010PropOp31
 70
     1
102
RTVSPost2010Prop32
280
     0
102
RTVSPost2010PropOp32
 70
     1
102
RTVSPost2010Prop33
280
     0
102
RTVSPost2010PropOp33
 70
     1
102
RTVSPost2010Prop34
280
     0
102
RTVSPost2010PropOp34
 70
     1
102
RTVSPost2010Prop35
280
     0
102
RTVSPost2010PropOp35
 70
     1
102
RTVSPost2010Prop36
280
     0
102
RTVSPost2010PropOp36
 70
     1
102
RTVSPost2010Prop37
 90
       50
102
RTVSPost2010PropOp37
 70
     1
102
RTVSPost2010Prop38
140
0.0
102
RTVSPost2010PropOp38
 70
     1
102
RTVSPost2010Prop39
140
1.0
102
RTVSPost2010PropOp39
 70
     1
102
RTVSPost2010Prop40
 90
        0
102
RTVSPost2010PropOp40
 70
     1
102
RTVSPost2010Prop41ColorIndex
 90
       18
102
RTVSPost2010Prop41ColorRGB
 90
        0
102
RTVSPost2010PropOp41
 70
     1
102
RTVSPost2010Prop42
 90
       50
102
RTVSPost2010PropOp42
 70
     1
102
RTVSPost2010Prop43
 90
        3
102
RTVSPost2010PropOp43
 70
     1
102
RTVSPost2010Prop44ColorIndex
 90
        5
102
RTVSPost2010Prop44ColorRGB
 90
      255
102
RTVSPost2010PropOp44
 70
     1
102
RTVSPost2010Prop45
280
     0
102
RTVSPost2010PropOp45
 70
     1
102
RTVSPost2010Prop46
 90
       50
102
RTVSPost2010PropOp46
 70
     1
102
RTVSPost2010Prop47
 90
       50
102
RTVSPost2010PropOp47
 70
     1
102
RTVSPost2010Prop48
 90
       50
102
RTVSPost2010PropOp48
 70
     1
102
RTVSPost2010Prop49
280
     0
102
RTVSPost2010PropOp49
 70
     1
102
RTVSPost2010Prop50
 90
       50
102
RTVSPost2010PropOp50
 70
     1
102
RTVSPost2010Prop51ColorIndex
 90
      256
102
RTVSPost2010Prop51ColorRGB
 90
-16777216
102
RTVSPost2010PropOp51
 70
     0
102
RTVSPost2010Prop52
140
1.0
102
RTVSPost2010PropOp52
 70
     0
102
RTVSPost2010Prop53
 90
        2
102
RTVSPost2010PropOp53
 70
     1
102
RTVSPost2010Prop54
  1
strokes_ogs.tif
102
RTVSPost2010PropOp54
 70
     1
102
RTVSPost2010Prop55
280
     0
102
RTVSPost2010PropOp55
 70
     1
102
RTVSPost2010Prop56
140
1.0
102
RTVSPost2010PropOp56
 70
     1
102
RTVSPost2010Prop57
140
1.0
102
RTVSPost2010PropOp57
 70
     1
  0
XRECORD
  5
267
102
{ACAD_REACTORS
330
266
102
}
330
266
100
AcDbXrecord
280
     1
102
RTVSPropertyOp0
 70
     1
102
RTVSPropertyOp1
 70
     1
102
RTVSPropertyOp2
 70
     1
102
RTVSPropertyOp3
 70
     1
102
RTVSPropertyOp4
 70
     1
102
RTVSPropertyOp5
 70
     1
102
RTVSPropertyOp6
 70
     1
102
RTVSPropertyOp7
 70
     1
102
RTVSPropertyOp8
 70
     1
102
RTVSPropertyOp9
 70
     1
102
RTVSPropertyOp10
 70
     1
102
RTVSPropertyOp11
 70
     1
102
RTVSPropertyOp12
 70
     1
102
RTVSPropertyOp13
 70
     1
102
RTVSPropertyOp14
 70
     1
102
RTVSPropertyOp15
 70
     1
102
RTVSPropertyOp16
 70
     1
102
RTVSPropertyOp17
 70
     1
102
RTVSPropertyOp18
 70
     1
102
RTVSPropertyOp19
 70
     1
102
RTVSPropertyOp20
 70
     1
102
RTVSPropertyOp21
 70
     1
102
RTVSPropertyOp22
 70
     1
102
RTVSPropertyOp23
 70
     1
102
RTVSPropertyOp24
 70
     1
102
RTVSPropertyOp25
 70
     1
102
RTVSPropertyOp26
 70
     1
102
RTVSPropertyOp27
 70
     1
102
RTVSPropertyOp28
 70
     1
102
RTVSPropertyOp29
 70
     1
102
RTVSPropertyOp30
 70
     1
102
RTVSPropertyOp31
 70
     1
102
RTVSPropertyOp32
 70
     1
102
RTVSPropertyOp33
 70
     1
102
RTVSPropertyOp34
 70
     1
102
RTVSPropertyOp35
 70
     1
102
RTVSPropertyOp36
 70
     1
102
RTVSPropertyOp37
 70
     1
102
RTVSPropertyOp38
 70
     1
102
RTVSPropertyOp39
 70
     1
102
RTVSPropertyOp40
 70
     1
102
RTVSPropertyOp41
 70
     1
102
RTVSPropertyOp42
 70
     1
102
RTVSPropertyOp43
 70
     1
102
RTVSPropertyOp44
 70
     1
102
RTVSPropertyOp45
 70
     1
102
RTVSPropertyOp46
 70
     1
102
RTVSPropertyOp47
 70
     1
102
RTVSPropertyOp48
 70
     1
102
RTVSPropertyOp49
 70
     1
102
RTVSPropertyOp50
 70
     1
102
RTVSPropertyOp51
 70
     0
102
RTVSPropertyOp52
 70
     0
102
RTVSPropertyOp53
 70
     1
102
RTVSPropertyOp54
 70
     1
102
RTVSPropertyOp55
 70
     1
102
RTVSPropertyOp56
 70
     1
102
RTVSPropertyOp57
 70
     1
102
RTVSPost2010Prop28
280
     0
102
RTVSPost2010PropOp28
 70
     1
102
RTVSPost2010Prop29
280
     1
102
RTVSPost2010PropOp29
 70
     1
102
RTVSPost2010Prop30
280
     1
102
RTVSPost2010PropOp30
 70
     1
102
RTVSPost2010Prop31
280
     0
102
RTVSPost2010PropOp31
 70
     1
102
RTVSPost2010Prop32
280
     0
102
RTVSPost2010PropOp32
 70
     1
102
RTVSPost2010Prop33
280
     0
102
RTVSPost2010PropOp33
 70
     1
102
RTVSPost2010Prop34
280
     0
102
RTVSPost2010PropOp34
 70
     1
102
RTVSPost2010Prop35
280
     0
102
RTVSPost2010PropOp35
 70
     1
102
RTVSPost2010Prop36
280
     0
102
RTVSPost2010PropOp36
 70
     1
102
RTVSPost2010Prop37
 90
       50
102
RTVSPost2010PropOp37
 70
     1
102
RTVSPost2010Prop38
140
0.0
102
RTVSPost2010PropOp38
 70
     1
102
RTVSPost2010Prop39
140
1.0
102
RTVSPost2010PropOp39
 70
     1
102
RTVSPost2010Prop40
 90
        0
102
RTVSPost2010PropOp40
 70
     1
102
RTVSPost2010Prop41ColorIndex
 90
       18
102
RTVSPost2010Prop41ColorRGB
 90
        0
102
RTVSPost2010PropOp41
 70
     1
102
RTVSPost2010Prop42
 90
       50
102
RTVSPost2010PropOp42
 70
     1
102
RTVSPost2010Prop43
 90
        3
102
RTVSPost2010PropOp43
 70
     1
102
RTVSPost2010Prop44ColorIndex
 90
        5
102
RTVSPost2010Prop44ColorRGB
 90
      255
102
RTVSPost2010PropOp44
 70
     1
102
RTVSPost2010Prop45
280
     0
102
RTVSPost2010PropOp45
 70
     1
102
RTVSPost2010Prop46
 90
       50
102
RTVSPost2010PropOp46
 70
     1
102
RTVSPost2010Prop47
 90
       50
102
RTVSPost2010PropOp47
 70
     1
102
RTVSPost2010Prop48
 90
       50
102
RTVSPost2010PropOp48
 70
     1
102
RTVSPost2010Prop49
280
     0
102
RTVSPost2010PropOp49
 70
     1
102
RTVSPost2010Prop50
 90
       50
102
RTVSPost2010PropOp50
 70
     1
102
RTVSPost2010Prop51ColorIndex
 90
      256
102
RTVSPost2010Prop51ColorRGB
 90
-16777216
102
RTVSPost2010PropOp51
 70
     0
102
RTVSPost2010Prop52
140
1.0
102
RTVSPost2010PropOp52
 70
     0
102
RTVSPost2010Prop53
 90
        2
102
RTVSPost2010PropOp53
 70
     1
102
RTVSPost2010Prop54
  1
strokes_ogs.tif
102
RTVSPost2010PropOp54
 70
     1
102
RTVSPost2010Prop55
280
     0
102
RTVSPost2010PropOp55
 70
     1
102
RTVSPost2010Prop56
140
1.0
102
RTVSPost2010PropOp56
 70
     1
102
RTVSPost2010Prop57
140
1.0
102
RTVSPost2010PropOp57
 70
     1
  0
XRECORD
  5
277
102
{ACAD_REACTORS
330
276
102
}
330
276
100
AcDbXrecord
280
     1
102
RTVSPropertyOp0
 70
     0
102
RTVSPropertyOp1
 70
     0
102
RTVSPropertyOp2
 70
     0
102
RTVSPropertyOp3
 70
     0
102
RTVSPropertyOp4
 70
     0
102
RTVSPropertyOp5
 70
     0
102
RTVSPropertyOp6
 70
     0
102
RTVSPropertyOp7
 70
     0
102
RTVSPropertyOp8
 70
     0
102
RTVSPropertyOp9
 70
     0
102
RTVSPropertyOp10
 70
     0
102
RTVSPropertyOp11
 70
     0
102
RTVSPropertyOp12
 70
     0
102
RTVSPropertyOp13
 70
     0
102
RTVSPropertyOp14
 70
     2
102
RTVSPropertyOp15
 70
     0
102
RTVSPropertyOp16
 70
     0
102
RTVSPropertyOp17
 70
     0
102
RTVSPropertyOp18
 70
     0
102
RTVSPropertyOp19
 70
     0
102
RTVSPropertyOp20
 70
     0
102
RTVSPropertyOp21
 70
     0
102
RTVSPropertyOp22
 70
     0
102
RTVSPropertyOp23
 70
     0
102
RTVSPropertyOp24
 70
     0
102
RTVSPropertyOp25
 70
     0
102
RTVSPropertyOp26
 70
     0
102
RTVSPropertyOp27
 70
     0
102
RTVSPropertyOp28
 70
     0
102
RTVSPropertyOp29
 70
     0
102
RTVSPropertyOp30
 70
     0
102
RTVSPropertyOp31
 70
     0
102
RTVSPropertyOp32
 70
     0
102
RTVSPropertyOp33
 70
     0
102
RTVSPropertyOp34
 70
     0
102
RTVSPropertyOp35
 70
     0
102
RTVSPropertyOp36
 70
     0
102
RTVSPropertyOp37
 70
     0
102
RTVSPropertyOp38
 70
     0
102
RTVSPropertyOp39
 70
     0
102
RTVSPropertyOp40
 70
     0
102
RTVSPropertyOp41
 70
     0
102
RTVSPropertyOp42
 70
     0
102
RTVSPropertyOp43
 70
     0
102
RTVSPropertyOp44
 70
     0
102
RTVSPropertyOp45
 70
     0
102
RTVSPropertyOp46
 70
     0
102
RTVSPropertyOp47
 70
     0
102
RTVSPropertyOp48
 70
     0
102
RTVSPropertyOp49
 70
     0
102
RTVSPropertyOp50
 70
     0
102
RTVSPropertyOp51
 70
     0
102
RTVSPropertyOp52
 70
     0
102
RTVSPropertyOp53
 70
     0
102
RTVSPropertyOp54
 70
     0
102
RTVSPropertyOp55
 70
     0
102
RTVSPropertyOp56
 70
     0
102
RTVSPropertyOp57
 70
     0
102
RTVSPost2010Prop28
280
     0
102
RTVSPost2010PropOp28
 70
     0
102
RTVSPost2010Prop29
280
     1
102
RTVSPost2010PropOp29
 70
     0
102
RTVSPost2010Prop30
280
     1
102
RTVSPost2010PropOp30
 70
     0
102
RTVSPost2010Prop31
280
     0
102
RTVSPost2010PropOp31
 70
     0
102
RTVSPost2010Prop32
280
     0
102
RTVSPost2010PropOp32
 70
     0
102
RTVSPost2010Prop33
280
     0
102
RTVSPost2010PropOp33
 70
     0
102
RTVSPost2010Prop34
280
     0
102
RTVSPost2010PropOp34
 70
     0
102
RTVSPost2010Prop35
280
     0
102
RTVSPost2010PropOp35
 70
     0
102
RTVSPost2010Prop36
280
     0
102
RTVSPost2010PropOp36
 70
     0
102
RTVSPost2010Prop37
 90
       50
102
RTVSPost2010PropOp37
 70
     0
102
RTVSPost2010Prop38
140
0.0
102
RTVSPost2010PropOp38
 70
     0
102
RTVSPost2010Prop39
140
1.0
102
RTVSPost2010PropOp39
 70
     0
102
RTVSPost2010Prop40
 90
        0
102
RTVSPost2010PropOp40
 70
     0
102
RTVSPost2010Prop41ColorIndex
 90
       18
102
RTVSPost2010Prop41ColorRGB
 90
        0
102
RTVSPost2010PropOp41
 70
     0
102
RTVSPost2010Prop42
 90
       50
102
RTVSPost2010PropOp42
 70
     0
102
RTVSPost2010Prop43
 90
        3
102
RTVSPost2010PropOp43
 70
     0
102
RTVSPost2010Prop44ColorIndex
 90
        5
102
RTVSPost2010Prop44ColorRGB
 90
      255
102
RTVSPost2010PropOp44
 70
     0
102
RTVSPost2010Prop45
280
     0
102
RTVSPost2010PropOp45
 70
     0
102
RTVSPost2010Prop46
 90
       50
102
RTVSPost2010PropOp46
 70
     0
102
RTVSPost2010Prop47
 90
       50
102
RTVSPost2010PropOp47
 70
     0
102
RTVSPost2010Prop48
 90
       50
102
RTVSPost2010PropOp48
 70
     0
102
RTVSPost2010Prop49
280
     0
102
RTVSPost2010PropOp49
 70
     0
102
RTVSPost2010Prop50
 90
       50
102
RTVSPost2010PropOp50
 70
     0
102
RTVSPost2010Prop51ColorIndex
 90
      256
102
RTVSPost2010Prop51ColorRGB
 90
-16777216
102
RTVSPost2010PropOp51
 70
     0
102
RTVSPost2010Prop52
140
1.0
102
RTVSPost2010PropOp52
 70
     0
102
RTVSPost2010Prop53
 90
        2
102
RTVSPost2010PropOp53
 70
     0
102
RTVSPost2010Prop54
  1
strokes_ogs.tif
102
RTVSPost2010PropOp54
 70
     0
102
RTVSPost2010Prop55
280
     0
102
RTVSPost2010PropOp55
 70
     0
102
RTVSPost2010Prop56
140
1.0
102
RTVSPost2010PropOp56
 70
     0
102
RTVSPost2010Prop57
140
1.0
102
RTVSPost2010PropOp57
 70
     0
  0
XRECORD
  5
26F
102
{ACAD_REACTORS
330
26E
102
}
330
26E
100
AcDbXrecord
280
     1
102
RTVSPropertyOp0
 70
     1
102
RTVSPropertyOp1
 70
     1
102
RTVSPropertyOp2
 70
     1
102
RTVSPropertyOp3
 70
     1
102
RTVSPropertyOp4
 70
     1
102
RTVSPropertyOp5
 70
     1
102
RTVSPropertyOp6
 70
     1
102
RTVSPropertyOp7
 70
     1
102
RTVSPropertyOp8
 70
     1
102
RTVSPropertyOp9
 70
     1
102
RTVSPropertyOp10
 70
     1
102
RTVSPropertyOp11
 70
     1
102
RTVSPropertyOp12
 70
     1
102
RTVSPropertyOp13
 70
     1
102
RTVSPropertyOp14
 70
     1
102
RTVSPropertyOp15
 70
     1
102
RTVSPropertyOp16
 70
     1
102
RTVSPropertyOp17
 70
     1
102
RTVSPropertyOp18
 70
     1
102
RTVSPropertyOp19
 70
     1
102
RTVSPropertyOp20
 70
     1
102
RTVSPropertyOp21
 70
     1
102
RTVSPropertyOp22
 70
     1
102
RTVSPropertyOp23
 70
     1
102
RTVSPropertyOp24
 70
     1
102
RTVSPropertyOp25
 70
     1
102
RTVSPropertyOp26
 70
     1
102
RTVSPropertyOp27
 70
     1
102
RTVSPropertyOp28
 70
     1
102
RTVSPropertyOp29
 70
     1
102
RTVSPropertyOp30
 70
     1
102
RTVSPropertyOp31
 70
     1
102
RTVSPropertyOp32
 70
     1
102
RTVSPropertyOp33
 70
     1
102
RTVSPropertyOp34
 70
     1
102
RTVSPropertyOp35
 70
     1
102
RTVSPropertyOp36
 70
     1
102
RTVSPropertyOp37
 70
     1
102
RTVSPropertyOp38
 70
     1
102
RTVSPropertyOp39
 70
     1
102
RTVSPropertyOp40
 70
     1
102
RTVSPropertyOp41
 70
     1
102
RTVSPropertyOp42
 70
     1
102
RTVSPropertyOp43
 70
     1
102
RTVSPropertyOp44
 70
     1
102
RTVSPropertyOp45
 70
     1
102
RTVSPropertyOp46
 70
     1
102
RTVSPropertyOp47
 70
     1
102
RTVSPropertyOp48
 70
     1
102
RTVSPropertyOp49
 70
     1
102
RTVSPropertyOp50
 70
     1
102
RTVSPropertyOp51
 70
     0
102
RTVSPropertyOp52
 70
     0
102
RTVSPropertyOp53
 70
     1
102
RTVSPropertyOp54
 70
     1
102
RTVSPropertyOp55
 70
     1
102
RTVSPropertyOp56
 70
     1
102
RTVSPropertyOp57
 70
     1
102
RTVSPost2010Prop28
280
     0
102
RTVSPost2010PropOp28
 70
     1
102
RTVSPost2010Prop29
280
     1
102
RTVSPost2010PropOp29
 70
     1
102
RTVSPost2010Prop30
280
     1
102
RTVSPost2010PropOp30
 70
     1
102
RTVSPost2010Prop31
280
     0
102
RTVSPost2010PropOp31
 70
     1
102
RTVSPost2010Prop32
280
     0
102
RTVSPost2010PropOp32
 70
     1
102
RTVSPost2010Prop33
280
     0
102
RTVSPost2010PropOp33
 70
     1
102
RTVSPost2010Prop34
280
     0
102
RTVSPost2010PropOp34
 70
     1
102
RTVSPost2010Prop35
280
     0
102
RTVSPost2010PropOp35
 70
     1
102
RTVSPost2010Prop36
280
     0
102
RTVSPost2010PropOp36
 70
     1
102
RTVSPost2010Prop37
 90
       50
102
RTVSPost2010PropOp37
 70
     1
102
RTVSPost2010Prop38
140
0.0
102
RTVSPost2010PropOp38
 70
     1
102
RTVSPost2010Prop39
140
1.0
102
RTVSPost2010PropOp39
 70
     1
102
RTVSPost2010Prop40
 90
        0
102
RTVSPost2010PropOp40
 70
     1
102
RTVSPost2010Prop41ColorIndex
 90
       18
102
RTVSPost2010Prop41ColorRGB
 90
        0
102
RTVSPost2010PropOp41
 70
     1
102
RTVSPost2010Prop42
 90
       50
102
RTVSPost2010PropOp42
 70
     1
102
RTVSPost2010Prop43
 90
        3
102
RTVSPost2010PropOp43
 70
     1
102
RTVSPost2010Prop44ColorIndex
 90
        5
102
RTVSPost2010Prop44ColorRGB
 90
      255
102
RTVSPost2010PropOp44
 70
     1
102
RTVSPost2010Prop45
280
     0
102
RTVSPost2010PropOp45
 70
     1
102
RTVSPost2010Prop46
 90
       50
102
RTVSPost2010PropOp46
 70
     1
102
RTVSPost2010Prop47
 90
       50
102
RTVSPost2010PropOp47
 70
     1
102
RTVSPost2010Prop48
 90
       50
102
RTVSPost2010PropOp48
 70
     1
102
RTVSPost2010Prop49
280
     0
102
RTVSPost2010PropOp49
 70
     1
102
RTVSPost2010Prop50
 90
       50
102
RTVSPost2010PropOp50
 70
     1
102
RTVSPost2010Prop51ColorIndex
 90
      256
102
RTVSPost2010Prop51ColorRGB
 90
-16777216
102
RTVSPost2010PropOp51
 70
     0
102
RTVSPost2010Prop52
140
1.0
102
RTVSPost2010PropOp52
 70
     0
102
RTVSPost2010Prop53
 90
        2
102
RTVSPost2010PropOp53
 70
     1
102
RTVSPost2010Prop54
  1
strokes_ogs.tif
102
RTVSPost2010PropOp54
 70
     1
102
RTVSPost2010Prop55
280
     0
102
RTVSPost2010PropOp55
 70
     1
102
RTVSPost2010Prop56
140
1.0
102
RTVSPost2010PropOp56
 70
     1
102
RTVSPost2010Prop57
140
1.0
102
RTVSPost2010PropOp57
 70
     1
  0
XRECORD
  5
253
102
{ACAD_REACTORS
330
252
102
}
330
252
100
AcDbXrecord
280
     1
102
RTVSPropertyOp0
 70
     1
102
RTVSPropertyOp1
 70
     1
102
RTVSPropertyOp2
 70
     1
102
RTVSPropertyOp3
 70
     1
102
RTVSPropertyOp4
 70
     1
102
RTVSPropertyOp5
 70
     1
102
RTVSPropertyOp6
 70
     1
102
RTVSPropertyOp7
 70
     1
102
RTVSPropertyOp8
 70
     1
102
RTVSPropertyOp9
 70
     1
102
RTVSPropertyOp10
 70
     1
102
RTVSPropertyOp11
 70
     1
102
RTVSPropertyOp12
 70
     1
102
RTVSPropertyOp13
 70
     1
102
RTVSPropertyOp14
 70
     1
102
RTVSPropertyOp15
 70
     1
102
RTVSPropertyOp16
 70
     1
102
RTVSPropertyOp17
 70
     1
102
RTVSPropertyOp18
 70
     1
102
RTVSPropertyOp19
 70
     1
102
RTVSPropertyOp20
 70
     1
102
RTVSPropertyOp21
 70
     1
102
RTVSPropertyOp22
 70
     1
102
RTVSPropertyOp23
 70
     1
102
RTVSPropertyOp24
 70
     1
102
RTVSPropertyOp25
 70
     1
102
RTVSPropertyOp26
 70
     1
102
RTVSPropertyOp27
 70
     1
102
RTVSPropertyOp28
 70
     1
102
RTVSPropertyOp29
 70
     1
102
RTVSPropertyOp30
 70
     1
102
RTVSPropertyOp31
 70
     1
102
RTVSPropertyOp32
 70
     1
102
RTVSPropertyOp33
 70
     1
102
RTVSPropertyOp34
 70
     1
102
RTVSPropertyOp35
 70
     1
102
RTVSPropertyOp36
 70
     1
102
RTVSPropertyOp37
 70
     1
102
RTVSPropertyOp38
 70
     1
102
RTVSPropertyOp39
 70
     1
102
RTVSPropertyOp40
 70
     1
102
RTVSPropertyOp41
 70
     1
102
RTVSPropertyOp42
 70
     1
102
RTVSPropertyOp43
 70
     1
102
RTVSPropertyOp44
 70
     1
102
RTVSPropertyOp45
 70
     1
102
RTVSPropertyOp46
 70
     1
102
RTVSPropertyOp47
 70
     1
102
RTVSPropertyOp48
 70
     1
102
RTVSPropertyOp49
 70
     1
102
RTVSPropertyOp50
 70
     1
102
RTVSPropertyOp51
 70
     0
102
RTVSPropertyOp52
 70
     0
102
RTVSPropertyOp53
 70
     1
102
RTVSPropertyOp54
 70
     1
102
RTVSPropertyOp55
 70
     1
102
RTVSPropertyOp56
 70
     1
102
RTVSPropertyOp57
 70
     1
102
RTVSPost2010Prop28
280
     0
102
RTVSPost2010PropOp28
 70
     1
102
RTVSPost2010Prop29
280
     1
102
RTVSPost2010PropOp29
 70
     1
102
RTVSPost2010Prop30
280
     1
102
RTVSPost2010PropOp30
 70
     1
102
RTVSPost2010Prop31
280
     0
102
RTVSPost2010PropOp31
 70
     1
102
RTVSPost2010Prop32
280
     0
102
RTVSPost2010PropOp32
 70
     1
102
RTVSPost2010Prop33
280
     0
102
RTVSPost2010PropOp33
 70
     1
102
RTVSPost2010Prop34
280
     0
102
RTVSPost2010PropOp34
 70
     1
102
RTVSPost2010Prop35
280
     0
102
RTVSPost2010PropOp35
 70
     1
102
RTVSPost2010Prop36
280
     0
102
RTVSPost2010PropOp36
 70
     1
102
RTVSPost2010Prop37
 90
       50
102
RTVSPost2010PropOp37
 70
     1
102
RTVSPost2010Prop38
140
0.0
102
RTVSPost2010PropOp38
 70
     1
102
RTVSPost2010Prop39
140
1.0
102
RTVSPost2010PropOp39
 70
     1
102
RTVSPost2010Prop40
 90
        0
102
RTVSPost2010PropOp40
 70
     1
102
RTVSPost2010Prop41ColorIndex
 90
       18
102
RTVSPost2010Prop41ColorRGB
 90
        0
102
RTVSPost2010PropOp41
 70
     1
102
RTVSPost2010Prop42
 90
       50
102
RTVSPost2010PropOp42
 70
     1
102
RTVSPost2010Prop43
 90
        3
102
RTVSPost2010PropOp43
 70
     1
102
RTVSPost2010Prop44ColorIndex
 90
        5
102
RTVSPost2010Prop44ColorRGB
 90
      255
102
RTVSPost2010PropOp44
 70
     1
102
RTVSPost2010Prop45
280
     0
102
RTVSPost2010PropOp45
 70
     1
102
RTVSPost2010Prop46
 90
       50
102
RTVSPost2010PropOp46
 70
     1
102
RTVSPost2010Prop47
 90
       50
102
RTVSPost2010PropOp47
 70
     1
102
RTVSPost2010Prop48
 90
       50
102
RTVSPost2010PropOp48
 70
     1
102
RTVSPost2010Prop49
280
     0
102
RTVSPost2010PropOp49
 70
     1
102
RTVSPost2010Prop50
 90
       50
102
RTVSPost2010PropOp50
 70
     1
102
RTVSPost2010Prop51ColorIndex
 90
      256
102
RTVSPost2010Prop51ColorRGB
 90
-16777216
102
RTVSPost2010PropOp51
 70
     0
102
RTVSPost2010Prop52
140
1.0
102
RTVSPost2010PropOp52
 70
     0
102
RTVSPost2010Prop53
 90
        2
102
RTVSPost2010PropOp53
 70
     1
102
RTVSPost2010Prop54
  1
strokes_ogs.tif
102
RTVSPost2010PropOp54
 70
     1
102
RTVSPost2010Prop55
280
     0
102
RTVSPost2010PropOp55
 70
     1
102
RTVSPost2010Prop56
140
1.0
102
RTVSPost2010PropOp56
 70
     1
102
RTVSPost2010Prop57
140
1.0
102
RTVSPost2010PropOp57
 70
     1
  0
XRECORD
  5
255
102
{ACAD_REACTORS
330
254
102
}
330
254
100
AcDbXrecord
280
     1
102
RTVSPropertyOp0
 70
     1
102
RTVSPropertyOp1
 70
     1
102
RTVSPropertyOp2
 70
     1
102
RTVSPropertyOp3
 70
     1
102
RTVSPropertyOp4
 70
     1
102
RTVSPropertyOp5
 70
     1
102
RTVSPropertyOp6
 70
     1
102
RTVSPropertyOp7
 70
     1
102
RTVSPropertyOp8
 70
     1
102
RTVSPropertyOp9
 70
     1
102
RTVSPropertyOp10
 70
     1
102
RTVSPropertyOp11
 70
     1
102
RTVSPropertyOp12
 70
     1
102
RTVSPropertyOp13
 70
     1
102
RTVSPropertyOp14
 70
     1
102
RTVSPropertyOp15
 70
     1
102
RTVSPropertyOp16
 70
     1
102
RTVSPropertyOp17
 70
     1
102
RTVSPropertyOp18
 70
     1
102
RTVSPropertyOp19
 70
     1
102
RTVSPropertyOp20
 70
     1
102
RTVSPropertyOp21
 70
     1
102
RTVSPropertyOp22
 70
     1
102
RTVSPropertyOp23
 70
     1
102
RTVSPropertyOp24
 70
     1
102
RTVSPropertyOp25
 70
     1
102
RTVSPropertyOp26
 70
     1
102
RTVSPropertyOp27
 70
     1
102
RTVSPropertyOp28
 70
     1
102
RTVSPropertyOp29
 70
     1
102
RTVSPropertyOp30
 70
     1
102
RTVSPropertyOp31
 70
     1
102
RTVSPropertyOp32
 70
     1
102
RTVSPropertyOp33
 70
     1
102
RTVSPropertyOp34
 70
     1
102
RTVSPropertyOp35
 70
     1
102
RTVSPropertyOp36
 70
     1
102
RTVSPropertyOp37
 70
     1
102
RTVSPropertyOp38
 70
     1
102
RTVSPropertyOp39
 70
     1
102
RTVSPropertyOp40
 70
     1
102
RTVSPropertyOp41
 70
     1
102
RTVSPropertyOp42
 70
     1
102
RTVSPropertyOp43
 70
     1
102
RTVSPropertyOp44
 70
     1
102
RTVSPropertyOp45
 70
     1
102
RTVSPropertyOp46
 70
     1
102
RTVSPropertyOp47
 70
     1
102
RTVSPropertyOp48
 70
     1
102
RTVSPropertyOp49
 70
     1
102
RTVSPropertyOp50
 70
     1
102
RTVSPropertyOp51
 70
     0
102
RTVSPropertyOp52
 70
     0
102
RTVSPropertyOp53
 70
     1
102
RTVSPropertyOp54
 70
     1
102
RTVSPropertyOp55
 70
     1
102
RTVSPropertyOp56
 70
     1
102
RTVSPropertyOp57
 70
     1
102
RTVSPost2010Prop28
280
     0
102
RTVSPost2010PropOp28
 70
     1
102
RTVSPost2010Prop29
280
     1
102
RTVSPost2010PropOp29
 70
     1
102
RTVSPost2010Prop30
280
     1
102
RTVSPost2010PropOp30
 70
     1
102
RTVSPost2010Prop31
280
     0
102
RTVSPost2010PropOp31
 70
     1
102
RTVSPost2010Prop32
280
     0
102
RTVSPost2010PropOp32
 70
     1
102
RTVSPost2010Prop33
280
     0
102
RTVSPost2010PropOp33
 70
     1
102
RTVSPost2010Prop34
280
     0
102
RTVSPost2010PropOp34
 70
     1
102
RTVSPost2010Prop35
280
     0
102
RTVSPost2010PropOp35
 70
     1
102
RTVSPost2010Prop36
280
     0
102
RTVSPost2010PropOp36
 70
     1
102
RTVSPost2010Prop37
 90
       50
102
RTVSPost2010PropOp37
 70
     1
102
RTVSPost2010Prop38
140
0.0
102
RTVSPost2010PropOp38
 70
     1
102
RTVSPost2010Prop39
140
1.0
102
RTVSPost2010PropOp39
 70
     1
102
RTVSPost2010Prop40
 90
        0
102
RTVSPost2010PropOp40
 70
     1
102
RTVSPost2010Prop41ColorIndex
 90
       18
102
RTVSPost2010Prop41ColorRGB
 90
        0
102
RTVSPost2010PropOp41
 70
     1
102
RTVSPost2010Prop42
 90
       50
102
RTVSPost2010PropOp42
 70
     1
102
RTVSPost2010Prop43
 90
        3
102
RTVSPost2010PropOp43
 70
     1
102
RTVSPost2010Prop44ColorIndex
 90
        5
102
RTVSPost2010Prop44ColorRGB
 90
      255
102
RTVSPost2010PropOp44
 70
     1
102
RTVSPost2010Prop45
280
     0
102
RTVSPost2010PropOp45
 70
     1
102
RTVSPost2010Prop46
 90
       50
102
RTVSPost2010PropOp46
 70
     1
102
RTVSPost2010Prop47
 90
       50
102
RTVSPost2010PropOp47
 70
     1
102
RTVSPost2010Prop48
 90
       50
102
RTVSPost2010PropOp48
 70
     1
102
RTVSPost2010Prop49
280
     0
102
RTVSPost2010PropOp49
 70
     1
102
RTVSPost2010Prop50
 90
       50
102
RTVSPost2010PropOp50
 70
     1
102
RTVSPost2010Prop51ColorIndex
 90
      256
102
RTVSPost2010Prop51ColorRGB
 90
-16777216
102
RTVSPost2010PropOp51
 70
     0
102
RTVSPost2010Prop52
140
1.0
102
RTVSPost2010PropOp52
 70
     0
102
RTVSPost2010Prop53
 90
        2
102
RTVSPost2010PropOp53
 70
     1
102
RTVSPost2010Prop54
  1
strokes_ogs.tif
102
RTVSPost2010PropOp54
 70
     1
102
RTVSPost2010Prop55
280
     0
102
RTVSPost2010PropOp55
 70
     1
102
RTVSPost2010Prop56
140
1.0
102
RTVSPost2010PropOp56
 70
     1
102
RTVSPost2010Prop57
140
1.0
102
RTVSPost2010PropOp57
 70
     1
  0
XRECORD
  5
257
102
{ACAD_REACTORS
330
256
102
}
330
256
100
AcDbXrecord
280
     1
102
RTVSPropertyOp0
 70
     1
102
RTVSPropertyOp1
 70
     1
102
RTVSPropertyOp2
 70
     1
102
RTVSPropertyOp3
 70
     1
102
RTVSPropertyOp4
 70
     1
102
RTVSPropertyOp5
 70
     1
102
RTVSPropertyOp6
 70
     1
102
RTVSPropertyOp7
 70
     1
102
RTVSPropertyOp8
 70
     1
102
RTVSPropertyOp9
 70
     1
102
RTVSPropertyOp10
 70
     1
102
RTVSPropertyOp11
 70
     1
102
RTVSPropertyOp12
 70
     1
102
RTVSPropertyOp13
 70
     1
102
RTVSPropertyOp14
 70
     1
102
RTVSPropertyOp15
 70
     1
102
RTVSPropertyOp16
 70
     1
102
RTVSPropertyOp17
 70
     1
102
RTVSPropertyOp18
 70
     1
102
RTVSPropertyOp19
 70
     1
102
RTVSPropertyOp20
 70
     1
102
RTVSPropertyOp21
 70
     1
102
RTVSPropertyOp22
 70
     1
102
RTVSPropertyOp23
 70
     1
102
RTVSPropertyOp24
 70
     1
102
RTVSPropertyOp25
 70
     1
102
RTVSPropertyOp26
 70
     1
102
RTVSPropertyOp27
 70
     1
102
RTVSPropertyOp28
 70
     1
102
RTVSPropertyOp29
 70
     1
102
RTVSPropertyOp30
 70
     1
102
RTVSPropertyOp31
 70
     1
102
RTVSPropertyOp32
 70
     1
102
RTVSPropertyOp33
 70
     1
102
RTVSPropertyOp34
 70
     1
102
RTVSPropertyOp35
 70
     1
102
RTVSPropertyOp36
 70
     1
102
RTVSPropertyOp37
 70
     1
102
RTVSPropertyOp38
 70
     1
102
RTVSPropertyOp39
 70
     1
102
RTVSPropertyOp40
 70
     1
102
RTVSPropertyOp41
 70
     1
102
RTVSPropertyOp42
 70
     1
102
RTVSPropertyOp43
 70
     1
102
RTVSPropertyOp44
 70
     1
102
RTVSPropertyOp45
 70
     1
102
RTVSPropertyOp46
 70
     1
102
RTVSPropertyOp47
 70
     1
102
RTVSPropertyOp48
 70
     1
102
RTVSPropertyOp49
 70
     1
102
RTVSPropertyOp50
 70
     1
102
RTVSPropertyOp51
 70
     0
102
RTVSPropertyOp52
 70
     0
102
RTVSPropertyOp53
 70
     1
102
RTVSPropertyOp54
 70
     1
102
RTVSPropertyOp55
 70
     1
102
RTVSPropertyOp56
 70
     1
102
RTVSPropertyOp57
 70
     1
102
RTVSPost2010Prop28
280
     0
102
RTVSPost2010PropOp28
 70
     1
102
RTVSPost2010Prop29
280
     1
102
RTVSPost2010PropOp29
 70
     1
102
RTVSPost2010Prop30
280
     1
102
RTVSPost2010PropOp30
 70
     1
102
RTVSPost2010Prop31
280
     0
102
RTVSPost2010PropOp31
 70
     1
102
RTVSPost2010Prop32
280
     0
102
RTVSPost2010PropOp32
 70
     1
102
RTVSPost2010Prop33
280
     0
102
RTVSPost2010PropOp33
 70
     1
102
RTVSPost2010Prop34
280
     0
102
RTVSPost2010PropOp34
 70
     1
102
RTVSPost2010Prop35
280
     0
102
RTVSPost2010PropOp35
 70
     1
102
RTVSPost2010Prop36
280
     0
102
RTVSPost2010PropOp36
 70
     1
102
RTVSPost2010Prop37
 90
       50
102
RTVSPost2010PropOp37
 70
     1
102
RTVSPost2010Prop38
140
0.0
102
RTVSPost2010PropOp38
 70
     1
102
RTVSPost2010Prop39
140
1.0
102
RTVSPost2010PropOp39
 70
     1
102
RTVSPost2010Prop40
 90
        0
102
RTVSPost2010PropOp40
 70
     1
102
RTVSPost2010Prop41ColorIndex
 90
       18
102
RTVSPost2010Prop41ColorRGB
 90
        0
102
RTVSPost2010PropOp41
 70
     1
102
RTVSPost2010Prop42
 90
       50
102
RTVSPost2010PropOp42
 70
     1
102
RTVSPost2010Prop43
 90
        3
102
RTVSPost2010PropOp43
 70
     1
102
RTVSPost2010Prop44ColorIndex
 90
        5
102
RTVSPost2010Prop44ColorRGB
 90
      255
102
RTVSPost2010PropOp44
 70
     1
102
RTVSPost2010Prop45
280
     0
102
RTVSPost2010PropOp45
 70
     1
102
RTVSPost2010Prop46
 90
       50
102
RTVSPost2010PropOp46
 70
     1
102
RTVSPost2010Prop47
 90
       50
102
RTVSPost2010PropOp47
 70
     1
102
RTVSPost2010Prop48
 90
       50
102
RTVSPost2010PropOp48
 70
     1
102
RTVSPost2010Prop49
280
     0
102
RTVSPost2010PropOp49
 70
     1
102
RTVSPost2010Prop50
 90
       50
102
RTVSPost2010PropOp50
 70
     1
102
RTVSPost2010Prop51ColorIndex
 90
      256
102
RTVSPost2010Prop51ColorRGB
 90
-16777216
102
RTVSPost2010PropOp51
 70
     0
102
RTVSPost2010Prop52
140
1.0
102
RTVSPost2010PropOp52
 70
     0
102
RTVSPost2010Prop53
 90
        2
102
RTVSPost2010PropOp53
 70
     1
102
RTVSPost2010Prop54
  1
strokes_ogs.tif
102
RTVSPost2010PropOp54
 70
     1
102
RTVSPost2010Prop55
280
     0
102
RTVSPost2010PropOp55
 70
     1
102
RTVSPost2010Prop56
140
1.0
102
RTVSPost2010PropOp56
 70
     1
102
RTVSPost2010Prop57
140
1.0
102
RTVSPost2010PropOp57
 70
     1
  0
XRECORD
  5
259
102
{ACAD_REACTORS
330
258
102
}
330
258
100
AcDbXrecord
280
     1
102
RTVSPropertyOp0
 70
     1
102
RTVSPropertyOp1
 70
     1
102
RTVSPropertyOp2
 70
     1
102
RTVSPropertyOp3
 70
     1
102
RTVSPropertyOp4
 70
     1
102
RTVSPropertyOp5
 70
     1
102
RTVSPropertyOp6
 70
     1
102
RTVSPropertyOp7
 70
     1
102
RTVSPropertyOp8
 70
     1
102
RTVSPropertyOp9
 70
     1
102
RTVSPropertyOp10
 70
     1
102
RTVSPropertyOp11
 70
     1
102
RTVSPropertyOp12
 70
     1
102
RTVSPropertyOp13
 70
     1
102
RTVSPropertyOp14
 70
     1
102
RTVSPropertyOp15
 70
     1
102
RTVSPropertyOp16
 70
     1
102
RTVSPropertyOp17
 70
     1
102
RTVSPropertyOp18
 70
     1
102
RTVSPropertyOp19
 70
     1
102
RTVSPropertyOp20
 70
     1
102
RTVSPropertyOp21
 70
     1
102
RTVSPropertyOp22
 70
     1
102
RTVSPropertyOp23
 70
     1
102
RTVSPropertyOp24
 70
     1
102
RTVSPropertyOp25
 70
     1
102
RTVSPropertyOp26
 70
     1
102
RTVSPropertyOp27
 70
     1
102
RTVSPropertyOp28
 70
     1
102
RTVSPropertyOp29
 70
     1
102
RTVSPropertyOp30
 70
     1
102
RTVSPropertyOp31
 70
     1
102
RTVSPropertyOp32
 70
     1
102
RTVSPropertyOp33
 70
     1
102
RTVSPropertyOp34
 70
     1
102
RTVSPropertyOp35
 70
     1
102
RTVSPropertyOp36
 70
     1
102
RTVSPropertyOp37
 70
     1
102
RTVSPropertyOp38
 70
     1
102
RTVSPropertyOp39
 70
     1
102
RTVSPropertyOp40
 70
     1
102
RTVSPropertyOp41
 70
     1
102
RTVSPropertyOp42
 70
     1
102
RTVSPropertyOp43
 70
     1
102
RTVSPropertyOp44
 70
     1
102
RTVSPropertyOp45
 70
     1
102
RTVSPropertyOp46
 70
     1
102
RTVSPropertyOp47
 70
     1
102
RTVSPropertyOp48
 70
     1
102
RTVSPropertyOp49
 70
     1
102
RTVSPropertyOp50
 70
     1
102
RTVSPropertyOp51
 70
     0
102
RTVSPropertyOp52
 70
     0
102
RTVSPropertyOp53
 70
     1
102
RTVSPropertyOp54
 70
     1
102
RTVSPropertyOp55
 70
     1
102
RTVSPropertyOp56
 70
     1
102
RTVSPropertyOp57
 70
     1
102
RTVSPost2010Prop28
280
     0
102
RTVSPost2010PropOp28
 70
     1
102
RTVSPost2010Prop29
280
     1
102
RTVSPost2010PropOp29
 70
     1
102
RTVSPost2010Prop30
280
     1
102
RTVSPost2010PropOp30
 70
     1
102
RTVSPost2010Prop31
280
     0
102
RTVSPost2010PropOp31
 70
     1
102
RTVSPost2010Prop32
280
     0
102
RTVSPost2010PropOp32
 70
     1
102
RTVSPost2010Prop33
280
     0
102
RTVSPost2010PropOp33
 70
     1
102
RTVSPost2010Prop34
280
     0
102
RTVSPost2010PropOp34
 70
     1
102
RTVSPost2010Prop35
280
     0
102
RTVSPost2010PropOp35
 70
     1
102
RTVSPost2010Prop36
280
     0
102
RTVSPost2010PropOp36
 70
     1
102
RTVSPost2010Prop37
 90
       50
102
RTVSPost2010PropOp37
 70
     1
102
RTVSPost2010Prop38
140
0.0
102
RTVSPost2010PropOp38
 70
     1
102
RTVSPost2010Prop39
140
1.0
102
RTVSPost2010PropOp39
 70
     1
102
RTVSPost2010Prop40
 90
        0
102
RTVSPost2010PropOp40
 70
     1
102
RTVSPost2010Prop41ColorIndex
 90
       18
102
RTVSPost2010Prop41ColorRGB
 90
        0
102
RTVSPost2010PropOp41
 70
     1
102
RTVSPost2010Prop42
 90
       50
102
RTVSPost2010PropOp42
 70
     1
102
RTVSPost2010Prop43
 90
        3
102
RTVSPost2010PropOp43
 70
     1
102
RTVSPost2010Prop44ColorIndex
 90
        5
102
RTVSPost2010Prop44ColorRGB
 90
      255
102
RTVSPost2010PropOp44
 70
     1
102
RTVSPost2010Prop45
280
     0
102
RTVSPost2010PropOp45
 70
     1
102
RTVSPost2010Prop46
 90
       50
102
RTVSPost2010PropOp46
 70
     1
102
RTVSPost2010Prop47
 90
       50
102
RTVSPost2010PropOp47
 70
     1
102
RTVSPost2010Prop48
 90
       50
102
RTVSPost2010PropOp48
 70
     1
102
RTVSPost2010Prop49
280
     0
102
RTVSPost2010PropOp49
 70
     1
102
RTVSPost2010Prop50
 90
       50
102
RTVSPost2010PropOp50
 70
     1
102
RTVSPost2010Prop51ColorIndex
 90
      256
102
RTVSPost2010Prop51ColorRGB
 90
-16777216
102
RTVSPost2010PropOp51
 70
     0
102
RTVSPost2010Prop52
140
1.0
102
RTVSPost2010PropOp52
 70
     0
102
RTVSPost2010Prop53
 90
        2
102
RTVSPost2010PropOp53
 70
     1
102
RTVSPost2010Prop54
  1
strokes_ogs.tif
102
RTVSPost2010PropOp54
 70
     1
102
RTVSPost2010Prop55
280
     0
102
RTVSPost2010PropOp55
 70
     1
102
RTVSPost2010Prop56
140
1.0
102
RTVSPost2010PropOp56
 70
     1
102
RTVSPost2010Prop57
140
1.0
102
RTVSPost2010PropOp57
 70
     1
  0
XRECORD
  5
25F
102
{ACAD_REACTORS
330
25E
102
}
330
25E
100
AcDbXrecord
280
     1
102
RTVSPropertyOp0
 70
     1
102
RTVSPropertyOp1
 70
     1
102
RTVSPropertyOp2
 70
     1
102
RTVSPropertyOp3
 70
     1
102
RTVSPropertyOp4
 70
     1
102
RTVSPropertyOp5
 70
     1
102
RTVSPropertyOp6
 70
     1
102
RTVSPropertyOp7
 70
     1
102
RTVSPropertyOp8
 70
     1
102
RTVSPropertyOp9
 70
     1
102
RTVSPropertyOp10
 70
     1
102
RTVSPropertyOp11
 70
     1
102
RTVSPropertyOp12
 70
     1
102
RTVSPropertyOp13
 70
     1
102
RTVSPropertyOp14
 70
     1
102
RTVSPropertyOp15
 70
     1
102
RTVSPropertyOp16
 70
     1
102
RTVSPropertyOp17
 70
     1
102
RTVSPropertyOp18
 70
     1
102
RTVSPropertyOp19
 70
     1
102
RTVSPropertyOp20
 70
     1
102
RTVSPropertyOp21
 70
     1
102
RTVSPropertyOp22
 70
     1
102
RTVSPropertyOp23
 70
     1
102
RTVSPropertyOp24
 70
     1
102
RTVSPropertyOp25
 70
     1
102
RTVSPropertyOp26
 70
     1
102
RTVSPropertyOp27
 70
     1
102
RTVSPropertyOp28
 70
     1
102
RTVSPropertyOp29
 70
     1
102
RTVSPropertyOp30
 70
     1
102
RTVSPropertyOp31
 70
     1
102
RTVSPropertyOp32
 70
     1
102
RTVSPropertyOp33
 70
     1
102
RTVSPropertyOp34
 70
     1
102
RTVSPropertyOp35
 70
     1
102
RTVSPropertyOp36
 70
     1
102
RTVSPropertyOp37
 70
     1
102
RTVSPropertyOp38
 70
     1
102
RTVSPropertyOp39
 70
     1
102
RTVSPropertyOp40
 70
     1
102
RTVSPropertyOp41
 70
     1
102
RTVSPropertyOp42
 70
     1
102
RTVSPropertyOp43
 70
     1
102
RTVSPropertyOp44
 70
     1
102
RTVSPropertyOp45
 70
     1
102
RTVSPropertyOp46
 70
     1
102
RTVSPropertyOp47
 70
     1
102
RTVSPropertyOp48
 70
     1
102
RTVSPropertyOp49
 70
     1
102
RTVSPropertyOp50
 70
     1
102
RTVSPropertyOp51
 70
     0
102
RTVSPropertyOp52
 70
     0
102
RTVSPropertyOp53
 70
     1
102
RTVSPropertyOp54
 70
     1
102
RTVSPropertyOp55
 70
     1
102
RTVSPropertyOp56
 70
     1
102
RTVSPropertyOp57
 70
     1
102
RTVSPost2010Prop28
280
     0
102
RTVSPost2010PropOp28
 70
     1
102
RTVSPost2010Prop29
280
     1
102
RTVSPost2010PropOp29
 70
     1
102
RTVSPost2010Prop30
280
     1
102
RTVSPost2010PropOp30
 70
     1
102
RTVSPost2010Prop31
280
     0
102
RTVSPost2010PropOp31
 70
     1
102
RTVSPost2010Prop32
280
     0
102
RTVSPost2010PropOp32
 70
     1
102
RTVSPost2010Prop33
280
     0
102
RTVSPost2010PropOp33
 70
     1
102
RTVSPost2010Prop34
280
     0
102
RTVSPost2010PropOp34
 70
     1
102
RTVSPost2010Prop35
280
     0
102
RTVSPost2010PropOp35
 70
     1
102
RTVSPost2010Prop36
280
     0
102
RTVSPost2010PropOp36
 70
     1
102
RTVSPost2010Prop37
 90
       50
102
RTVSPost2010PropOp37
 70
     1
102
RTVSPost2010Prop38
140
0.0
102
RTVSPost2010PropOp38
 70
     1
102
RTVSPost2010Prop39
140
1.0
102
RTVSPost2010PropOp39
 70
     1
102
RTVSPost2010Prop40
 90
        0
102
RTVSPost2010PropOp40
 70
     1
102
RTVSPost2010Prop41ColorIndex
 90
       18
102
RTVSPost2010Prop41ColorRGB
 90
        0
102
RTVSPost2010PropOp41
 70
     1
102
RTVSPost2010Prop42
 90
       50
102
RTVSPost2010PropOp42
 70
     1
102
RTVSPost2010Prop43
 90
        3
102
RTVSPost2010PropOp43
 70
     1
102
RTVSPost2010Prop44ColorIndex
 90
        5
102
RTVSPost2010Prop44ColorRGB
 90
      255
102
RTVSPost2010PropOp44
 70
     1
102
RTVSPost2010Prop45
280
     0
102
RTVSPost2010PropOp45
 70
     1
102
RTVSPost2010Prop46
 90
       50
102
RTVSPost2010PropOp46
 70
     1
102
RTVSPost2010Prop47
 90
       50
102
RTVSPost2010PropOp47
 70
     1
102
RTVSPost2010Prop48
 90
       50
102
RTVSPost2010PropOp48
 70
     1
102
RTVSPost2010Prop49
280
     0
102
RTVSPost2010PropOp49
 70
     1
102
RTVSPost2010Prop50
 90
       50
102
RTVSPost2010PropOp50
 70
     1
102
RTVSPost2010Prop51ColorIndex
 90
      256
102
RTVSPost2010Prop51ColorRGB
 90
-16777216
102
RTVSPost2010PropOp51
 70
     0
102
RTVSPost2010Prop52
140
1.0
102
RTVSPost2010PropOp52
 70
     0
102
RTVSPost2010Prop53
 90
        2
102
RTVSPost2010PropOp53
 70
     1
102
RTVSPost2010Prop54
  1
strokes_ogs.tif
102
RTVSPost2010PropOp54
 70
     1
102
RTVSPost2010Prop55
280
     0
102
RTVSPost2010PropOp55
 70
     1
102
RTVSPost2010Prop56
140
1.0
102
RTVSPost2010PropOp56
 70
     1
102
RTVSPost2010Prop57
140
1.0
102
RTVSPost2010PropOp57
 70
     1
  0
XRECORD
  5
273
102
{ACAD_REACTORS
330
272
102
}
330
272
100
AcDbXrecord
280
     1
102
RTVSPropertyOp0
 70
     0
102
RTVSPropertyOp1
 70
     0
102
RTVSPropertyOp2
 70
     0
102
RTVSPropertyOp3
 70
     0
102
RTVSPropertyOp4
 70
     0
102
RTVSPropertyOp5
 70
     0
102
RTVSPropertyOp6
 70
     0
102
RTVSPropertyOp7
 70
     0
102
RTVSPropertyOp8
 70
     0
102
RTVSPropertyOp9
 70
     0
102
RTVSPropertyOp10
 70
     0
102
RTVSPropertyOp11
 70
     0
102
RTVSPropertyOp12
 70
     0
102
RTVSPropertyOp13
 70
     0
102
RTVSPropertyOp14
 70
     2
102
RTVSPropertyOp15
 70
     0
102
RTVSPropertyOp16
 70
     0
102
RTVSPropertyOp17
 70
     0
102
RTVSPropertyOp18
 70
     0
102
RTVSPropertyOp19
 70
     0
102
RTVSPropertyOp20
 70
     0
102
RTVSPropertyOp21
 70
     0
102
RTVSPropertyOp22
 70
     0
102
RTVSPropertyOp23
 70
     0
102
RTVSPropertyOp24
 70
     0
102
RTVSPropertyOp25
 70
     0
102
RTVSPropertyOp26
 70
     0
102
RTVSPropertyOp27
 70
     0
102
RTVSPropertyOp28
 70
     0
102
RTVSPropertyOp29
 70
     0
102
RTVSPropertyOp30
 70
     0
102
RTVSPropertyOp31
 70
     0
102
RTVSPropertyOp32
 70
     0
102
RTVSPropertyOp33
 70
     0
102
RTVSPropertyOp34
 70
     0
102
RTVSPropertyOp35
 70
     0
102
RTVSPropertyOp36
 70
     0
102
RTVSPropertyOp37
 70
     0
102
RTVSPropertyOp38
 70
     0
102
RTVSPropertyOp39
 70
     0
102
RTVSPropertyOp40
 70
     0
102
RTVSPropertyOp41
 70
     0
102
RTVSPropertyOp42
 70
     0
102
RTVSPropertyOp43
 70
     0
102
RTVSPropertyOp44
 70
     0
102
RTVSPropertyOp45
 70
     0
102
RTVSPropertyOp46
 70
     0
102
RTVSPropertyOp47
 70
     0
102
RTVSPropertyOp48
 70
     0
102
RTVSPropertyOp49
 70
     0
102
RTVSPropertyOp50
 70
     0
102
RTVSPropertyOp51
 70
     0
102
RTVSPropertyOp52
 70
     0
102
RTVSPropertyOp53
 70
     0
102
RTVSPropertyOp54
 70
     0
102
RTVSPropertyOp55
 70
     0
102
RTVSPropertyOp56
 70
     0
102
RTVSPropertyOp57
 70
     0
102
RTVSPost2010Prop28
280
     0
102
RTVSPost2010PropOp28
 70
     0
102
RTVSPost2010Prop29
280
     1
102
RTVSPost2010PropOp29
 70
     0
102
RTVSPost2010Prop30
280
     1
102
RTVSPost2010PropOp30
 70
     0
102
RTVSPost2010Prop31
280
     0
102
RTVSPost2010PropOp31
 70
     0
102
RTVSPost2010Prop32
280
     0
102
RTVSPost2010PropOp32
 70
     0
102
RTVSPost2010Prop33
280
     0
102
RTVSPost2010PropOp33
 70
     0
102
RTVSPost2010Prop34
280
     0
102
RTVSPost2010PropOp34
 70
     0
102
RTVSPost2010Prop35
280
     0
102
RTVSPost2010PropOp35
 70
     0
102
RTVSPost2010Prop36
280
     0
102
RTVSPost2010PropOp36
 70
     0
102
RTVSPost2010Prop37
 90
       50
102
RTVSPost2010PropOp37
 70
     0
102
RTVSPost2010Prop38
140
0.0
102
RTVSPost2010PropOp38
 70
     0
102
RTVSPost2010Prop39
140
1.0
102
RTVSPost2010PropOp39
 70
     0
102
RTVSPost2010Prop40
 90
        0
102
RTVSPost2010PropOp40
 70
     0
102
RTVSPost2010Prop41ColorIndex
 90
       18
102
RTVSPost2010Prop41ColorRGB
 90
        0
102
RTVSPost2010PropOp41
 70
     0
102
RTVSPost2010Prop42
 90
       50
102
RTVSPost2010PropOp42
 70
     0
102
RTVSPost2010Prop43
 90
        3
102
RTVSPost2010PropOp43
 70
     0
102
RTVSPost2010Prop44ColorIndex
 90
        5
102
RTVSPost2010Prop44ColorRGB
 90
      255
102
RTVSPost2010PropOp44
 70
     0
102
RTVSPost2010Prop45
280
     0
102
RTVSPost2010PropOp45
 70
     0
102
RTVSPost2010Prop46
 90
       50
102
RTVSPost2010PropOp46
 70
     0
102
RTVSPost2010Prop47
 90
       50
102
RTVSPost2010PropOp47
 70
     0
102
RTVSPost2010Prop48
 90
       50
102
RTVSPost2010PropOp48
 70
     0
102
RTVSPost2010Prop49
280
     0
102
RTVSPost2010PropOp49
 70
     0
102
RTVSPost2010Prop50
 90
       50
102
RTVSPost2010PropOp50
 70
     0
102
RTVSPost2010Prop51ColorIndex
 90
      256
102
RTVSPost2010Prop51ColorRGB
 90
-16777216
102
RTVSPost2010PropOp51
 70
     0
102
RTVSPost2010Prop52
140
1.0
102
RTVSPost2010PropOp52
 70
     0
102
RTVSPost2010Prop53
 90
        2
102
RTVSPost2010PropOp53
 70
     0
102
RTVSPost2010Prop54
  1
strokes_ogs.tif
102
RTVSPost2010PropOp54
 70
     0
102
RTVSPost2010Prop55
280
     0
102
RTVSPost2010PropOp55
 70
     0
102
RTVSPost2010Prop56
140
1.0
102
RTVSPost2010PropOp56
 70
     0
102
RTVSPost2010Prop57
140
1.0
102
RTVSPost2010PropOp57
 70
     0
  0
XRECORD
  5
26D
102
{ACAD_REACTORS
330
26C
102
}
330
26C
100
AcDbXrecord
280
     1
102
RTVSPropertyOp0
 70
     1
102
RTVSPropertyOp1
 70
     1
102
RTVSPropertyOp2
 70
     1
102
RTVSPropertyOp3
 70
     1
102
RTVSPropertyOp4
 70
     1
102
RTVSPropertyOp5
 70
     1
102
RTVSPropertyOp6
 70
     1
102
RTVSPropertyOp7
 70
     1
102
RTVSPropertyOp8
 70
     1
102
RTVSPropertyOp9
 70
     1
102
RTVSPropertyOp10
 70
     1
102
RTVSPropertyOp11
 70
     1
102
RTVSPropertyOp12
 70
     1
102
RTVSPropertyOp13
 70
     1
102
RTVSPropertyOp14
 70
     1
102
RTVSPropertyOp15
 70
     1
102
RTVSPropertyOp16
 70
     1
102
RTVSPropertyOp17
 70
     1
102
RTVSPropertyOp18
 70
     1
102
RTVSPropertyOp19
 70
     1
102
RTVSPropertyOp20
 70
     1
102
RTVSPropertyOp21
 70
     1
102
RTVSPropertyOp22
 70
     1
102
RTVSPropertyOp23
 70
     1
102
RTVSPropertyOp24
 70
     1
102
RTVSPropertyOp25
 70
     1
102
RTVSPropertyOp26
 70
     1
102
RTVSPropertyOp27
 70
     1
102
RTVSPropertyOp28
 70
     1
102
RTVSPropertyOp29
 70
     1
102
RTVSPropertyOp30
 70
     1
102
RTVSPropertyOp31
 70
     1
102
RTVSPropertyOp32
 70
     1
102
RTVSPropertyOp33
 70
     1
102
RTVSPropertyOp34
 70
     1
102
RTVSPropertyOp35
 70
     1
102
RTVSPropertyOp36
 70
     1
102
RTVSPropertyOp37
 70
     1
102
RTVSPropertyOp38
 70
     1
102
RTVSPropertyOp39
 70
     1
102
RTVSPropertyOp40
 70
     1
102
RTVSPropertyOp41
 70
     1
102
RTVSPropertyOp42
 70
     1
102
RTVSPropertyOp43
 70
     1
102
RTVSPropertyOp44
 70
     1
102
RTVSPropertyOp45
 70
     1
102
RTVSPropertyOp46
 70
     1
102
RTVSPropertyOp47
 70
     1
102
RTVSPropertyOp48
 70
     1
102
RTVSPropertyOp49
 70
     1
102
RTVSPropertyOp50
 70
     1
102
RTVSPropertyOp51
 70
     0
102
RTVSPropertyOp52
 70
     0
102
RTVSPropertyOp53
 70
     1
102
RTVSPropertyOp54
 70
     1
102
RTVSPropertyOp55
 70
     1
102
RTVSPropertyOp56
 70
     1
102
RTVSPropertyOp57
 70
     1
102
RTVSPost2010Prop28
280
     0
102
RTVSPost2010PropOp28
 70
     1
102
RTVSPost2010Prop29
280
     1
102
RTVSPost2010PropOp29
 70
     1
102
RTVSPost2010Prop30
280
     1
102
RTVSPost2010PropOp30
 70
     1
102
RTVSPost2010Prop31
280
     0
102
RTVSPost2010PropOp31
 70
     1
102
RTVSPost2010Prop32
280
     0
102
RTVSPost2010PropOp32
 70
     1
102
RTVSPost2010Prop33
280
     0
102
RTVSPost2010PropOp33
 70
     1
102
RTVSPost2010Prop34
280
     0
102
RTVSPost2010PropOp34
 70
     1
102
RTVSPost2010Prop35
280
     0
102
RTVSPost2010PropOp35
 70
     1
102
RTVSPost2010Prop36
280
     0
102
RTVSPost2010PropOp36
 70
     1
102
RTVSPost2010Prop37
 90
       50
102
RTVSPost2010PropOp37
 70
     1
102
RTVSPost2010Prop38
140
0.0
102
RTVSPost2010PropOp38
 70
     1
102
RTVSPost2010Prop39
140
1.0
102
RTVSPost2010PropOp39
 70
     1
102
RTVSPost2010Prop40
 90
        0
102
RTVSPost2010PropOp40
 70
     1
102
RTVSPost2010Prop41ColorIndex
 90
       18
102
RTVSPost2010Prop41ColorRGB
 90
        0
102
RTVSPost2010PropOp41
 70
     1
102
RTVSPost2010Prop42
 90
       50
102
RTVSPost2010PropOp42
 70
     1
102
RTVSPost2010Prop43
 90
        3
102
RTVSPost2010PropOp43
 70
     1
102
RTVSPost2010Prop44ColorIndex
 90
        5
102
RTVSPost2010Prop44ColorRGB
 90
      255
102
RTVSPost2010PropOp44
 70
     1
102
RTVSPost2010Prop45
280
     0
102
RTVSPost2010PropOp45
 70
     1
102
RTVSPost2010Prop46
 90
       50
102
RTVSPost2010PropOp46
 70
     1
102
RTVSPost2010Prop47
 90
       50
102
RTVSPost2010PropOp47
 70
     1
102
RTVSPost2010Prop48
 90
       50
102
RTVSPost2010PropOp48
 70
     1
102
RTVSPost2010Prop49
280
     0
102
RTVSPost2010PropOp49
 70
     1
102
RTVSPost2010Prop50
 90
       50
102
RTVSPost2010PropOp50
 70
     1
102
RTVSPost2010Prop51ColorIndex
 90
      256
102
RTVSPost2010Prop51ColorRGB
 90
-16777216
102
RTVSPost2010PropOp51
 70
     0
102
RTVSPost2010Prop52
140
1.0
102
RTVSPost2010PropOp52
 70
     0
102
RTVSPost2010Prop53
 90
        2
102
RTVSPost2010PropOp53
 70
     1
102
RTVSPost2010Prop54
  1
strokes_ogs.tif
102
RTVSPost2010PropOp54
 70
     1
102
RTVSPost2010Prop55
280
     0
102
RTVSPost2010PropOp55
 70
     1
102
RTVSPost2010Prop56
140
1.0
102
RTVSPost2010PropOp56
 70
     1
102
RTVSPost2010Prop57
140
1.0
102
RTVSPost2010PropOp57
 70
     1
  0
XRECORD
  5
275
102
{ACAD_REACTORS
330
274
102
}
330
274
100
AcDbXrecord
280
     1
102
RTVSPropertyOp0
 70
     0
102
RTVSPropertyOp1
 70
     0
102
RTVSPropertyOp2
 70
     0
102
RTVSPropertyOp3
 70
     0
102
RTVSPropertyOp4
 70
     0
102
RTVSPropertyOp5
 70
     0
102
RTVSPropertyOp6
 70
     0
102
RTVSPropertyOp7
 70
     0
102
RTVSPropertyOp8
 70
     0
102
RTVSPropertyOp9
 70
     0
102
RTVSPropertyOp10
 70
     0
102
RTVSPropertyOp11
 70
     0
102
RTVSPropertyOp12
 70
     0
102
RTVSPropertyOp13
 70
     0
102
RTVSPropertyOp14
 70
     2
102
RTVSPropertyOp15
 70
     0
102
RTVSPropertyOp16
 70
     0
102
RTVSPropertyOp17
 70
     0
102
RTVSPropertyOp18
 70
     0
102
RTVSPropertyOp19
 70
     0
102
RTVSPropertyOp20
 70
     0
102
RTVSPropertyOp21
 70
     0
102
RTVSPropertyOp22
 70
     0
102
RTVSPropertyOp23
 70
     0
102
RTVSPropertyOp24
 70
     0
102
RTVSPropertyOp25
 70
     0
102
RTVSPropertyOp26
 70
     0
102
RTVSPropertyOp27
 70
     0
102
RTVSPropertyOp28
 70
     0
102
RTVSPropertyOp29
 70
     0
102
RTVSPropertyOp30
 70
     0
102
RTVSPropertyOp31
 70
     0
102
RTVSPropertyOp32
 70
     0
102
RTVSPropertyOp33
 70
     0
102
RTVSPropertyOp34
 70
     0
102
RTVSPropertyOp35
 70
     0
102
RTVSPropertyOp36
 70
     0
102
RTVSPropertyOp37
 70
     0
102
RTVSPropertyOp38
 70
     0
102
RTVSPropertyOp39
 70
     0
102
RTVSPropertyOp40
 70
     0
102
RTVSPropertyOp41
 70
     0
102
RTVSPropertyOp42
 70
     0
102
RTVSPropertyOp43
 70
     0
102
RTVSPropertyOp44
 70
     0
102
RTVSPropertyOp45
 70
     0
102
RTVSPropertyOp46
 70
     0
102
RTVSPropertyOp47
 70
     0
102
RTVSPropertyOp48
 70
     0
102
RTVSPropertyOp49
 70
     0
102
RTVSPropertyOp50
 70
     0
102
RTVSPropertyOp51
 70
     0
102
RTVSPropertyOp52
 70
     0
102
RTVSPropertyOp53
 70
     0
102
RTVSPropertyOp54
 70
     0
102
RTVSPropertyOp55
 70
     0
102
RTVSPropertyOp56
 70
     0
102
RTVSPropertyOp57
 70
     0
102
RTVSPost2010Prop28
280
     0
102
RTVSPost2010PropOp28
 70
     0
102
RTVSPost2010Prop29
280
     1
102
RTVSPost2010PropOp29
 70
     0
102
RTVSPost2010Prop30
280
     1
102
RTVSPost2010PropOp30
 70
     0
102
RTVSPost2010Prop31
280
     0
102
RTVSPost2010PropOp31
 70
     0
102
RTVSPost2010Prop32
280
     0
102
RTVSPost2010PropOp32
 70
     0
102
RTVSPost2010Prop33
280
     0
102
RTVSPost2010PropOp33
 70
     0
102
RTVSPost2010Prop34
280
     0
102
RTVSPost2010PropOp34
 70
     0
102
RTVSPost2010Prop35
280
     0
102
RTVSPost2010PropOp35
 70
     0
102
RTVSPost2010Prop36
280
     0
102
RTVSPost2010PropOp36
 70
     0
102
RTVSPost2010Prop37
 90
       50
102
RTVSPost2010PropOp37
 70
     0
102
RTVSPost2010Prop38
140
0.0
102
RTVSPost2010PropOp38
 70
     0
102
RTVSPost2010Prop39
140
1.0
102
RTVSPost2010PropOp39
 70
     0
102
RTVSPost2010Prop40
 90
        0
102
RTVSPost2010PropOp40
 70
     0
102
RTVSPost2010Prop41ColorIndex
 90
       18
102
RTVSPost2010Prop41ColorRGB
 90
        0
102
RTVSPost2010PropOp41
 70
     0
102
RTVSPost2010Prop42
 90
       50
102
RTVSPost2010PropOp42
 70
     0
102
RTVSPost2010Prop43
 90
        3
102
RTVSPost2010PropOp43
 70
     0
102
RTVSPost2010Prop44ColorIndex
 90
        5
102
RTVSPost2010Prop44ColorRGB
 90
      255
102
RTVSPost2010PropOp44
 70
     0
102
RTVSPost2010Prop45
280
     0
102
RTVSPost2010PropOp45
 70
     0
102
RTVSPost2010Prop46
 90
       50
102
RTVSPost2010PropOp46
 70
     0
102
RTVSPost2010Prop47
 90
       50
102
RTVSPost2010PropOp47
 70
     0
102
RTVSPost2010Prop48
 90
       50
102
RTVSPost2010PropOp48
 70
     0
102
RTVSPost2010Prop49
280
     0
102
RTVSPost2010PropOp49
 70
     0
102
RTVSPost2010Prop50
 90
       50
102
RTVSPost2010PropOp50
 70
     0
102
RTVSPost2010Prop51ColorIndex
 90
      256
102
RTVSPost2010Prop51ColorRGB
 90
-16777216
102
RTVSPost2010PropOp51
 70
     0
102
RTVSPost2010Prop52
140
1.0
102
RTVSPost2010PropOp52
 70
     0
102
RTVSPost2010Prop53
 90
        2
102
RTVSPost2010PropOp53
 70
     0
102
RTVSPost2010Prop54
  1
strokes_ogs.tif
102
RTVSPost2010PropOp54
 70
     0
102
RTVSPost2010Prop55
280
     0
102
RTVSPost2010PropOp55
 70
     0
102
RTVSPost2010Prop56
140
1.0
102
RTVSPost2010PropOp56
 70
     0
102
RTVSPost2010Prop57
140
1.0
102
RTVSPost2010PropOp57
 70
     0
  0
XRECORD
  5
263
102
{ACAD_REACTORS
330
262
102
}
330
262
100
AcDbXrecord
280
     1
102
RTVSPropertyOp0
 70
     1
102
RTVSPropertyOp1
 70
     1
102
RTVSPropertyOp2
 70
     1
102
RTVSPropertyOp3
 70
     1
102
RTVSPropertyOp4
 70
     1
102
RTVSPropertyOp5
 70
     1
102
RTVSPropertyOp6
 70
     1
102
RTVSPropertyOp7
 70
     1
102
RTVSPropertyOp8
 70
     1
102
RTVSPropertyOp9
 70
     1
102
RTVSPropertyOp10
 70
     1
102
RTVSPropertyOp11
 70
     1
102
RTVSPropertyOp12
 70
     1
102
RTVSPropertyOp13
 70
     1
102
RTVSPropertyOp14
 70
     1
102
RTVSPropertyOp15
 70
     1
102
RTVSPropertyOp16
 70
     1
102
RTVSPropertyOp17
 70
     1
102
RTVSPropertyOp18
 70
     1
102
RTVSPropertyOp19
 70
     1
102
RTVSPropertyOp20
 70
     1
102
RTVSPropertyOp21
 70
     1
102
RTVSPropertyOp22
 70
     1
102
RTVSPropertyOp23
 70
     1
102
RTVSPropertyOp24
 70
     1
102
RTVSPropertyOp25
 70
     1
102
RTVSPropertyOp26
 70
     1
102
RTVSPropertyOp27
 70
     1
102
RTVSPropertyOp28
 70
     1
102
RTVSPropertyOp29
 70
     1
102
RTVSPropertyOp30
 70
     1
102
RTVSPropertyOp31
 70
     1
102
RTVSPropertyOp32
 70
     1
102
RTVSPropertyOp33
 70
     1
102
RTVSPropertyOp34
 70
     1
102
RTVSPropertyOp35
 70
     1
102
RTVSPropertyOp36
 70
     1
102
RTVSPropertyOp37
 70
     1
102
RTVSPropertyOp38
 70
     1
102
RTVSPropertyOp39
 70
     1
102
RTVSPropertyOp40
 70
     1
102
RTVSPropertyOp41
 70
     1
102
RTVSPropertyOp42
 70
     1
102
RTVSPropertyOp43
 70
     1
102
RTVSPropertyOp44
 70
     1
102
RTVSPropertyOp45
 70
     1
102
RTVSPropertyOp46
 70
     1
102
RTVSPropertyOp47
 70
     1
102
RTVSPropertyOp48
 70
     1
102
RTVSPropertyOp49
 70
     1
102
RTVSPropertyOp50
 70
     1
102
RTVSPropertyOp51
 70
     0
102
RTVSPropertyOp52
 70
     0
102
RTVSPropertyOp53
 70
     1
102
RTVSPropertyOp54
 70
     1
102
RTVSPropertyOp55
 70
     1
102
RTVSPropertyOp56
 70
     1
102
RTVSPropertyOp57
 70
     1
102
RTVSPost2010Prop28
280
     0
102
RTVSPost2010PropOp28
 70
     1
102
RTVSPost2010Prop29
280
     1
102
RTVSPost2010PropOp29
 70
     1
102
RTVSPost2010Prop30
280
     1
102
RTVSPost2010PropOp30
 70
     1
102
RTVSPost2010Prop31
280
     0
102
RTVSPost2010PropOp31
 70
     1
102
RTVSPost2010Prop32
280
     0
102
RTVSPost2010PropOp32
 70
     1
102
RTVSPost2010Prop33
280
     0
102
RTVSPost2010PropOp33
 70
     1
102
RTVSPost2010Prop34
280
     0
102
RTVSPost2010PropOp34
 70
     1
102
RTVSPost2010Prop35
280
     0
102
RTVSPost2010PropOp35
 70
     1
102
RTVSPost2010Prop36
280
     0
102
RTVSPost2010PropOp36
 70
     1
102
RTVSPost2010Prop37
 90
       50
102
RTVSPost2010PropOp37
 70
     1
102
RTVSPost2010Prop38
140
0.0
102
RTVSPost2010PropOp38
 70
     1
102
RTVSPost2010Prop39
140
1.0
102
RTVSPost2010PropOp39
 70
     1
102
RTVSPost2010Prop40
 90
        0
102
RTVSPost2010PropOp40
 70
     1
102
RTVSPost2010Prop41ColorIndex
 90
       18
102
RTVSPost2010Prop41ColorRGB
 90
        0
102
RTVSPost2010PropOp41
 70
     1
102
RTVSPost2010Prop42
 90
       50
102
RTVSPost2010PropOp42
 70
     1
102
RTVSPost2010Prop43
 90
        3
102
RTVSPost2010PropOp43
 70
     1
102
RTVSPost2010Prop44ColorIndex
 90
        5
102
RTVSPost2010Prop44ColorRGB
 90
      255
102
RTVSPost2010PropOp44
 70
     1
102
RTVSPost2010Prop45
280
     0
102
RTVSPost2010PropOp45
 70
     1
102
RTVSPost2010Prop46
 90
       50
102
RTVSPost2010PropOp46
 70
     1
102
RTVSPost2010Prop47
 90
       50
102
RTVSPost2010PropOp47
 70
     1
102
RTVSPost2010Prop48
 90
       50
102
RTVSPost2010PropOp48
 70
     1
102
RTVSPost2010Prop49
280
     0
102
RTVSPost2010PropOp49
 70
     1
102
RTVSPost2010Prop50
 90
       50
102
RTVSPost2010PropOp50
 70
     1
102
RTVSPost2010Prop51ColorIndex
 90
      256
102
RTVSPost2010Prop51ColorRGB
 90
-16777216
102
RTVSPost2010PropOp51
 70
     0
102
RTVSPost2010Prop52
140
1.0
102
RTVSPost2010PropOp52
 70
     0
102
RTVSPost2010Prop53
 90
        2
102
RTVSPost2010PropOp53
 70
     1
102
RTVSPost2010Prop54
  1
strokes_ogs.tif
102
RTVSPost2010PropOp54
 70
     1
102
RTVSPost2010Prop55
280
     0
102
RTVSPost2010PropOp55
 70
     1
102
RTVSPost2010Prop56
140
1.0
102
RTVSPost2010PropOp56
 70
     1
102
RTVSPost2010Prop57
140
1.0
102
RTVSPost2010PropOp57
 70
     1
  0
XRECORD
  5
281
102
{ACAD_REACTORS
330
280
102
}
330
280
100
AcDbXrecord
280
     1
102
RTVSPropertyOp0
 70
     1
102
RTVSPropertyOp1
 70
     1
102
RTVSPropertyOp2
 70
     1
102
RTVSPropertyOp3
 70
     1
102
RTVSPropertyOp4
 70
     1
102
RTVSPropertyOp5
 70
     1
102
RTVSPropertyOp6
 70
     1
102
RTVSPropertyOp7
 70
     1
102
RTVSPropertyOp8
 70
     1
102
RTVSPropertyOp9
 70
     1
102
RTVSPropertyOp10
 70
     1
102
RTVSPropertyOp11
 70
     1
102
RTVSPropertyOp12
 70
     1
102
RTVSPropertyOp13
 70
     1
102
RTVSPropertyOp14
 70
     1
102
RTVSPropertyOp15
 70
     1
102
RTVSPropertyOp16
 70
     1
102
RTVSPropertyOp17
 70
     1
102
RTVSPropertyOp18
 70
     1
102
RTVSPropertyOp19
 70
     1
102
RTVSPropertyOp20
 70
     1
102
RTVSPropertyOp21
 70
     1
102
RTVSPropertyOp22
 70
     1
102
RTVSPropertyOp23
 70
     1
102
RTVSPropertyOp24
 70
     1
102
RTVSPropertyOp25
 70
     1
102
RTVSPropertyOp26
 70
     1
102
RTVSPropertyOp27
 70
     1
102
RTVSPropertyOp28
 70
     1
102
RTVSPropertyOp29
 70
     1
102
RTVSPropertyOp30
 70
     1
102
RTVSPropertyOp31
 70
     1
102
RTVSPropertyOp32
 70
     1
102
RTVSPropertyOp33
 70
     1
102
RTVSPropertyOp34
 70
     1
102
RTVSPropertyOp35
 70
     1
102
RTVSPropertyOp36
 70
     1
102
RTVSPropertyOp37
 70
     1
102
RTVSPropertyOp38
 70
     1
102
RTVSPropertyOp39
 70
     1
102
RTVSPropertyOp40
 70
     1
102
RTVSPropertyOp41
 70
     1
102
RTVSPropertyOp42
 70
     1
102
RTVSPropertyOp43
 70
     1
102
RTVSPropertyOp44
 70
     1
102
RTVSPropertyOp45
 70
     1
102
RTVSPropertyOp46
 70
     1
102
RTVSPropertyOp47
 70
     1
102
RTVSPropertyOp48
 70
     1
102
RTVSPropertyOp49
 70
     1
102
RTVSPropertyOp50
 70
     1
102
RTVSPropertyOp51
 70
     0
102
RTVSPropertyOp52
 70
     0
102
RTVSPropertyOp53
 70
     1
102
RTVSPropertyOp54
 70
     1
102
RTVSPropertyOp55
 70
     1
102
RTVSPropertyOp56
 70
     1
102
RTVSPropertyOp57
 70
     1
102
RTVSPost2010Prop28
280
     0
102
RTVSPost2010PropOp28
 70
     1
102
RTVSPost2010Prop29
280
     1
102
RTVSPost2010PropOp29
 70
     1
102
RTVSPost2010Prop30
280
     1
102
RTVSPost2010PropOp30
 70
     1
102
RTVSPost2010Prop31
280
     0
102
RTVSPost2010PropOp31
 70
     1
102
RTVSPost2010Prop32
280
     0
102
RTVSPost2010PropOp32
 70
     1
102
RTVSPost2010Prop33
280
     0
102
RTVSPost2010PropOp33
 70
     1
102
RTVSPost2010Prop34
280
     0
102
RTVSPost2010PropOp34
 70
     1
102
RTVSPost2010Prop35
280
     0
102
RTVSPost2010PropOp35
 70
     1
102
RTVSPost2010Prop36
280
     0
102
RTVSPost2010PropOp36
 70
     1
102
RTVSPost2010Prop37
 90
       50
102
RTVSPost2010PropOp37
 70
     1
102
RTVSPost2010Prop38
140
0.0
102
RTVSPost2010PropOp38
 70
     1
102
RTVSPost2010Prop39
140
1.0
102
RTVSPost2010PropOp39
 70
     1
102
RTVSPost2010Prop40
 90
        0
102
RTVSPost2010PropOp40
 70
     1
102
RTVSPost2010Prop41ColorIndex
 90
       18
102
RTVSPost2010Prop41ColorRGB
 90
        0
102
RTVSPost2010PropOp41
 70
     1
102
RTVSPost2010Prop42
 90
       50
102
RTVSPost2010PropOp42
 70
     1
102
RTVSPost2010Prop43
 90
        3
102
RTVSPost2010PropOp43
 70
     1
102
RTVSPost2010Prop44ColorIndex
 90
        5
102
RTVSPost2010Prop44ColorRGB
 90
      255
102
RTVSPost2010PropOp44
 70
     1
102
RTVSPost2010Prop45
280
     0
102
RTVSPost2010PropOp45
 70
     1
102
RTVSPost2010Prop46
 90
       50
102
RTVSPost2010PropOp46
 70
     1
102
RTVSPost2010Prop47
 90
       50
102
RTVSPost2010PropOp47
 70
     1
102
RTVSPost2010Prop48
 90
       50
102
RTVSPost2010PropOp48
 70
     1
102
RTVSPost2010Prop49
280
     0
102
RTVSPost2010PropOp49
 70
     1
102
RTVSPost2010Prop50
 90
       50
102
RTVSPost2010PropOp50
 70
     1
102
RTVSPost2010Prop51ColorIndex
 90
      256
102
RTVSPost2010Prop51ColorRGB
 90
-16777216
102
RTVSPost2010PropOp51
 70
     0
102
RTVSPost2010Prop52
140
1.0
102
RTVSPost2010PropOp52
 70
     0
102
RTVSPost2010Prop53
 90
        2
102
RTVSPost2010PropOp53
 70
     1
102
RTVSPost2010Prop54
  1
strokes_ogs.tif
102
RTVSPost2010PropOp54
 70
     1
102
RTVSPost2010Prop55
280
     0
102
RTVSPost2010PropOp55
 70
     1
102
RTVSPost2010Prop56
140
1.0
102
RTVSPost2010PropOp56
 70
     1
102
RTVSPost2010Prop57
140
1.0
102
RTVSPost2010PropOp57
 70
     1
  0
XRECORD
  5
27F
102
{ACAD_REACTORS
330
27E
102
}
330
27E
100
AcDbXrecord
280
     1
102
RTVSPropertyOp0
 70
     1
102
RTVSPropertyOp1
 70
     1
102
RTVSPropertyOp2
 70
     1
102
RTVSPropertyOp3
 70
     1
102
RTVSPropertyOp4
 70
     1
102
RTVSPropertyOp5
 70
     1
102
RTVSPropertyOp6
 70
     1
102
RTVSPropertyOp7
 70
     1
102
RTVSPropertyOp8
 70
     1
102
RTVSPropertyOp9
 70
     1
102
RTVSPropertyOp10
 70
     1
102
RTVSPropertyOp11
 70
     1
102
RTVSPropertyOp12
 70
     1
102
RTVSPropertyOp13
 70
     1
102
RTVSPropertyOp14
 70
     1
102
RTVSPropertyOp15
 70
     1
102
RTVSPropertyOp16
 70
     1
102
RTVSPropertyOp17
 70
     1
102
RTVSPropertyOp18
 70
     1
102
RTVSPropertyOp19
 70
     1
102
RTVSPropertyOp20
 70
     1
102
RTVSPropertyOp21
 70
     1
102
RTVSPropertyOp22
 70
     1
102
RTVSPropertyOp23
 70
     1
102
RTVSPropertyOp24
 70
     1
102
RTVSPropertyOp25
 70
     1
102
RTVSPropertyOp26
 70
     1
102
RTVSPropertyOp27
 70
     1
102
RTVSPropertyOp28
 70
     1
102
RTVSPropertyOp29
 70
     1
102
RTVSPropertyOp30
 70
     1
102
RTVSPropertyOp31
 70
     1
102
RTVSPropertyOp32
 70
     1
102
RTVSPropertyOp33
 70
     1
102
RTVSPropertyOp34
 70
     1
102
RTVSPropertyOp35
 70
     1
102
RTVSPropertyOp36
 70
     1
102
RTVSPropertyOp37
 70
     1
102
RTVSPropertyOp38
 70
     1
102
RTVSPropertyOp39
 70
     1
102
RTVSPropertyOp40
 70
     1
102
RTVSPropertyOp41
 70
     1
102
RTVSPropertyOp42
 70
     1
102
RTVSPropertyOp43
 70
     1
102
RTVSPropertyOp44
 70
     1
102
RTVSPropertyOp45
 70
     1
102
RTVSPropertyOp46
 70
     1
102
RTVSPropertyOp47
 70
     1
102
RTVSPropertyOp48
 70
     1
102
RTVSPropertyOp49
 70
     1
102
RTVSPropertyOp50
 70
     1
102
RTVSPropertyOp51
 70
     0
102
RTVSPropertyOp52
 70
     0
102
RTVSPropertyOp53
 70
     1
102
RTVSPropertyOp54
 70
     1
102
RTVSPropertyOp55
 70
     1
102
RTVSPropertyOp56
 70
     1
102
RTVSPropertyOp57
 70
     1
102
RTVSPost2010Prop28
280
     0
102
RTVSPost2010PropOp28
 70
     1
102
RTVSPost2010Prop29
280
     1
102
RTVSPost2010PropOp29
 70
     1
102
RTVSPost2010Prop30
280
     1
102
RTVSPost2010PropOp30
 70
     1
102
RTVSPost2010Prop31
280
     0
102
RTVSPost2010PropOp31
 70
     1
102
RTVSPost2010Prop32
280
     0
102
RTVSPost2010PropOp32
 70
     1
102
RTVSPost2010Prop33
280
     0
102
RTVSPost2010PropOp33
 70
     1
102
RTVSPost2010Prop34
280
     0
102
RTVSPost2010PropOp34
 70
     1
102
RTVSPost2010Prop35
280
     0
102
RTVSPost2010PropOp35
 70
     1
102
RTVSPost2010Prop36
280
     0
102
RTVSPost2010PropOp36
 70
     1
102
RTVSPost2010Prop37
 90
       50
102
RTVSPost2010PropOp37
 70
     1
102
RTVSPost2010Prop38
140
0.0
102
RTVSPost2010PropOp38
 70
     1
102
RTVSPost2010Prop39
140
1.0
102
RTVSPost2010PropOp39
 70
     1
102
RTVSPost2010Prop40
 90
        0
102
RTVSPost2010PropOp40
 70
     1
102
RTVSPost2010Prop41ColorIndex
 90
       18
102
RTVSPost2010Prop41ColorRGB
 90
        0
102
RTVSPost2010PropOp41
 70
     1
102
RTVSPost2010Prop42
 90
       50
102
RTVSPost2010PropOp42
 70
     1
102
RTVSPost2010Prop43
 90
        3
102
RTVSPost2010PropOp43
 70
     1
102
RTVSPost2010Prop44ColorIndex
 90
        5
102
RTVSPost2010Prop44ColorRGB
 90
      255
102
RTVSPost2010PropOp44
 70
     1
102
RTVSPost2010Prop45
280
     0
102
RTVSPost2010PropOp45
 70
     1
102
RTVSPost2010Prop46
 90
       50
102
RTVSPost2010PropOp46
 70
     1
102
RTVSPost2010Prop47
 90
       50
102
RTVSPost2010PropOp47
 70
     1
102
RTVSPost2010Prop48
 90
       50
102
RTVSPost2010PropOp48
 70
     1
102
RTVSPost2010Prop49
280
     0
102
RTVSPost2010PropOp49
 70
     1
102
RTVSPost2010Prop50
 90
       50
102
RTVSPost2010PropOp50
 70
     1
102
RTVSPost2010Prop51ColorIndex
 90
      256
102
RTVSPost2010Prop51ColorRGB
 90
-16777216
102
RTVSPost2010PropOp51
 70
     0
102
RTVSPost2010Prop52
140
1.0
102
RTVSPost2010PropOp52
 70
     0
102
RTVSPost2010Prop53
 90
        2
102
RTVSPost2010PropOp53
 70
     1
102
RTVSPost2010Prop54
  1
strokes_ogs.tif
102
RTVSPost2010PropOp54
 70
     1
102
RTVSPost2010Prop55
280
     0
102
RTVSPost2010PropOp55
 70
     1
102
RTVSPost2010Prop56
140
1.0
102
RTVSPost2010PropOp56
 70
     1
102
RTVSPost2010Prop57
140
1.0
102
RTVSPost2010PropOp57
 70
     1
  0
XRECORD
  5
279
102
{ACAD_REACTORS
330
278
102
}
330
278
100
AcDbXrecord
280
     1
102
RTVSPropertyOp0
 70
     1
102
RTVSPropertyOp1
 70
     1
102
RTVSPropertyOp2
 70
     1
102
RTVSPropertyOp3
 70
     1
102
RTVSPropertyOp4
 70
     1
102
RTVSPropertyOp5
 70
     1
102
RTVSPropertyOp6
 70
     1
102
RTVSPropertyOp7
 70
     1
102
RTVSPropertyOp8
 70
     1
102
RTVSPropertyOp9
 70
     1
102
RTVSPropertyOp10
 70
     1
102
RTVSPropertyOp11
 70
     1
102
RTVSPropertyOp12
 70
     1
102
RTVSPropertyOp13
 70
     1
102
RTVSPropertyOp14
 70
     1
102
RTVSPropertyOp15
 70
     1
102
RTVSPropertyOp16
 70
     1
102
RTVSPropertyOp17
 70
     1
102
RTVSPropertyOp18
 70
     1
102
RTVSPropertyOp19
 70
     1
102
RTVSPropertyOp20
 70
     1
102
RTVSPropertyOp21
 70
     1
102
RTVSPropertyOp22
 70
     1
102
RTVSPropertyOp23
 70
     1
102
RTVSPropertyOp24
 70
     1
102
RTVSPropertyOp25
 70
     1
102
RTVSPropertyOp26
 70
     1
102
RTVSPropertyOp27
 70
     1
102
RTVSPropertyOp28
 70
     1
102
RTVSPropertyOp29
 70
     1
102
RTVSPropertyOp30
 70
     1
102
RTVSPropertyOp31
 70
     1
102
RTVSPropertyOp32
 70
     1
102
RTVSPropertyOp33
 70
     1
102
RTVSPropertyOp34
 70
     1
102
RTVSPropertyOp35
 70
     1
102
RTVSPropertyOp36
 70
     1
102
RTVSPropertyOp37
 70
     1
102
RTVSPropertyOp38
 70
     1
102
RTVSPropertyOp39
 70
     1
102
RTVSPropertyOp40
 70
     1
102
RTVSPropertyOp41
 70
     1
102
RTVSPropertyOp42
 70
     1
102
RTVSPropertyOp43
 70
     1
102
RTVSPropertyOp44
 70
     1
102
RTVSPropertyOp45
 70
     1
102
RTVSPropertyOp46
 70
     1
102
RTVSPropertyOp47
 70
     1
102
RTVSPropertyOp48
 70
     1
102
RTVSPropertyOp49
 70
     1
102
RTVSPropertyOp50
 70
     1
102
RTVSPropertyOp51
 70
     0
102
RTVSPropertyOp52
 70
     0
102
RTVSPropertyOp53
 70
     1
102
RTVSPropertyOp54
 70
     1
102
RTVSPropertyOp55
 70
     1
102
RTVSPropertyOp56
 70
     1
102
RTVSPropertyOp57
 70
     1
102
RTVSPost2010Prop28
280
     0
102
RTVSPost2010PropOp28
 70
     1
102
RTVSPost2010Prop29
280
     1
102
RTVSPost2010PropOp29
 70
     1
102
RTVSPost2010Prop30
280
     1
102
RTVSPost2010PropOp30
 70
     1
102
RTVSPost2010Prop31
280
     0
102
RTVSPost2010PropOp31
 70
     1
102
RTVSPost2010Prop32
280
     0
102
RTVSPost2010PropOp32
 70
     1
102
RTVSPost2010Prop33
280
     0
102
RTVSPost2010PropOp33
 70
     1
102
RTVSPost2010Prop34
280
     0
102
RTVSPost2010PropOp34
 70
     1
102
RTVSPost2010Prop35
280
     0
102
RTVSPost2010PropOp35
 70
     1
102
RTVSPost2010Prop36
280
     0
102
RTVSPost2010PropOp36
 70
     1
102
RTVSPost2010Prop37
 90
       50
102
RTVSPost2010PropOp37
 70
     1
102
RTVSPost2010Prop38
140
0.0
102
RTVSPost2010PropOp38
 70
     1
102
RTVSPost2010Prop39
140
1.0
102
RTVSPost2010PropOp39
 70
     1
102
RTVSPost2010Prop40
 90
        0
102
RTVSPost2010PropOp40
 70
     1
102
RTVSPost2010Prop41ColorIndex
 90
       18
102
RTVSPost2010Prop41ColorRGB
 90
        0
102
RTVSPost2010PropOp41
 70
     1
102
RTVSPost2010Prop42
 90
       50
102
RTVSPost2010PropOp42
 70
     1
102
RTVSPost2010Prop43
 90
        3
102
RTVSPost2010PropOp43
 70
     1
102
RTVSPost2010Prop44ColorIndex
 90
        5
102
RTVSPost2010Prop44ColorRGB
 90
      255
102
RTVSPost2010PropOp44
 70
     1
102
RTVSPost2010Prop45
280
     0
102
RTVSPost2010PropOp45
 70
     1
102
RTVSPost2010Prop46
 90
       50
102
RTVSPost2010PropOp46
 70
     1
102
RTVSPost2010Prop47
 90
       50
102
RTVSPost2010PropOp47
 70
     1
102
RTVSPost2010Prop48
 90
       50
102
RTVSPost2010PropOp48
 70
     1
102
RTVSPost2010Prop49
280
     0
102
RTVSPost2010PropOp49
 70
     1
102
RTVSPost2010Prop50
 90
       50
102
RTVSPost2010PropOp50
 70
     1
102
RTVSPost2010Prop51ColorIndex
 90
      256
102
RTVSPost2010Prop51ColorRGB
 90
-16777216
102
RTVSPost2010PropOp51
 70
     0
102
RTVSPost2010Prop52
140
1.0
102
RTVSPost2010PropOp52
 70
     0
102
RTVSPost2010Prop53
 90
        2
102
RTVSPost2010PropOp53
 70
     1
102
RTVSPost2010Prop54
  1
strokes_ogs.tif
102
RTVSPost2010PropOp54
 70
     1
102
RTVSPost2010Prop55
280
     0
102
RTVSPost2010PropOp55
 70
     1
102
RTVSPost2010Prop56
140
1.0
102
RTVSPost2010PropOp56
 70
     1
102
RTVSPost2010Prop57
140
1.0
102
RTVSPost2010PropOp57
 70
     1
  0
XRECORD
  5
27B
102
{ACAD_REACTORS
330
27A
102
}
330
27A
100
AcDbXrecord
280
     1
102
RTVSPropertyOp0
 70
     1
102
RTVSPropertyOp1
 70
     1
102
RTVSPropertyOp2
 70
     1
102
RTVSPropertyOp3
 70
     1
102
RTVSPropertyOp4
 70
     1
102
RTVSPropertyOp5
 70
     1
102
RTVSPropertyOp6
 70
     1
102
RTVSPropertyOp7
 70
     1
102
RTVSPropertyOp8
 70
     1
102
RTVSPropertyOp9
 70
     1
102
RTVSPropertyOp10
 70
     1
102
RTVSPropertyOp11
 70
     1
102
RTVSPropertyOp12
 70
     1
102
RTVSPropertyOp13
 70
     1
102
RTVSPropertyOp14
 70
     1
102
RTVSPropertyOp15
 70
     1
102
RTVSPropertyOp16
 70
     1
102
RTVSPropertyOp17
 70
     1
102
RTVSPropertyOp18
 70
     1
102
RTVSPropertyOp19
 70
     1
102
RTVSPropertyOp20
 70
     1
102
RTVSPropertyOp21
 70
     1
102
RTVSPropertyOp22
 70
     1
102
RTVSPropertyOp23
 70
     1
102
RTVSPropertyOp24
 70
     1
102
RTVSPropertyOp25
 70
     1
102
RTVSPropertyOp26
 70
     1
102
RTVSPropertyOp27
 70
     1
102
RTVSPropertyOp28
 70
     1
102
RTVSPropertyOp29
 70
     1
102
RTVSPropertyOp30
 70
     1
102
RTVSPropertyOp31
 70
     1
102
RTVSPropertyOp32
 70
     1
102
RTVSPropertyOp33
 70
     1
102
RTVSPropertyOp34
 70
     1
102
RTVSPropertyOp35
 70
     1
102
RTVSPropertyOp36
 70
     1
102
RTVSPropertyOp37
 70
     1
102
RTVSPropertyOp38
 70
     1
102
RTVSPropertyOp39
 70
     1
102
RTVSPropertyOp40
 70
     1
102
RTVSPropertyOp41
 70
     1
102
RTVSPropertyOp42
 70
     1
102
RTVSPropertyOp43
 70
     1
102
RTVSPropertyOp44
 70
     1
102
RTVSPropertyOp45
 70
     1
102
RTVSPropertyOp46
 70
     1
102
RTVSPropertyOp47
 70
     1
102
RTVSPropertyOp48
 70
     1
102
RTVSPropertyOp49
 70
     1
102
RTVSPropertyOp50
 70
     1
102
RTVSPropertyOp51
 70
     0
102
RTVSPropertyOp52
 70
     0
102
RTVSPropertyOp53
 70
     1
102
RTVSPropertyOp54
 70
     1
102
RTVSPropertyOp55
 70
     1
102
RTVSPropertyOp56
 70
     1
102
RTVSPropertyOp57
 70
     1
102
RTVSPost2010Prop28
280
     0
102
RTVSPost2010PropOp28
 70
     1
102
RTVSPost2010Prop29
280
     1
102
RTVSPost2010PropOp29
 70
     1
102
RTVSPost2010Prop30
280
     1
102
RTVSPost2010PropOp30
 70
     1
102
RTVSPost2010Prop31
280
     0
102
RTVSPost2010PropOp31
 70
     1
102
RTVSPost2010Prop32
280
     0
102
RTVSPost2010PropOp32
 70
     1
102
RTVSPost2010Prop33
280
     0
102
RTVSPost2010PropOp33
 70
     1
102
RTVSPost2010Prop34
280
     0
102
RTVSPost2010PropOp34
 70
     1
102
RTVSPost2010Prop35
280
     0
102
RTVSPost2010PropOp35
 70
     1
102
RTVSPost2010Prop36
280
     0
102
RTVSPost2010PropOp36
 70
     1
102
RTVSPost2010Prop37
 90
       50
102
RTVSPost2010PropOp37
 70
     1
102
RTVSPost2010Prop38
140
0.0
102
RTVSPost2010PropOp38
 70
     1
102
RTVSPost2010Prop39
140
1.0
102
RTVSPost2010PropOp39
 70
     1
102
RTVSPost2010Prop40
 90
        0
102
RTVSPost2010PropOp40
 70
     1
102
RTVSPost2010Prop41ColorIndex
 90
       18
102
RTVSPost2010Prop41ColorRGB
 90
        0
102
RTVSPost2010PropOp41
 70
     1
102
RTVSPost2010Prop42
 90
       50
102
RTVSPost2010PropOp42
 70
     1
102
RTVSPost2010Prop43
 90
        3
102
RTVSPost2010PropOp43
 70
     1
102
RTVSPost2010Prop44ColorIndex
 90
        5
102
RTVSPost2010Prop44ColorRGB
 90
      255
102
RTVSPost2010PropOp44
 70
     1
102
RTVSPost2010Prop45
280
     0
102
RTVSPost2010PropOp45
 70
     1
102
RTVSPost2010Prop46
 90
       50
102
RTVSPost2010PropOp46
 70
     1
102
RTVSPost2010Prop47
 90
       50
102
RTVSPost2010PropOp47
 70
     1
102
RTVSPost2010Prop48
 90
       50
102
RTVSPost2010PropOp48
 70
     1
102
RTVSPost2010Prop49
280
     0
102
RTVSPost2010PropOp49
 70
     1
102
RTVSPost2010Prop50
 90
       50
102
RTVSPost2010PropOp50
 70
     1
102
RTVSPost2010Prop51ColorIndex
 90
      256
102
RTVSPost2010Prop51ColorRGB
 90
-16777216
102
RTVSPost2010PropOp51
 70
     0
102
RTVSPost2010Prop52
140
1.0
102
RTVSPost2010PropOp52
 70
     0
102
RTVSPost2010Prop53
 90
        2
102
RTVSPost2010PropOp53
 70
     1
102
RTVSPost2010Prop54
  1
strokes_ogs.tif
102
RTVSPost2010PropOp54
 70
     1
102
RTVSPost2010Prop55
280
     0
102
RTVSPost2010PropOp55
 70
     1
102
RTVSPost2010Prop56
140
1.0
102
RTVSPost2010PropOp56
 70
     1
102
RTVSPost2010Prop57
140
1.0
102
RTVSPost2010PropOp57
 70
     1
  0
XRECORD
  5
26B
102
{ACAD_REACTORS
330
26A
102
}
330
26A
100
AcDbXrecord
280
     1
102
RTVSPropertyOp0
 70
     1
102
RTVSPropertyOp1
 70
     1
102
RTVSPropertyOp2
 70
     1
102
RTVSPropertyOp3
 70
     1
102
RTVSPropertyOp4
 70
     1
102
RTVSPropertyOp5
 70
     1
102
RTVSPropertyOp6
 70
     1
102
RTVSPropertyOp7
 70
     1
102
RTVSPropertyOp8
 70
     1
102
RTVSPropertyOp9
 70
     1
102
RTVSPropertyOp10
 70
     1
102
RTVSPropertyOp11
 70
     1
102
RTVSPropertyOp12
 70
     1
102
RTVSPropertyOp13
 70
     1
102
RTVSPropertyOp14
 70
     1
102
RTVSPropertyOp15
 70
     1
102
RTVSPropertyOp16
 70
     1
102
RTVSPropertyOp17
 70
     1
102
RTVSPropertyOp18
 70
     1
102
RTVSPropertyOp19
 70
     1
102
RTVSPropertyOp20
 70
     1
102
RTVSPropertyOp21
 70
     1
102
RTVSPropertyOp22
 70
     1
102
RTVSPropertyOp23
 70
     1
102
RTVSPropertyOp24
 70
     1
102
RTVSPropertyOp25
 70
     1
102
RTVSPropertyOp26
 70
     1
102
RTVSPropertyOp27
 70
     1
102
RTVSPropertyOp28
 70
     1
102
RTVSPropertyOp29
 70
     1
102
RTVSPropertyOp30
 70
     1
102
RTVSPropertyOp31
 70
     1
102
RTVSPropertyOp32
 70
     1
102
RTVSPropertyOp33
 70
     1
102
RTVSPropertyOp34
 70
     1
102
RTVSPropertyOp35
 70
     1
102
RTVSPropertyOp36
 70
     1
102
RTVSPropertyOp37
 70
     1
102
RTVSPropertyOp38
 70
     1
102
RTVSPropertyOp39
 70
     1
102
RTVSPropertyOp40
 70
     1
102
RTVSPropertyOp41
 70
     1
102
RTVSPropertyOp42
 70
     1
102
RTVSPropertyOp43
 70
     1
102
RTVSPropertyOp44
 70
     1
102
RTVSPropertyOp45
 70
     1
102
RTVSPropertyOp46
 70
     1
102
RTVSPropertyOp47
 70
     1
102
RTVSPropertyOp48
 70
     1
102
RTVSPropertyOp49
 70
     1
102
RTVSPropertyOp50
 70
     1
102
RTVSPropertyOp51
 70
     0
102
RTVSPropertyOp52
 70
     0
102
RTVSPropertyOp53
 70
     1
102
RTVSPropertyOp54
 70
     1
102
RTVSPropertyOp55
 70
     1
102
RTVSPropertyOp56
 70
     1
102
RTVSPropertyOp57
 70
     1
102
RTVSPost2010Prop28
280
     0
102
RTVSPost2010PropOp28
 70
     1
102
RTVSPost2010Prop29
280
     1
102
RTVSPost2010PropOp29
 70
     1
102
RTVSPost2010Prop30
280
     1
102
RTVSPost2010PropOp30
 70
     1
102
RTVSPost2010Prop31
280
     0
102
RTVSPost2010PropOp31
 70
     1
102
RTVSPost2010Prop32
280
     0
102
RTVSPost2010PropOp32
 70
     1
102
RTVSPost2010Prop33
280
     0
102
RTVSPost2010PropOp33
 70
     1
102
RTVSPost2010Prop34
280
     0
102
RTVSPost2010PropOp34
 70
     1
102
RTVSPost2010Prop35
280
     0
102
RTVSPost2010PropOp35
 70
     1
102
RTVSPost2010Prop36
280
     0
102
RTVSPost2010PropOp36
 70
     1
102
RTVSPost2010Prop37
 90
       50
102
RTVSPost2010PropOp37
 70
     1
102
RTVSPost2010Prop38
140
0.0
102
RTVSPost2010PropOp38
 70
     1
102
RTVSPost2010Prop39
140
1.0
102
RTVSPost2010PropOp39
 70
     1
102
RTVSPost2010Prop40
 90
        0
102
RTVSPost2010PropOp40
 70
     1
102
RTVSPost2010Prop41ColorIndex
 90
       18
102
RTVSPost2010Prop41ColorRGB
 90
        0
102
RTVSPost2010PropOp41
 70
     1
102
RTVSPost2010Prop42
 90
       50
102
RTVSPost2010PropOp42
 70
     1
102
RTVSPost2010Prop43
 90
        3
102
RTVSPost2010PropOp43
 70
     1
102
RTVSPost2010Prop44ColorIndex
 90
        5
102
RTVSPost2010Prop44ColorRGB
 90
      255
102
RTVSPost2010PropOp44
 70
     1
102
RTVSPost2010Prop45
280
     0
102
RTVSPost2010PropOp45
 70
     1
102
RTVSPost2010Prop46
 90
       50
102
RTVSPost2010PropOp46
 70
     1
102
RTVSPost2010Prop47
 90
       50
102
RTVSPost2010PropOp47
 70
     1
102
RTVSPost2010Prop48
 90
       50
102
RTVSPost2010PropOp48
 70
     1
102
RTVSPost2010Prop49
280
     0
102
RTVSPost2010PropOp49
 70
     1
102
RTVSPost2010Prop50
 90
       50
102
RTVSPost2010PropOp50
 70
     1
102
RTVSPost2010Prop51ColorIndex
 90
      256
102
RTVSPost2010Prop51ColorRGB
 90
-16777216
102
RTVSPost2010PropOp51
 70
     0
102
RTVSPost2010Prop52
140
1.0
102
RTVSPost2010PropOp52
 70
     0
102
RTVSPost2010Prop53
 90
        2
102
RTVSPost2010PropOp53
 70
     1
102
RTVSPost2010Prop54
  1
strokes_ogs.tif
102
RTVSPost2010PropOp54
 70
     1
102
RTVSPost2010Prop55
280
     0
102
RTVSPost2010PropOp55
 70
     1
102
RTVSPost2010Prop56
140
1.0
102
RTVSPost2010PropOp56
 70
     1
102
RTVSPost2010Prop57
140
1.0
102
RTVSPost2010PropOp57
 70
     1
  0
XRECORD
  5
25D
102
{ACAD_REACTORS
330
25C
102
}
330
25C
100
AcDbXrecord
280
     1
102
RTVSPropertyOp0
 70
     1
102
RTVSPropertyOp1
 70
     1
102
RTVSPropertyOp2
 70
     1
102
RTVSPropertyOp3
 70
     1
102
RTVSPropertyOp4
 70
     1
102
RTVSPropertyOp5
 70
     1
102
RTVSPropertyOp6
 70
     1
102
RTVSPropertyOp7
 70
     1
102
RTVSPropertyOp8
 70
     1
102
RTVSPropertyOp9
 70
     1
102
RTVSPropertyOp10
 70
     1
102
RTVSPropertyOp11
 70
     1
102
RTVSPropertyOp12
 70
     1
102
RTVSPropertyOp13
 70
     1
102
RTVSPropertyOp14
 70
     1
102
RTVSPropertyOp15
 70
     1
102
RTVSPropertyOp16
 70
     1
102
RTVSPropertyOp17
 70
     1
102
RTVSPropertyOp18
 70
     1
102
RTVSPropertyOp19
 70
     1
102
RTVSPropertyOp20
 70
     1
102
RTVSPropertyOp21
 70
     1
102
RTVSPropertyOp22
 70
     1
102
RTVSPropertyOp23
 70
     1
102
RTVSPropertyOp24
 70
     1
102
RTVSPropertyOp25
 70
     1
102
RTVSPropertyOp26
 70
     1
102
RTVSPropertyOp27
 70
     1
102
RTVSPropertyOp28
 70
     1
102
RTVSPropertyOp29
 70
     1
102
RTVSPropertyOp30
 70
     1
102
RTVSPropertyOp31
 70
     1
102
RTVSPropertyOp32
 70
     1
102
RTVSPropertyOp33
 70
     1
102
RTVSPropertyOp34
 70
     1
102
RTVSPropertyOp35
 70
     1
102
RTVSPropertyOp36
 70
     1
102
RTVSPropertyOp37
 70
     1
102
RTVSPropertyOp38
 70
     1
102
RTVSPropertyOp39
 70
     1
102
RTVSPropertyOp40
 70
     1
102
RTVSPropertyOp41
 70
     1
102
RTVSPropertyOp42
 70
     1
102
RTVSPropertyOp43
 70
     1
102
RTVSPropertyOp44
 70
     1
102
RTVSPropertyOp45
 70
     1
102
RTVSPropertyOp46
 70
     1
102
RTVSPropertyOp47
 70
     1
102
RTVSPropertyOp48
 70
     1
102
RTVSPropertyOp49
 70
     1
102
RTVSPropertyOp50
 70
     1
102
RTVSPropertyOp51
 70
     0
102
RTVSPropertyOp52
 70
     0
102
RTVSPropertyOp53
 70
     1
102
RTVSPropertyOp54
 70
     1
102
RTVSPropertyOp55
 70
     1
102
RTVSPropertyOp56
 70
     1
102
RTVSPropertyOp57
 70
     1
102
RTVSPost2010Prop28
280
     0
102
RTVSPost2010PropOp28
 70
     1
102
RTVSPost2010Prop29
280
     1
102
RTVSPost2010PropOp29
 70
     1
102
RTVSPost2010Prop30
280
     1
102
RTVSPost2010PropOp30
 70
     1
102
RTVSPost2010Prop31
280
     0
102
RTVSPost2010PropOp31
 70
     1
102
RTVSPost2010Prop32
280
     0
102
RTVSPost2010PropOp32
 70
     1
102
RTVSPost2010Prop33
280
     0
102
RTVSPost2010PropOp33
 70
     1
102
RTVSPost2010Prop34
280
     0
102
RTVSPost2010PropOp34
 70
     1
102
RTVSPost2010Prop35
280
     0
102
RTVSPost2010PropOp35
 70
     1
102
RTVSPost2010Prop36
280
     0
102
RTVSPost2010PropOp36
 70
     1
102
RTVSPost2010Prop37
 90
       50
102
RTVSPost2010PropOp37
 70
     1
102
RTVSPost2010Prop38
140
0.0
102
RTVSPost2010PropOp38
 70
     1
102
RTVSPost2010Prop39
140
1.0
102
RTVSPost2010PropOp39
 70
     1
102
RTVSPost2010Prop40
 90
        0
102
RTVSPost2010PropOp40
 70
     1
102
RTVSPost2010Prop41ColorIndex
 90
       18
102
RTVSPost2010Prop41ColorRGB
 90
        0
102
RTVSPost2010PropOp41
 70
     1
102
RTVSPost2010Prop42
 90
       50
102
RTVSPost2010PropOp42
 70
     1
102
RTVSPost2010Prop43
 90
        3
102
RTVSPost2010PropOp43
 70
     1
102
RTVSPost2010Prop44ColorIndex
 90
        5
102
RTVSPost2010Prop44ColorRGB
 90
      255
102
RTVSPost2010PropOp44
 70
     1
102
RTVSPost2010Prop45
280
     0
102
RTVSPost2010PropOp45
 70
     1
102
RTVSPost2010Prop46
 90
       50
102
RTVSPost2010PropOp46
 70
     1
102
RTVSPost2010Prop47
 90
       50
102
RTVSPost2010PropOp47
 70
     1
102
RTVSPost2010Prop48
 90
       50
102
RTVSPost2010PropOp48
 70
     1
102
RTVSPost2010Prop49
280
     0
102
RTVSPost2010PropOp49
 70
     1
102
RTVSPost2010Prop50
 90
       50
102
RTVSPost2010PropOp50
 70
     1
102
RTVSPost2010Prop51ColorIndex
 90
      256
102
RTVSPost2010Prop51ColorRGB
 90
-16777216
102
RTVSPost2010PropOp51
 70
     0
102
RTVSPost2010Prop52
140
1.0
102
RTVSPost2010PropOp52
 70
     0
102
RTVSPost2010Prop53
 90
        2
102
RTVSPost2010PropOp53
 70
     1
102
RTVSPost2010Prop54
  1
strokes_ogs.tif
102
RTVSPost2010PropOp54
 70
     1
102
RTVSPost2010Prop55
280
     0
102
RTVSPost2010PropOp55
 70
     1
102
RTVSPost2010Prop56
140
1.0
102
RTVSPost2010PropOp56
 70
     1
102
RTVSPost2010Prop57
140
1.0
102
RTVSPost2010PropOp57
 70
     1
  0
XRECORD
  5
27D
102
{ACAD_REACTORS
330
27C
102
}
330
27C
100
AcDbXrecord
280
     1
102
RTVSPropertyOp0
 70
     1
102
RTVSPropertyOp1
 70
     1
102
RTVSPropertyOp2
 70
     1
102
RTVSPropertyOp3
 70
     1
102
RTVSPropertyOp4
 70
     1
102
RTVSPropertyOp5
 70
     1
102
RTVSPropertyOp6
 70
     1
102
RTVSPropertyOp7
 70
     1
102
RTVSPropertyOp8
 70
     1
102
RTVSPropertyOp9
 70
     1
102
RTVSPropertyOp10
 70
     1
102
RTVSPropertyOp11
 70
     1
102
RTVSPropertyOp12
 70
     1
102
RTVSPropertyOp13
 70
     1
102
RTVSPropertyOp14
 70
     1
102
RTVSPropertyOp15
 70
     1
102
RTVSPropertyOp16
 70
     1
102
RTVSPropertyOp17
 70
     1
102
RTVSPropertyOp18
 70
     1
102
RTVSPropertyOp19
 70
     1
102
RTVSPropertyOp20
 70
     1
102
RTVSPropertyOp21
 70
     1
102
RTVSPropertyOp22
 70
     1
102
RTVSPropertyOp23
 70
     1
102
RTVSPropertyOp24
 70
     1
102
RTVSPropertyOp25
 70
     1
102
RTVSPropertyOp26
 70
     1
102
RTVSPropertyOp27
 70
     1
102
RTVSPropertyOp28
 70
     1
102
RTVSPropertyOp29
 70
     1
102
RTVSPropertyOp30
 70
     1
102
RTVSPropertyOp31
 70
     1
102
RTVSPropertyOp32
 70
     1
102
RTVSPropertyOp33
 70
     1
102
RTVSPropertyOp34
 70
     1
102
RTVSPropertyOp35
 70
     1
102
RTVSPropertyOp36
 70
     1
102
RTVSPropertyOp37
 70
     1
102
RTVSPropertyOp38
 70
     1
102
RTVSPropertyOp39
 70
     1
102
RTVSPropertyOp40
 70
     1
102
RTVSPropertyOp41
 70
     1
102
RTVSPropertyOp42
 70
     1
102
RTVSPropertyOp43
 70
     1
102
RTVSPropertyOp44
 70
     1
102
RTVSPropertyOp45
 70
     1
102
RTVSPropertyOp46
 70
     1
102
RTVSPropertyOp47
 70
     1
102
RTVSPropertyOp48
 70
     1
102
RTVSPropertyOp49
 70
     1
102
RTVSPropertyOp50
 70
     1
102
RTVSPropertyOp51
 70
     0
102
RTVSPropertyOp52
 70
     0
102
RTVSPropertyOp53
 70
     1
102
RTVSPropertyOp54
 70
     1
102
RTVSPropertyOp55
 70
     1
102
RTVSPropertyOp56
 70
     1
102
RTVSPropertyOp57
 70
     1
102
RTVSPost2010Prop28
280
     0
102
RTVSPost2010PropOp28
 70
     1
102
RTVSPost2010Prop29
280
     1
102
RTVSPost2010PropOp29
 70
     1
102
RTVSPost2010Prop30
280
     1
102
RTVSPost2010PropOp30
 70
     1
102
RTVSPost2010Prop31
280
     0
102
RTVSPost2010PropOp31
 70
     1
102
RTVSPost2010Prop32
280
     0
102
RTVSPost2010PropOp32
 70
     1
102
RTVSPost2010Prop33
280
     0
102
RTVSPost2010PropOp33
 70
     1
102
RTVSPost2010Prop34
280
     0
102
RTVSPost2010PropOp34
 70
     1
102
RTVSPost2010Prop35
280
     0
102
RTVSPost2010PropOp35
 70
     1
102
RTVSPost2010Prop36
280
     0
102
RTVSPost2010PropOp36
 70
     1
102
RTVSPost2010Prop37
 90
       50
102
RTVSPost2010PropOp37
 70
     1
102
RTVSPost2010Prop38
140
0.0
102
RTVSPost2010PropOp38
 70
     1
102
RTVSPost2010Prop39
140
1.0
102
RTVSPost2010PropOp39
 70
     1
102
RTVSPost2010Prop40
 90
        0
102
RTVSPost2010PropOp40
 70
     1
102
RTVSPost2010Prop41ColorIndex
 90
       18
102
RTVSPost2010Prop41ColorRGB
 90
        0
102
RTVSPost2010PropOp41
 70
     1
102
RTVSPost2010Prop42
 90
       50
102
RTVSPost2010PropOp42
 70
     1
102
RTVSPost2010Prop43
 90
        3
102
RTVSPost2010PropOp43
 70
     1
102
RTVSPost2010Prop44ColorIndex
 90
        5
102
RTVSPost2010Prop44ColorRGB
 90
      255
102
RTVSPost2010PropOp44
 70
     1
102
RTVSPost2010Prop45
280
     0
102
RTVSPost2010PropOp45
 70
     1
102
RTVSPost2010Prop46
 90
       50
102
RTVSPost2010PropOp46
 70
     1
102
RTVSPost2010Prop47
 90
       50
102
RTVSPost2010PropOp47
 70
     1
102
RTVSPost2010Prop48
 90
       50
102
RTVSPost2010PropOp48
 70
     1
102
RTVSPost2010Prop49
280
     0
102
RTVSPost2010PropOp49
 70
     1
102
RTVSPost2010Prop50
 90
       50
102
RTVSPost2010PropOp50
 70
     1
102
RTVSPost2010Prop51ColorIndex
 90
      256
102
RTVSPost2010Prop51ColorRGB
 90
-16777216
102
RTVSPost2010PropOp51
 70
     0
102
RTVSPost2010Prop52
140
1.0
102
RTVSPost2010PropOp52
 70
     0
102
RTVSPost2010Prop53
 90
        2
102
RTVSPost2010PropOp53
 70
     1
102
RTVSPost2010Prop54
  1
strokes_ogs.tif
102
RTVSPost2010PropOp54
 70
     1
102
RTVSPost2010Prop55
280
     0
102
RTVSPost2010PropOp55
 70
     1
102
RTVSPost2010Prop56
140
1.0
102
RTVSPost2010PropOp56
 70
     1
102
RTVSPost2010Prop57
140
1.0
102
RTVSPost2010PropOp57
 70
     1
  0
ENDSEC
  0
EOF
