  0
SECTION
  2
HEADER
  9
$ACADVER
  1
AC1021
  9
$ACADMAINTVER
 70
    25
  9
$DWGCODEPAGE
  3
ANSI_1252
  9
$LASTSAVEDBY
  1
Nick Zweigel
  9
$INSBASE
 10
0.0
 20
0.0
 30
0.0
  9
$EXTMIN
 10
0.0
 20
0.0
 30
0.0
  9
$EXTMAX
 10
210.0
 20
297.0
 30
0.0
  9
$LIMMIN
 10
0.0
 20
0.0
  9
$LIMMAX
 10
210.0
 20
297.0
  9
$ORTHOMODE
 70
     0
  9
$REGENMODE
 70
     1
  9
$FILLMODE
 70
     1
  9
$QTEXTMODE
 70
     0
  9
$MIRRTEXT
 70
     1
  9
$LTSCALE
 40
1.0
  9
$ATTMODE
 70
     1
  9
$TEXTSIZE
 40
3.0
  9
$TRACEWID
 40
1.0
  9
$TEXTSTYLE
  7
Standard
  9
$CLAYER
  8
0
  9
$CELTYPE
  6
ByLayer
  9
$CECOLOR
 62
   256
  9
$CELTSCALE
 40
1.0
  9
$DISPSILH
 70
     0
  9
$DIMSCALE
 40
1.0
  9
$DIMASZ
 40
2.5
  9
$DIMEXO
 40
0.625
  9
$DIMDLI
 40
3.75
  9
$DIMRND
 40
0.0
  9
$DIMDLE
 40
0.0
  9
$DIMEXE
 40
1.25
  9
$DIMTP
 40
0.0
  9
$DIMTM
 40
0.0
  9
$DIMTXT
 40
2.5
  9
$DIMCEN
 40
2.5
  9
$DIMTSZ
 40
0.0
  9
$DIMTOL
 70
     0
  9
$DIMLIM
 70
     0
  9
$DIMTIH
 70
     0
  9
$DIMTOH
 70
     0
  9
$DIMSE1
 70
     0
  9
$DIMSE2
 70
     0
  9
$DIMTAD
 70
     1
  9
$DIMZIN
 70
     8
  9
$DIMBLK
  1

  9
$DIMASO
 70
     1
  9
$DIMSHO
 70
     1
  9
$DIMPOST
  1

  9
$DIMAPOST
  1

  9
$DIMALT
 70
     0
  9
$DIMALTD
 70
     3
  9
$DIMALTF
 40
0.0393700787
  9
$DIMLFAC
 40
1.0
  9
$DIMTOFL
 70
     1
  9
$DIMTVP
 40
0.0
  9
$DIMTIX
 70
     0
  9
$DIMSOXD
 70
     0
  9
$DIMSAH
 70
     0
  9
$DIMBLK1
  1

  9
$DIMBLK2
  1

  9
$DIMSTYLE
  2
ISO-25
  9
$DIMCLRD
 70
     0
  9
$DIMCLRE
 70
     0
  9
$DIMCLRT
 70
     0
  9
$DIMTFAC
 40
1.0
  9
$DIMGAP
 40
0.625
  9
$DIMJUST
 70
     0
  9
$DIMSD1
 70
     0
  9
$DIMSD2
 70
     0
  9
$DIMTOLJ
 70
     0
  9
$DIMTZIN
 70
     8
  9
$DIMALTZ
 70
     0
  9
$DIMALTTZ
 70
     0
  9
$DIMUPT
 70
     0
  9
$DIMDEC
 70
     2
  9
$DIMTDEC
 70
     2
  9
$DIMALTU
 70
     2
  9
$DIMALTTD
 70
     3
  9
$DIMTXSTY
  7
Standard
  9
$DIMAUNIT
 70
     0
  9
$DIMADEC
 70
     0
  9
$DIMALTRND
 40
0.0
  9
$DIMAZIN
 70
     0
  9
$DIMDSEP
 70
    44
  9
$DIMATFIT
 70
     3
  9
$DIMFRAC
 70
     0
  9
$DIMLDRBLK
  1

  9
$DIMLUNIT
 70
     2
  9
$DIMLWD
 70
    -2
  9
$DIMLWE
 70
    -2
  9
$DIMTMOVE
 70
     0
  9
$DIMFXL
 40
1.0
  9
$DIMFXLON
 70
     0
  9
$DIMJOGANG
 40
0.7853981634
  9
$DIMTFILL
 70
     0
  9
$DIMTFILLCLR
 70
     0
  9
$DIMARCSYM
 70
     0
  9
$DIMLTYPE
  6

  9
$DIMLTEX1
  6

  9
$DIMLTEX2
  6

  9
$LUNITS
 70
     2
  9
$LUPREC
 70
     4
  9
$SKETCHINC
 40
1.0
  9
$FILLETRAD
 40
0.0
  9
$AUNITS
 70
     0
  9
$AUPREC
 70
     0
  9
$MENU
  1
.
  9
$ELEVATION
 40
0.0
  9
$PELEVATION
 40
0.0
  9
$THICKNESS
 40
0.0
  9
$LIMCHECK
 70
     0
  9
$CHAMFERA
 40
0.0
  9
$CHAMFERB
 40
0.0
  9
$CHAMFERC
 40
0.0
  9
$CHAMFERD
 40
0.0
  9
$SKPOLY
 70
     0
  9
$TDCREATE
 40
2460264.469931019
  9
$TDUCREATE
 40
2460264.428264352
  9
$TDUPDATE
 40
2460264.469949549
  9
$TDUUPDATE
 40
2460264.428282882
  9
$TDINDWG
 40
0.0000000116
  9
$TDUSRTIMER
 40
0.0000000116
  9
$USRTIMER
 70
     1
  9
$ANGBASE
 50
0.0
  9
$ANGDIR
 70
     0
  9
$PDMODE
 70
     0
  9
$PDSIZE
 40
0.0
  9
$PLINEWID
 40
0.0
  9
$SPLFRAME
 70
     0
  9
$SPLINETYPE
 70
     6
  9
$SPLINESEGS
 70
     8
  9
$HANDSEED
  5
1F4
  9
$SURFTAB1
 70
     6
  9
$SURFTAB2
 70
     6
  9
$SURFTYPE
 70
     6
  9
$SURFU
 70
     6
  9
$SURFV
 70
     6
  9
$UCSBASE
  2

  9
$UCSNAME
  2

  9
$UCSORG
 10
0.0
 20
0.0
 30
0.0
  9
$UCSXDIR
 10
1.0
 20
0.0
 30
0.0
  9
$UCSYDIR
 10
0.0
 20
1.0
 30
0.0
  9
$UCSORTHOREF
  2

  9
$UCSORTHOVIEW
 70
     0
  9
$UCSORGTOP
 10
0.0
 20
0.0
 30
0.0
  9
$UCSORGBOTTOM
 10
0.0
 20
0.0
 30
0.0
  9
$UCSORGLEFT
 10
0.0
 20
0.0
 30
0.0
  9
$UCSORGRIGHT
 10
0.0
 20
0.0
 30
0.0
  9
$UCSORGFRONT
 10
0.0
 20
0.0
 30
0.0
  9
$UCSORGBACK
 10
0.0
 20
0.0
 30
0.0
  9
$PUCSBASE
  2

  9
$PUCSNAME
  2

  9
$PUCSORG
 10
0.0
 20
0.0
 30
0.0
  9
$PUCSXDIR
 10
1.0
 20
0.0
 30
0.0
  9
$PUCSYDIR
 10
0.0
 20
1.0
 30
0.0
  9
$PUCSORTHOREF
  2

  9
$PUCSORTHOVIEW
 70
     0
  9
$PUCSORGTOP
 10
0.0
 20
0.0
 30
0.0
  9
$PUCSORGBOTTOM
 10
0.0
 20
0.0
 30
0.0
  9
$PUCSORGLEFT
 10
0.0
 20
0.0
 30
0.0
  9
$PUCSORGRIGHT
 10
0.0
 20
0.0
 30
0.0
  9
$PUCSORGFRONT
 10
0.0
 20
0.0
 30
0.0
  9
$PUCSORGBACK
 10
0.0
 20
0.0
 30
0.0
  9
$USERI1
 70
     0
  9
$USERI2
 70
     0
  9
$USERI3
 70
     0
  9
$USERI4
 70
     0
  9
$USERI5
 70
     0
  9
$USERR1
 40
0.0
  9
$USERR2
 40
0.0
  9
$USERR3
 40
0.0
  9
$USERR4
 40
0.0
  9
$USERR5
 40
0.0
  9
$WORLDVIEW
 70
     1
  9
$SHADEDGE
 70
     3
  9
$SHADEDIF
 70
    70
  9
$TILEMODE
 70
     1
  9
$MAXACTVP
 70
    64
  9
$PINSBASE
 10
0.0
 20
0.0
 30
0.0
  9
$PLIMCHECK
 70
     0
  9
$PEXTMIN
 10
0.0
 20
0.0
 30
0.0
  9
$PEXTMAX
 10
210.0
 20
297.0
 30
0.0
  9
$PLIMMIN
 10
0.0
 20
0.0
  9
$PLIMMAX
 10
210.0
 20
297.0
  9
$UNITMODE
 70
     0
  9
$VISRETAIN
 70
     1
  9
$PLINEGEN
 70
     0
  9
$PSLTSCALE
 70
     1
  9
$TREEDEPTH
 70
  3020
  9
$CMLSTYLE
  2
Standard
  9
$CMLJUST
 70
     0
  9
$CMLSCALE
 40
20.0
  9
$PROXYGRAPHICS
 70
     1
  9
$MEASUREMENT
 70
     1
  9
$CELWEIGHT
370
    -1
  9
$ENDCAPS
280
     0
  9
$JOINSTYLE
280
     0
  9
$LWDISPLAY
290
     0
  9
$INSUNITS
 70
     4
  9
$HYPERLINKBASE
  1

  9
$STYLESHEET
  1

  9
$XEDIT
290
     1
  9
$CEPSNTYPE
380
     0
  9
$PSTYLEMODE
290
     1
  9
$FINGERPRINTGUID
  2
{7dc819fe-9487-488d-86d8-490323c3de21}
  9
$VERSIONGUID
  2
{FAEB1C32-E019-11D5-929B-00C0DF256EC4}
  9
$EXTNAMES
290
     1
  9
$PSVPSCALE
 40
0.0
  9
$OLESTARTUP
290
     0
  9
$SORTENTS
280
   127
  9
$INDEXCTL
280
     0
  9
$HIDETEXT
280
     1
  9
$XCLIPFRAME
290
     0
  9
$HALOGAP
280
     0
  9
$OBSCOLOR
 70
   257
  9
$OBSLTYPE
280
     0
  9
$INTERSECTIONDISPLAY
280
     0
  9
$INTERSECTIONCOLOR
 70
   257
  9
$DIMASSOC
280
     2
  9
$PROJECTNAME
  1

  9
$CAMERADISPLAY
290
     0
  9
$LENSLENGTH
 40
50.0
  9
$CAMERAHEIGHT
 40
0.0
  9
$STEPSPERSEC
 40
2.0
  9
$STEPSIZE
 40
6.0
  9
$3DDWFPREC
 40
2.0
  9
$PSOLWIDTH
 40
5.0
  9
$PSOLHEIGHT
 40
80.0
  9
$LOFTANG1
 40
1.5707963268
  9
$LOFTANG2
 40
1.5707963268
  9
$LOFTMAG1
 40
0.0
  9
$LOFTMAG2
 40
0.0
  9
$LOFTPARAM
 70
     7
  9
$LOFTNORMALS
280
     1
  9
$LATITUDE
 40
37.795
  9
$LONGITUDE
 40
-122.394
  9
$NORTHDIRECTION
 40
0.0
  9
$TIMEZONE
 70
 -8000
  9
$LIGHTGLYPHDISPLAY
280
     1
  9
$TILEMODELIGHTSYNCH
280
     1
  9
$CMATERIAL
347
44
  9
$SOLIDHIST
280
     0
  9
$SHOWHIST
280
     1
  9
$DWFFRAME
280
     2
  9
$DGNFRAME
280
     2
  9
$REALWORLDSCALE
290
     1
  9
$INTERFERECOLOR
 62
   256
  9
$CSHADOW
280
     0
  9
$SHADOWPLANELOCATION
 40
0.0
  0
ENDSEC
  0
SECTION
  2
CLASSES
  0
CLASS
  1
ACDBDICTIONARYWDFLT
  2
AcDbDictionaryWithDefault
  3
ObjectDBX Classes
 90
        0
 91
        3
280
     0
281
     0
  0
CLASS
  1
VISUALSTYLE
  2
AcDbVisualStyle
  3
ObjectDBX Classes
 90
     4095
 91
        3
280
     0
281
     0
  0
CLASS
  1
MATERIAL
  2
AcDbMaterial
  3
ObjectDBX Classes
 90
     1153
 91
        3
280
     0
281
     0
  0
CLASS
  1
SCALE
  2
AcDbScale
  3
ObjectDBX Classes
 90
     1153
 91
        3
280
     0
281
     0
  0
CLASS
  1
TABLESTYLE
  2
AcDbTableStyle
  3
ObjectDBX Classes
 90
     4095
 91
        3
280
     0
281
     0
  0
CLASS
  1
MLEADERSTYLE
  2
AcDbMLeaderStyle
  3
ACDB_MLEADERSTYLE_CLASS
 90
     4095
 91
        3
280
     0
281
     0
  0
CLASS
  1
SUN
  2
AcDbSun
  3
SCENEOE
 90
     1153
 91
        3
280
     0
281
     0
  0
CLASS
  1
RASTERVARIABLES
  2
AcDbRasterVariables
  3
ISM
 90
        0
 91
        3
280
     0
281
     0
  0
CLASS
  1
IMAGEDEF
  2
AcDbRasterImageDef
  3
ISM
 90
        0
 91
        3
280
     0
281
     0
  0
CLASS
  1
IMAGE
  2
AcDbRasterImage
  3
ISM
 90
      127
 91
        4
280
     0
281
     1
  0
CLASS
  1
IMAGEDEF_REACTOR
  2
AcDbRasterImageDefReactor
  3
ISM
 90
        1
 91
        3
280
     0
281
     0
  0
CLASS
  1
DICTIONARYVAR
  2
AcDbDictionaryVar
  3
ObjectDBX Classes
 90
        0
 91
        3
280
     0
281
     0
  0
CLASS
  1
CELLSTYLEMAP
  2
AcDbCellStyleMap
  3
ObjectDBX Classes
 90
     1152
 91
        3
280
     0
281
     0
  0
ENDSEC
  0
SECTION
  2
TABLES
  0
TABLE
  2
VPORT
  5
8
330
0
100
AcDbSymbolTable
 70
     1
  0
VPORT
  5
29
330
8
100
AcDbSymbolTableRecord
100
AcDbViewportTableRecord
  2
*Active
 70
     0
 10
0.0
 20
0.0
 11
1.0
 21
1.0
 12
344.1869158879
 22
148.5
 13
0.0
 23
0.0
 14
10.0
 24
10.0
 15
10.0
 25
10.0
 16
0.0
 26
0.0
 36
1.0
 17
0.0
 27
0.0
 37
0.0
 40
297.0
 41
1.9729729729
 42
50.0
 43
0.0
 44
0.0
 50
0.0
 51
0.0
 71
     0
 72
   100
 73
     1
 74
     3
 75
     0
 76
     0
 77
     0
 78
     0
281
     0
 65
     1
110
0.0
120
0.0
130
0.0
111
1.0
121
0.0
131
0.0
112
0.0
122
1.0
132
0.0
 79
     0
146
0.0
348
2F
 60
     3
 61
     5
292
     1
282
     1
141
0.0
142
0.0
 63
   250
361
5D
  0
ENDTAB
  0
TABLE
  2
LTYPE
  5
5
330
0
100
AcDbSymbolTable
 70
     2
  0
LTYPE
  5
14
330
5
100
AcDbSymbolTableRecord
100
AcDbLinetypeTableRecord
  2
ByBlock
 70
     0
  3

 72
    65
 73
     0
 40
0.0
  0
LTYPE
  5
15
330
5
100
AcDbSymbolTableRecord
100
AcDbLinetypeTableRecord
  2
ByLayer
 70
     0
  3

 72
    65
 73
     0
 40
0.0
  0
LTYPE
  5
16
330
5
100
AcDbSymbolTableRecord
100
AcDbLinetypeTableRecord
  2
Continuous
 70
     0
  3
Solid line
 72
    65
 73
     0
 40
0.0
  0
LTYPE
  5
DF
330
5
100
AcDbSymbolTableRecord
100
AcDbLinetypeTableRecord
  2
CENTER2
 70
     0
  3
Center (.5x) ___ _ ___ _ ___ _ ___ _ ___ _ ___
 72
    65
 73
     4
 40
28.575
 49
19.05
 74
     4
 75
     0
340
0
 46
0.0
 50
0.0
 44
0.0
 45
0.0
 49
-3.175
 74
     4
 75
     0
340
0
 46
0.0
 50
0.0
 44
0.0
 45
0.0
 49
3.175
 74
     4
 75
     0
340
0
 46
0.0
 50
0.0
 44
0.0
 45
0.0
 49
-3.175
 74
     4
 75
     0
340
0
 46
0.0
 50
0.0
 44
0.0
 45
0.0
  0
ENDTAB
  0
TABLE
  2
LAYER
  5
2
330
0
100
AcDbSymbolTable
 70
    11
  0
LAYER
  5
10
330
2
100
AcDbSymbolTableRecord
100
AcDbLayerTableRecord
  2
0
 70
     0
 62
     7
  6
Continuous
370
    -3
390
F
347
46
  0
LAYER
  5
5E
330
2
100
AcDbSymbolTableRecord
100
AcDbLayerTableRecord
  2
Standard
 70
     0
 62
     7
  6
Continuous
370
    -3
390
F
347
46
  0
LAYER
  5
61
330
2
100
AcDbSymbolTableRecord
100
AcDbLayerTableRecord
  2
DV1_Füllung
 70
     1
 62
    -7
  6
Continuous
370
    -3
390
F
347
46
  0
LAYER
  5
73
330
2
100
AcDbSymbolTableRecord
100
AcDbLayerTableRecord
  2
D000121
 70
     0
 62
     7
  6
Continuous
370
    -3
390
F
347
46
  0
LAYER
  5
9E
330
2
100
AcDbSymbolTableRecord
100
AcDbLayerTableRecord
  2
D000122
 70
     0
 62
     7
  6
Continuous
370
    -3
390
F
347
46
  0
LAYER
  5
B9
330
2
100
AcDbSymbolTableRecord
100
AcDbLayerTableRecord
  2
D000123
 70
     0
 62
     7
  6
Continuous
370
    -3
390
F
347
46
  0
LAYER
  5
DE
330
2
100
AcDbSymbolTableRecord
100
AcDbLayerTableRecord
  2
DV1_Standard
 70
     0
 62
     7
  6
Continuous
370
    -3
390
F
347
46
  0
LAYER
  5
115
330
2
100
AcDbSymbolTableRecord
100
AcDbLayerTableRecord
  2
DV2_Füllung
 70
     1
 62
    -7
  6
Continuous
370
    -3
390
F
347
46
  0
LAYER
  5
18F
330
2
100
AcDbSymbolTableRecord
100
AcDbLayerTableRecord
  2
DV2_Standard
 70
     0
 62
     7
  6
Continuous
370
    -3
390
F
347
46
  0
LAYER
  5
193
330
2
100
AcDbSymbolTableRecord
100
AcDbLayerTableRecord
  2
Default
 70
     0
 62
     7
  6
Continuous
370
    -3
390
F
347
46
  0
LAYER
  5
1AA
330
2
100
AcDbSymbolTableRecord
100
AcDbLayerTableRecord
  2
Skizziergeometrie(DIN)
 70
     0
 62
     7
  6
Continuous
370
    -3
390
F
347
46
  0
ENDTAB
  0
TABLE
  2
STYLE
  5
3
330
0
100
AcDbSymbolTable
 70
     2
  0
STYLE
  5
11
330
3
100
AcDbSymbolTableRecord
100
AcDbTextStyleTableRecord
  2
Standard
 70
     0
 40
0.0
 41
1.0
 50
0.0
 71
     0
 42
3.0
  3
txt
  4

  0
STYLE
  5
F3
330
3
100
AcDbSymbolTableRecord
100
AcDbTextStyleTableRecord
  2
SEACAD_Arial
 70
     0
 40
0.0
 41
1.0
 50
0.0
 71
     0
 42
2.5
  3
arial.ttf
  4

1001
ACAD
1000
Arial
1071
        0
  0
ENDTAB
  0
TABLE
  2
VIEW
  5
6
330
0
100
AcDbSymbolTable
 70
     0
  0
ENDTAB
  0
TABLE
  2
UCS
  5
7
330
0
100
AcDbSymbolTable
 70
     0
  0
ENDTAB
  0
TABLE
  2
APPID
  5
9
330
0
100
AcDbSymbolTable
 70
     2
  0
APPID
  5
12
330
9
100
AcDbSymbolTableRecord
100
AcDbRegAppTableRecord
  2
ACAD
 70
     0
  0
APPID
  5
1EA
330
9
100
AcDbSymbolTableRecord
100
AcDbRegAppTableRecord
  2
ACAD_MLEADERVER
 70
     0
  0
ENDTAB
  0
TABLE
  2
DIMSTYLE
  5
A
330
0
100
AcDbSymbolTable
 70
     3
100
AcDbDimStyleTable
  0
DIMSTYLE
105
27
330
A
100
AcDbSymbolTableRecord
100
AcDbDimStyleTableRecord
  2
ISO-25
 70
     0
 41
2.5
 42
0.625
 43
3.75
 44
1.25
 73
     0
 74
     0
 77
     1
 78
     8
140
2.5
141
2.5
143
0.0393700787
147
0.625
171
     3
172
     1
178
     0
271
     2
272
     2
274
     3
278
    44
283
     0
284
     8
340
11
  0
DIMSTYLE
105
E3
330
A
100
AcDbSymbolTableRecord
100
AcDbDimStyleTableRecord
  2
Standard
 70
     0
178
     0
340
11
  0
DIMSTYLE
105
F4
102
{ACAD_REACTORS
330
F5
330
FF
330
107
102
}
330
A
100
AcDbSymbolTableRecord
100
AcDbDimStyleTableRecord
  2
E-Katalog
 70
     0
 41
3.75
 42
0.75
 44
1.25
 73
     0
 74
     0
 77
     1
 78
     8
140
2.5
141
1.25
143
0.0393700787
146
0.7
147
0.625
172
     1
173
     1
178
     0
271
     0
272
     3
278
    44
283
     0
284
     8
340
F3
343
ED
344
ED
  0
ENDTAB
  0
TABLE
  2
BLOCK_RECORD
  5
1
330
0
100
AcDbSymbolTable
 70
     8
  0
BLOCK_RECORD
  5
1F
330
1
100
AcDbSymbolTableRecord
100
AcDbBlockTableRecord
  2
*Model_Space
340
22
 70
     0
280
     1
281
     0
  0
BLOCK_RECORD
  5
1B
330
1
100
AcDbSymbolTableRecord
100
AcDbBlockTableRecord
  2
*Paper_Space
340
1E
 70
     0
280
     1
281
     0
  0
BLOCK_RECORD
  5
5F
330
1
100
AcDbSymbolTableRecord
100
AcDbBlockTableRecord
  2
SE
340
0
102
{BLKREFS
331
60
102
}
 70
     0
280
     1
281
     0
  0
BLOCK_RECORD
  5
E4
330
1
100
AcDbSymbolTableRecord
100
AcDbBlockTableRecord
  2
_Oblique
340
0
 70
     0
280
     1
281
     0
  0
BLOCK_RECORD
  5
E8
330
1
100
AcDbSymbolTableRecord
100
AcDbBlockTableRecord
  2
_Dot
340
0
 70
     0
280
     1
281
     0
  0
BLOCK_RECORD
  5
ED
330
1
100
AcDbSymbolTableRecord
100
AcDbBlockTableRecord
  2
_SE_OPEN
340
0
 70
     0
280
     1
281
     0
  0
BLOCK_RECORD
  5
F6
330
1
100
AcDbSymbolTableRecord
100
AcDbBlockTableRecord
  2
DMBLK394
340
0
 70
     0
280
     1
281
     0
  0
BLOCK_RECORD
  5
100
330
1
100
AcDbSymbolTableRecord
100
AcDbBlockTableRecord
  2
DMBLK395
340
0
 70
     0
280
     1
281
     0
  0
BLOCK_RECORD
  5
108
330
1
100
AcDbSymbolTableRecord
100
AcDbBlockTableRecord
  2
DMBLK396
340
0
 70
     0
280
     1
281
     0
  0
BLOCK_RECORD
  5
113
330
1
100
AcDbSymbolTableRecord
100
AcDbBlockTableRecord
  2
SE1
340
0
102
{BLKREFS
331
114
102
}
 70
     0
280
     1
281
     0
  0
ENDTAB
  0
ENDSEC
  0
SECTION
  2
BLOCKS
  0
BLOCK
  5
20
330
1F
100
AcDbEntity
  8
0
100
AcDbBlockBegin
  2
*Model_Space
 70
     0
 10
0.0
 20
0.0
 30
0.0
  3
*Model_Space
  1

  0
ENDBLK
  5
21
330
1F
100
AcDbEntity
  8
0
100
AcDbBlockEnd
  0
BLOCK
  5
1C
330
1B
100
AcDbEntity
 67
     1
  8
0
100
AcDbBlockBegin
  2
*Paper_Space
 70
     0
 10
0.0
 20
0.0
 30
0.0
  3
*Paper_Space
  1

  0
ENDBLK
  5
1D
330
1B
100
AcDbEntity
 67
     1
  8
0
100
AcDbBlockEnd
  0
BLOCK
  5
E1
330
5F
100
AcDbEntity
  8
0
100
AcDbBlockBegin
  2
SE
 70
     0
 10
0.0
 20
0.0
 30
0.0
  3
SE
  1

  0
HATCH
  5
62
330
5F
100
AcDbEntity
  8
DV1_Füllung
  6
Continuous
 62
     7
100
AcDbHatch
 10
0.0
 20
0.0
 30
0.0
210
0.0
220
0.0
230
1.0
  2
SOLID
 70
     1
 71
     0
 91
        1
 92
        1
 93
       36
 72
     2
 10
69.91785920736014
 20
172.7903429964586
 40
0.599999999999999
 50
200.0000000000012
 51
233.6549404883428
 73
     0
 72
     2
 10
73.41447537071703
 20
168.0381145290813
 40
6.499999999999999
 50
233.6549404883435
 51
306.3450595116568
 73
     0
 72
     2
 10
76.91109153407392
 20
172.7903429964586
 40
0.6000000000000005
 50
306.3450595116573
 51
339.9999999999989
 73
     0
 72
     1
 10
77.47490710654546
 20
172.995555082454
 11
78.38554938797445
 21
170.4935859770272
 72
     2
 10
78.949364960446
 20
170.6987980630226
 40
0.6000000000000005
 50
199.9999999999982
 51
229.9999999999993
 73
     1
 72
     1
 10
78.56369239463407
 20
170.2391713971512
 11
79.39846016973084
 21
169.5387180649488
 72
     2
 10
79.01278760391891
 20
169.0790913990774
 40
0.6000000000000001
 50
309.9999999999969
 51
386.3834013771083
 73
     0
 72
     1
 10
79.55029192416175
 20
168.8124659957111
 11
78.9467297367004
 21
167.5957129061717
 72
     2
 10
79.21548189682181
 20
167.4624002044886
 40
0.2999999999999999
 50
153.6165986228893
 51
180.0
 73
     1
 72
     1
 10
78.91548189682182
 20
167.4624002044886
 11
78.91548189682182
 21
167.1449859446604
 72
     2
 10
79.21548189682181
 20
167.1449859446604
 40
0.2999999999999999
 50
180.0
 51
224.970646758115
 73
     1
 72
     1
 10
79.00324121279431
 20
166.9329626156526
 11
79.61462027403297
 21
166.3209568011763
 72
     2
 10
79.33163269532965
 20
166.0382590291659
 40
0.4000000000000001
 50
315.029353241885
 51
405.029353241885
 73
     0
 72
     1
 10
79.61433046734
 20
165.7552714504626
 11
79.00245204170868
 21
165.1440196476104
 72
     2
 10
79.21447537071644
 20
164.9317789635829
 40
0.3000000000000004
 50
134.970646758117
 51
180.0
 73
     1
 72
     1
 10
78.91447537071645
 20
164.9317789635829
 11
78.91447537071645
 21
161.1381141258194
 72
     2
 10
79.51447549768308
 20
161.1381141258194
 40
0.6000001269666436
 50
180.0
 51
360.0
 73
     1
 72
     1
 10
80.11447562464973
 20
161.1381141258194
 11
80.11447549768309
 21
164.5971846805555
 72
     2
 10
80.41447549768307
 20
164.5971846805555
 40
0.2999999999999999
 50
180.0
 51
206.1769500575273
 73
     0
 72
     2
 10
73.41447537071703
 20
168.0381145290813
 40
7.500000000000001
 50
333.8230499424765
 51
566.1769500575231
 73
     1
 72
     2
 10
66.41447524375097
 20
164.5971846805556
 40
0.2999999999999995
 50
333.8230499424727
 51
359.9999999999999
 73
     0
 72
     1
 10
66.71447524375095
 20
164.5971846805556
 11
66.71447524374996
 21
161.1381141258196
 72
     2
 10
67.31447524374997
 20
161.1381141258194
 40
0.5999999999999999
 50
179.999999999981
 51
360.0
 73
     1
 72
     1
 10
67.91447524374996
 20
161.1381141258194
 11
67.9144753707164
 21
164.9324286957686
 72
     2
 10
67.6144753707164
 20
164.9324286957686
 40
0.2999999999999999
 50
0.0
 51
44.99999999999232
 73
     1
 72
     1
 10
67.8266074050724
 20
165.1445607301245
 11
67.215896726954
 21
165.755271408243
 72
     2
 10
67.49873943942865
 20
166.0381141207176
 40
0.4
 50
135.0000000000057
 51
225.0000000000057
 73
     0
 72
     1
 10
67.21589672695404
 20
166.3209568331923
 11
67.82660740507254
 21
166.9316675113107
 72
     2
 10
67.61447537071659
 20
167.1437995456666
 40
0.3000000000000004
 50
314.9999999999981
 51
359.9999999999945
 73
     1
 72
     1
 10
67.91447537071659
 20
167.1437995456666
 11
67.91447537071663
 21
167.4611003179657
 72
     2
 10
67.61447537071663
 20
167.4611003179657
 40
0.2999999999999999
 50
0.0
 51
26.39191786853659
 73
     1
 72
     1
 10
67.88320771216043
 20
167.5944529657165
 11
67.2787945574796
 21
168.8124667434436
 72
     2
 10
67.81625924036719
 20
169.0791720389452
 40
0.6000000000000004
 50
153.608082131461
 51
229.9999999999993
 73
     0
 72
     1
 10
67.43058667455526
 20
169.5387987048165
 11
68.26525834679998
 21
170.2391713971512
 72
     2
 10
67.87958578098805
 20
170.6987980630226
 40
0.6000000000000001
 50
310.0000000000007
 51
340.0000000000018
 73
     1
 72
     1
 10
68.4434013534596
 20
170.4935859770272
 11
69.35404363488858
 21
172.995555082454
 97
        0
 75
     0
 76
     1
 98
        0
  0
HATCH
  5
63
330
5F
100
AcDbEntity
  8
DV1_Füllung
  6
Continuous
 62
     7
100
AcDbHatch
 10
0.0
 20
0.0
 30
0.0
210
0.0
220
0.0
230
1.0
  2
SOLID
 70
     1
 71
     0
 91
        1
 92
        1
 93
       24
 72
     3
 10
72.49978756449609
 20
172.5381141258193
 11
2.168404344971009E-16
 21
-0.5000000000000004
 40
0.3057306814586597
 50
139.9701390146387
 51
180.0
 73
     1
 72
     1
 10
72.49978756449609
 20
173.0381141258193
 11
69.86457913982183
 21
173.0381141258193
 72
     2
 10
69.86457913982183
 20
172.5381141258193
 40
0.5000000000000022
 50
90.0
 51
159.9999999999999
 73
     1
 72
     1
 10
69.39473282942888
 20
172.7091241974821
 11
68.24057955078526
 21
169.5381141258193
 72
     1
 10
68.24057955078526
 20
169.5381141258192
 11
71.86447537071697
 21
169.5381141258192
 72
     1
 10
71.86447537071699
 20
169.5381141258192
 11
72.13749421017064
 21
169.5381141258192
 72
     1
 10
72.13749421017064
 20
169.5381141258192
 11
72.23267342225094
 21
169.4021841238035
 72
     3
 10
72.12660740507295
 20
169.2507061527877
 11
-2.168404344971009E-15
 21
0.214222201011317
 40
0.7002075382097086
 50
35.00000000000605
 51
90.00000000000058
 73
     0
 72
     1
 10
72.27660740507294
 20
169.2507061527877
 11
72.27660740507294
 21
168.9168979966373
 72
     1
 10
72.27660740507294
 20
168.9168979966373
 11
74.55234333636102
 21
168.9168979966373
 72
     1
 10
74.55234333636102
 20
168.9168979966373
 11
74.55234333636103
 21
169.2507061606207
 72
     3
 10
74.70234333636103
 20
169.2507061527877
 11
-2.168404344971009E-16
 21
-0.2142222010113179
 40
0.7002075382097077
 50
89.99999999999991
 51
144.9999999999941
 73
     0
 72
     1
 10
74.59627731918305
 20
169.4021841238035
 11
74.69145653126331
 21
169.5381141258193
 72
     1
 10
74.69145653126331
 20
169.5381141258193
 11
74.96447537071697
 21
169.5381141258192
 72
     1
 10
74.96447537071697
 20
169.5381141258192
 11
78.58837119064869
 21
169.5381141258192
 72
     1
 10
78.5883711906487
 20
169.5381141258192
 11
77.4342179120051
 21
172.7091241974821
 72
     2
 10
76.96437160161214
 20
172.5381141258193
 40
0.5000000000000022
 50
20.00000000000009
 51
90.0
 73
     1
 72
     1
 10
76.96437160161214
 20
173.0381141258193
 11
74.32916317693788
 21
173.0381141258193
 72
     3
 10
74.32916317693788
 20
172.5381141258193
 11
1.084202172485504E-16
 21
0.5000000000000022
 40
0.3057306814586604
 50
0.0
 51
40.02986098536152
 73
     1
 72
     1
 10
74.18551674428062
 20
172.7091241974821
 11
74.226511590658
 21
173.0775282261473
 72
     3
 10
74.4276165963782
 20
172.8381141258193
 11
-2.168404344971009E-16
 21
-0.6999999999999992
 40
0.3057306814586611
 50
139.9701390146379
 51
180.0
 73
     0
 72
     1
 10
74.4276165963782
 20
173.5381141258193
 11
72.40133414505578
 21
173.5381141258193
 72
     3
 10
72.40133414505578
 20
172.8381141258193
 11
1.517883041479706E-15
 21
0.7000000000000079
 40
0.3057306814586578
 50
0.0
 51
40.02986098535838
 73
     0
 72
     1
 10
72.60243915077596
 20
173.0775282261473
 11
72.64343399715337
 21
172.7091241974821
 97
        0
 75
     0
 76
     1
 98
        0
  0
HATCH
  5
64
330
5F
100
AcDbEntity
  8
DV1_Füllung
  6
Continuous
 62
     7
100
AcDbHatch
 10
0.0
 20
0.0
 30
0.0
210
0.0
220
0.0
230
1.0
  2
SOLID
 70
     1
 71
     0
 91
        1
 92
        1
 93
        6
 72
     1
 10
71.41447537071699
 20
173.0381141258193
 11
72.49978756449607
 21
173.0381141258193
 72
     3
 10
72.49978756449609
 20
172.5381141258193
 11
-2.168404344971009E-16
 21
0.5000000000000004
 40
0.3057306814586597
 50
0.0
 51
40.02986098536132
 73
     0
 72
     1
 10
72.64343399715335
 20
172.7091241974821
 11
72.60243915077596
 21
173.0775282261473
 72
     3
 10
72.40133414505578
 20
172.8381141258193
 11
-1.517883041479706E-15
 21
-0.7000000000000079
 40
0.3057306814586578
 50
139.9701390146416
 51
180.0000000000001
 73
     1
 72
     1
 10
72.40133414505578
 20
173.5381141258193
 11
71.41447537071699
 21
173.5381141258193
 72
     1
 10
71.41447537071699
 20
173.5381141258193
 11
71.41447537071699
 21
173.0381141258193
 97
        0
 75
     0
 76
     1
 98
        0
  0
HATCH
  5
65
330
5F
100
AcDbEntity
  8
DV1_Füllung
  6
Continuous
 62
     7
100
AcDbHatch
 10
0.0
 20
0.0
 30
0.0
210
0.0
220
0.0
230
1.0
  2
SOLID
 70
     1
 71
     0
 91
        1
 92
        1
 93
        6
 72
     1
 10
74.32916316412839
 20
173.0381141258193
 11
75.41447537071699
 21
173.0381141258193
 72
     1
 10
75.41447537071699
 20
173.0381141258193
 11
75.41447537071699
 21
173.5381141258193
 72
     1
 10
75.41447537071699
 20
173.5381141258193
 11
74.42761659637819
 21
173.5381141258193
 72
     3
 10
74.4276165963782
 20
172.8381141258193
 11
2.168404344971009E-16
 21
0.6999999999999992
 40
0.3057306814586611
 50
0.0
 51
40.02986098536218
 73
     1
 72
     1
 10
74.22651159065802
 20
173.0775282261473
 11
74.1855167442806
 21
172.7091241974821
 72
     3
 10
74.32916317693788
 20
172.5381141258193
 11
-1.084202172485504E-16
 21
-0.5000000000000022
 40
0.3057306814586604
 50
139.9701390146385
 51
180.0
 73
     0
 97
        0
 75
     0
 76
     1
 98
        0
  0
HATCH
  5
66
330
5F
100
AcDbEntity
  8
DV1_Füllung
  6
Continuous
 62
     7
100
AcDbHatch
 10
0.0
 20
0.0
 30
0.0
210
0.0
220
0.0
230
1.0
  2
SOLID
 70
     1
 71
     0
 91
        1
 92
        1
 93
        4
 72
     1
 10
74.55234333636103
 20
166.5381141258193
 11
74.55234333636103
 21
168.9168979966373
 72
     1
 10
74.55234333636103
 20
168.9168979966374
 11
72.27660740507295
 21
168.9168979966373
 72
     1
 10
72.27660740507294
 20
168.9168979966373
 11
72.27660740507294
 21
166.5381141258193
 72
     1
 10
72.27660740507294
 20
166.5381141258192
 11
74.55234333636102
 21
166.5381141258193
 97
        0
 75
     0
 76
     1
 98
        0
  0
HATCH
  5
67
330
5F
100
AcDbEntity
  8
DV1_Füllung
  6
Continuous
 62
     7
100
AcDbHatch
 10
0.0
 20
0.0
 30
0.0
210
0.0
220
0.0
230
1.0
  2
SOLID
 70
     1
 71
     0
 91
        1
 92
        1
 93
       10
 72
     1
 10
74.55234333636103
 20
166.5381141258193
 11
72.27660740507295
 21
166.5381141258193
 72
     1
 10
72.27660740507295
 20
166.5381141258193
 11
72.27660740507294
 21
166.2507061527877
 72
     3
 10
72.12660740507295
 20
166.2507061527877
 11
0.0
 21
0.2142222010113174
 40
0.7002075382097097
 50
90.0
 51
145.0000000000043
 73
     0
 72
     1
 10
72.23267342225093
 20
166.0992281817719
 11
71.86447537071699
 21
165.5733868683874
 72
     1
 10
71.86447537071699
 20
165.5733868683874
 11
71.86447537071699
 21
163.5381141258193
 72
     1
 10
71.86447537071699
 20
163.5381141258192
 11
74.964475370717
 21
163.5381141258193
 72
     1
 10
74.96447537071698
 20
163.5381141258193
 11
74.96447537071698
 21
165.5733868683873
 72
     1
 10
74.96447537071698
 20
165.5733868683874
 11
74.59627731918303
 21
166.0992281817719
 72
     3
 10
74.70234333636103
 20
166.2507061527877
 11
2.168404344971009E-16
 21
-0.2142222010113174
 40
0.7002075382097079
 50
34.99999999999567
 51
90.00001472479236
 73
     0
 72
     1
 10
74.55234333636103
 20
166.2507061913371
 11
74.55234333636103
 21
166.5381141258193
 97
        0
 75
     0
 76
     1
 98
        0
  0
HATCH
  5
68
330
5F
100
AcDbEntity
  8
DV1_Füllung
  6
Continuous
 62
     7
100
AcDbHatch
 10
0.0
 20
0.0
 30
0.0
210
0.0
220
0.0
230
1.0
  2
SOLID
 70
     1
 71
     0
 91
        1
 92
        1
 93
        9
 72
     2
 10
78.21447537071698
 20
166.0381141258193
 40
1.25
 50
332.878221522453
 51
387.2149006280872
 73
     1
 72
     1
 10
79.3260972057588
 20
166.6097756479268
 11
79.00324121279431
 21
166.9329626156527
 72
     2
 10
79.21548189682181
 20
167.1449859446604
 40
0.2999999999999999
 50
135.029353241885
 51
164.6859567885156
 73
     0
 72
     2
 10
78.21447537071698
 20
166.0381141258193
 40
1.25
 50
55.29669338545555
 51
58.66774850240581
 73
     1
 72
     1
 10
78.86447537071699
 20
167.1058219510224
 11
78.86447537071699
 21
166.5381141258193
 72
     1
 10
78.86447537071699
 20
166.5381141258193
 11
78.964475370717
 21
166.5381141258193
 72
     1
 10
78.964475370717
 20
166.5381141258193
 11
78.964475370717
 21
165.0976102031015
 72
     2
 10
79.21447537071644
 20
164.9317789635829
 40
0.3000000000000004
 50
213.557309762113
 51
225.0293532418831
 73
     0
 72
     1
 10
79.00245204170866
 20
165.1440196476104
 11
79.32702485182958
 21
165.4682600637331
 97
        0
 75
     0
 76
     1
 98
        0
  0
HATCH
  5
69
330
5F
100
AcDbEntity
  8
DV1_Füllung
  6
Continuous
 62
     7
100
AcDbHatch
 10
0.0
 20
0.0
 30
0.0
210
0.0
220
0.0
230
1.0
  2
SOLID
 70
     1
 71
     0
 91
        1
 92
        1
 93
        9
 72
     2
 10
68.61447537071697
 20
166.0381141258193
 40
1.25
 50
152.981628510034
 51
207.0183725612104
 73
     1
 72
     1
 10
67.50089924443725
 20
165.4702688907597
 11
67.8266074050724
 21
165.1445607301245
 72
     2
 10
67.6144753707164
 20
164.9324286957686
 40
0.2999999999999999
 50
315.0000000000077
 51
326.442690238277
 73
     0
 72
     1
 10
67.86447537071697
 20
165.0982599352855
 11
67.86447537071697
 21
166.5381141258193
 72
     1
 10
67.86447537071697
 20
166.5381141258193
 11
67.96447537071698
 21
166.5381141258193
 72
     1
 10
67.96447537071698
 20
166.5381141258193
 11
67.96447537071698
 21
167.1058219510224
 72
     2
 10
68.61447537071697
 20
166.0381141258193
 40
1.25
 50
121.3322514975936
 51
124.6124719347351
 73
     1
 72
     2
 10
67.61447537071659
 20
167.1437995456666
 40
0.3000000000000004
 50
14.85645704238392
 51
45.00000000000194
 73
     0
 72
     1
 10
67.82660740507254
 20
166.9316675113107
 11
67.50089923382039
 21
166.6059593400586
 97
        0
 75
     0
 76
     1
 98
        0
  0
HATCH
  5
6A
330
5F
100
AcDbEntity
  8
DV1_Füllung
  6
Continuous
 62
     7
100
AcDbHatch
 10
0.0
 20
0.0
 30
0.0
210
0.0
220
0.0
230
1.0
  2
SOLID
 70
     1
 71
     0
 91
        1
 92
        1
 93
       24
 72
     1
 10
68.01447537071698
 20
169.5381141258192
 11
68.01447537071698
 21
161.1777494712927
 72
     1
 10
68.01447537071698
 20
161.1777494712927
 11
68.014475370717
 21
160.5381141258193
 72
     1
 10
68.014475370717
 20
160.5381141258193
 11
71.84701268938659
 21
160.5381141258193
 72
     1
 10
71.84701268938657
 20
160.5381141258193
 11
71.85817756587218
 21
161.1777494712927
 72
     1
 10
71.8581775658722
 20
161.1777494712927
 11
71.8644677543148
 21
161.5381141258192
 72
     1
 10
71.86446775431479
 20
161.5381141258192
 11
74.96448298711917
 21
161.5381141258193
 72
     1
 10
74.96448298711918
 20
161.5381141258193
 11
74.97077317556179
 21
161.1777494712927
 72
     1
 10
74.97077317556177
 20
161.1777494712927
 11
74.9819380520474
 21
160.5381141258193
 72
     1
 10
74.98193805204741
 20
160.5381141258193
 11
78.81447537071699
 21
160.5381141258193
 72
     1
 10
78.81447537071698
 20
160.5381141258193
 11
78.81447537071698
 21
161.1777494712927
 72
     1
 10
78.81447537071698
 20
161.1777494712927
 11
78.81447537071699
 21
169.5381141258193
 72
     1
 10
78.81447537071699
 20
169.5381141258192
 11
74.96447537071698
 21
169.5381141258192
 72
     1
 10
74.96447537071698
 20
169.5381141258192
 11
74.96447537071698
 21
166.928025437188
 72
     1
 10
74.96447537071698
 20
166.928025437188
 11
74.59627731918303
 21
166.4021841238035
 72
     3
 10
74.70234333636103
 20
166.2507061527877
 11
-2.168404344971009E-16
 21
0.2142222010113174
 40
0.7002075382097079
 50
34.99999999999561
 51
145.0000000000043
 73
     1
 72
     1
 10
74.59627731918305
 20
166.0992281817719
 11
74.96447537071697
 21
165.5733868683873
 72
     1
 10
74.96447537071697
 20
165.5733868683874
 11
74.96447537071698
 21
163.5381141258193
 72
     1
 10
74.96447537071698
 20
163.5381141258192
 11
71.86447537071697
 21
163.5381141258193
 72
     1
 10
71.86447537071699
 20
163.5381141258193
 11
71.86447537071699
 21
165.5733868683874
 72
     1
 10
71.86447537071699
 20
165.5733868683874
 11
72.23267342225091
 21
166.0992281817719
 72
     3
 10
72.12660740507295
 20
166.2507061527877
 11
0.0
 21
-0.2142222010113174
 40
0.7002075382097097
 50
34.99999999999571
 51
145.0000000000043
 73
     1
 72
     1
 10
72.23267342225091
 20
166.4021841238035
 11
71.864475370717
 21
166.928025437188
 72
     1
 10
71.864475370717
 20
166.928025437188
 11
71.86447537071699
 21
169.5381141258193
 72
     1
 10
71.86447537071699
 20
169.5381141258193
 11
68.01447537071698
 21
169.5381141258192
 97
        0
 75
     0
 76
     1
 98
        0
  0
HATCH
  5
6B
330
5F
100
AcDbEntity
  8
DV1_Füllung
  6
Continuous
 62
     7
100
AcDbHatch
 10
0.0
 20
0.0
 30
0.0
210
0.0
220
0.0
230
1.0
  2
SOLID
 70
     1
 71
     0
 91
        1
 92
        1
 93
        6
 72
     1
 10
71.84701268938656
 20
160.5381141258193
 11
74.98193805204738
 21
160.5381141258193
 72
     1
 10
74.9819380520474
 20
160.5381141258193
 11
74.97077317556179
 21
161.1777494712927
 72
     1
 10
74.97077317556177
 20
161.1777494712927
 11
74.96448298711917
 21
161.5381141258192
 72
     1
 10
74.96448298711918
 20
161.5381141258192
 11
71.8644677543148
 21
161.5381141258193
 72
     1
 10
71.86446775431479
 20
161.5381141258193
 11
71.85817756587218
 21
161.1777494712927
 72
     1
 10
71.8581775658722
 20
161.1777494712927
 11
71.84701268938657
 21
160.5381141258193
 97
        0
 75
     0
 76
     1
 98
        0
  0
HATCH
  5
6C
330
5F
100
AcDbEntity
  8
DV1_Füllung
  6
Continuous
 62
     7
100
AcDbHatch
 10
0.0
 20
0.0
 30
0.0
210
0.0
220
0.0
230
1.0
  2
SOLID
 70
     1
 71
     0
 91
        1
 92
        1
 93
        9
 72
     1
 10
67.86447537071697
 20
166.5381141258193
 11
67.86447537071697
 21
165.0982599352855
 72
     2
 10
67.6144753707164
 20
164.9324286957686
 40
0.2999999999999999
 50
326.442690238277
 51
360.0000000000001
 73
     0
 72
     1
 10
67.9144753707164
 20
164.9324286957686
 11
67.91447537071643
 21
161.1381141258194
 72
     2
 10
67.31447524374997
 20
161.1381141258194
 40
0.5999999999999999
 50
0.0
 51
23.55643397159531
 73
     0
 72
     1
 10
67.86447537071697
 20
160.898322840873
 11
67.86447537071697
 21
160.5381141258193
 72
     1
 10
67.86447537071697
 20
160.5381141258193
 11
68.01447537071698
 21
160.5381141258193
 72
     1
 10
68.014475370717
 20
160.5381141258193
 11
68.014475370717
 21
161.1777494712927
 72
     1
 10
68.014475370717
 20
161.1777494712927
 11
68.01447537071698
 21
166.5381141258193
 72
     1
 10
68.01447537071698
 20
166.5381141258192
 11
67.86447537071699
 21
166.5381141258193
 97
        0
 75
     0
 76
     1
 98
        0
  0
HATCH
  5
6D
330
5F
100
AcDbEntity
  8
DV1_Füllung
  6
Continuous
 62
     7
100
AcDbHatch
 10
0.0
 20
0.0
 30
0.0
210
0.0
220
0.0
230
1.0
  2
SOLID
 70
     1
 71
     0
 91
        1
 92
        1
 93
        7
 72
     1
 10
72.27660740507294
 20
166.2507061527877
 11
72.27660740507294
 21
169.2507061527877
 72
     3
 10
72.12660740507295
 20
169.2507061527877
 11
2.168404344971009E-15
 21
-0.214222201011317
 40
0.7002075382097086
 50
89.99999999999942
 51
144.9999999999939
 73
     1
 72
     1
 10
72.23267342225093
 20
169.4021841238035
 11
72.13749421017066
 21
169.5381141258193
 72
     1
 10
72.13749421017066
 20
169.5381141258193
 11
71.86447537071702
 21
169.5381141258192
 72
     1
 10
71.86447537071702
 20
169.5381141258192
 11
71.86447537071699
 21
166.928025437188
 72
     1
 10
71.86447537071699
 20
166.928025437188
 11
72.23267342225094
 21
166.4021841238035
 72
     3
 10
72.12660740507295
 20
166.2507061527877
 11
0.0
 21
0.2142222010113174
 40
0.7002075382097097
 50
34.99999999999569
 51
90.0
 73
     0
 97
        0
 75
     0
 76
     1
 98
        0
  0
HATCH
  5
6E
330
5F
100
AcDbEntity
  8
DV1_Füllung
  6
Continuous
 62
     7
100
AcDbHatch
 10
0.0
 20
0.0
 30
0.0
210
0.0
220
0.0
230
1.0
  2
SOLID
 70
     1
 71
     0
 91
        1
 92
        1
 93
        7
 72
     1
 10
74.55234333636103
 20
169.2507061527877
 11
74.55234333636103
 21
166.2507061527877
 72
     3
 10
74.70234333636103
 20
166.2507061527877
 11
2.168404344971009E-16
 21
-0.2142222010113174
 40
0.7002075382097079
 50
90.00001472479236
 51
145.0000000000044
 73
     0
 72
     1
 10
74.59627731918306
 20
166.4021841238035
 11
74.96447537071697
 21
166.928025437188
 72
     1
 10
74.96447537071697
 20
166.928025437188
 11
74.96447537071698
 21
169.5381141258192
 72
     1
 10
74.96447537071698
 20
169.5381141258192
 11
74.69145653126334
 21
169.5381141258192
 72
     1
 10
74.69145653126334
 20
169.5381141258192
 11
74.59627731918305
 21
169.4021841238035
 72
     3
 10
74.70234333636103
 20
169.2507061527877
 11
2.168404344971009E-16
 21
0.2142222010113179
 40
0.7002075382097077
 50
35.00000000000588
 51
90.00000000000006
 73
     1
 97
        0
 75
     0
 76
     1
 98
        0
  0
HATCH
  5
6F
330
5F
100
AcDbEntity
  8
DV1_Füllung
  6
Continuous
 62
     7
100
AcDbHatch
 10
0.0
 20
0.0
 30
0.0
210
0.0
220
0.0
230
1.0
  2
SOLID
 70
     1
 71
     0
 91
        1
 92
        1
 93
        9
 72
     1
 10
78.81447537071699
 20
166.5381141258192
 11
78.81447537071699
 21
161.1777494712927
 72
     1
 10
78.81447537071699
 20
161.1777494712927
 11
78.81447537071698
 21
160.5381141258193
 72
     1
 10
78.81447537071698
 20
160.5381141258193
 11
78.96447537071698
 21
160.5381141258193
 72
     1
 10
78.964475370717
 20
160.5381141258193
 11
78.964475370717
 21
160.8983228408709
 72
     2
 10
79.51447549768308
 20
161.1381141258194
 40
0.6000001269666436
 50
156.4435382188803
 51
180.0
 73
     0
 72
     1
 10
78.91447537071643
 20
161.1381141258194
 11
78.91447537071645
 21
164.9317789635829
 72
     2
 10
79.21447537071644
 20
164.9317789635829
 40
0.3000000000000004
 50
180.0
 51
213.5573097621129
 73
     0
 72
     1
 10
78.964475370717
 20
165.0976102031015
 11
78.964475370717
 21
166.5381141258193
 72
     1
 10
78.964475370717
 20
166.5381141258193
 11
78.814475370717
 21
166.5381141258193
 97
        0
 75
     0
 76
     1
 98
        0
  0
HATCH
  5
70
330
5F
100
AcDbEntity
  8
DV1_Füllung
  6
Continuous
 62
     7
100
AcDbHatch
 10
0.0
 20
0.0
 30
0.0
210
0.0
220
0.0
230
1.0
  2
SOLID
 70
     1
 71
     0
 91
        1
 92
        1
 93
        4
 72
     1
 10
78.86447537071699
 20
166.5381141258193
 11
78.86447537071699
 21
167.1058219510224
 72
     2
 10
78.21447537071698
 20
166.0381141258193
 40
1.25
 50
58.66774850240581
 51
61.31459798588121
 73
     1
 72
     1
 10
78.81447537071698
 20
167.1346997357923
 11
78.81447537071699
 21
166.5381141258192
 72
     1
 10
78.81447537071699
 20
166.5381141258192
 11
78.86447537071699
 21
166.5381141258193
 97
        0
 75
     0
 76
     1
 98
        0
  0
HATCH
  5
71
330
5F
100
AcDbEntity
  8
DV1_Füllung
  6
Continuous
 62
     7
100
AcDbHatch
 10
0.0
 20
0.0
 30
0.0
210
0.0
220
0.0
230
1.0
  2
SOLID
 70
     1
 71
     0
 91
        1
 92
        1
 93
       24
 72
     1
 10
68.01447537071698
 20
169.5381141258192
 11
68.01447537071698
 21
161.1777494712927
 72
     1
 10
68.01447537071698
 20
161.1777494712927
 11
68.014475370717
 21
160.5381141258193
 72
     1
 10
68.014475370717
 20
160.5381141258193
 11
71.84701268938659
 21
160.5381141258193
 72
     1
 10
71.84701268938657
 20
160.5381141258193
 11
71.85817756587218
 21
161.1777494712927
 72
     1
 10
71.8581775658722
 20
161.1777494712927
 11
71.8644677543148
 21
161.5381141258192
 72
     1
 10
71.86446775431479
 20
161.5381141258192
 11
74.96448298711917
 21
161.5381141258193
 72
     1
 10
74.96448298711918
 20
161.5381141258193
 11
74.97077317556179
 21
161.1777494712927
 72
     1
 10
74.97077317556177
 20
161.1777494712927
 11
74.9819380520474
 21
160.5381141258193
 72
     1
 10
74.98193805204741
 20
160.5381141258193
 11
78.81447537071699
 21
160.5381141258193
 72
     1
 10
78.81447537071698
 20
160.5381141258193
 11
78.81447537071698
 21
161.1777494712927
 72
     1
 10
78.81447537071698
 20
161.1777494712927
 11
78.81447537071699
 21
169.5381141258193
 72
     1
 10
78.81447537071699
 20
169.5381141258192
 11
74.96447537071698
 21
169.5381141258192
 72
     1
 10
74.96447537071698
 20
169.5381141258192
 11
74.96447537071698
 21
166.928025437188
 72
     1
 10
74.96447537071698
 20
166.928025437188
 11
74.59627731918303
 21
166.4021841238035
 72
     3
 10
74.70234333636103
 20
166.2507061527877
 11
-2.168404344971009E-16
 21
0.2142222010113174
 40
0.7002075382097079
 50
34.99999999999561
 51
145.0000000000043
 73
     1
 72
     1
 10
74.59627731918305
 20
166.0992281817719
 11
74.96447537071697
 21
165.5733868683873
 72
     1
 10
74.96447537071697
 20
165.5733868683874
 11
74.96447537071698
 21
163.5381141258193
 72
     1
 10
74.96447537071698
 20
163.5381141258192
 11
71.86447537071697
 21
163.5381141258193
 72
     1
 10
71.86447537071699
 20
163.5381141258193
 11
71.86447537071699
 21
165.5733868683874
 72
     1
 10
71.86447537071699
 20
165.5733868683874
 11
72.23267342225091
 21
166.0992281817719
 72
     3
 10
72.12660740507295
 20
166.2507061527877
 11
0.0
 21
-0.2142222010113174
 40
0.7002075382097097
 50
34.99999999999571
 51
145.0000000000043
 73
     1
 72
     1
 10
72.23267342225091
 20
166.4021841238035
 11
71.864475370717
 21
166.928025437188
 72
     1
 10
71.864475370717
 20
166.928025437188
 11
71.86447537071699
 21
169.5381141258193
 72
     1
 10
71.86447537071699
 20
169.5381141258193
 11
68.01447537071698
 21
169.5381141258192
 97
        0
 75
     0
 76
     1
 98
        0
  0
HATCH
  5
72
330
5F
100
AcDbEntity
  8
DV1_Füllung
  6
Continuous
 62
     7
100
AcDbHatch
 10
0.0
 20
0.0
 30
0.0
210
0.0
220
0.0
230
1.0
  2
SOLID
 70
     1
 71
     0
 91
        1
 92
        1
 93
        4
 72
     1
 10
67.96447537071698
 20
167.1058219510224
 11
67.96447537071698
 21
166.5381141258193
 72
     1
 10
67.96447537071698
 20
166.5381141258193
 11
68.01447537071698
 21
166.5381141258193
 72
     1
 10
68.01447537071698
 20
166.5381141258193
 11
68.01447537071698
 21
167.1346997357923
 72
     2
 10
68.61447537071697
 20
166.0381141258193
 40
1.25
 50
118.6854020141182
 51
121.3322514975936
 73
     1
 97
        0
 75
     0
 76
     1
 98
        0
  0
LINE
  5
74
330
5F
100
AcDbEntity
  8
D000121
  6
Continuous
 62
     7
100
AcDbLine
 10
78.8144753707
 20
169.5381141258
 30
0.0
 11
78.8144753707
 21
161.1777494713
 31
0.0
  0
LINE
  5
75
330
5F
100
AcDbEntity
  8
D000121
  6
Continuous
 62
     7
100
AcDbLine
 10
78.8144753707
 20
161.1777494713
 30
0.0
 11
78.8144753707
 21
160.5381141258
 31
0.0
  0
LINE
  5
76
330
5F
100
AcDbEntity
  8
D000121
  6
Continuous
 62
     7
100
AcDbLine
 10
71.8644677543
 20
161.5381141258
 30
0.0
 11
74.9644829871
 21
161.5381141258
 31
0.0
  0
LINE
  5
77
330
5F
100
AcDbEntity
  8
D000121
  6
Continuous
 62
     7
100
AcDbLine
 10
74.9644753707
 20
163.5381141258
 30
0.0
 11
71.8644753707
 21
163.5381141258
 31
0.0
  0
LINE
  5
78
330
5F
100
AcDbEntity
  8
D000121
  6
Continuous
 62
     7
100
AcDbLine
 10
68.0144753707
 20
160.5381141258
 30
0.0
 11
68.0144753707
 21
161.1777494713
 31
0.0
  0
LINE
  5
79
330
5F
100
AcDbEntity
  8
D000121
  6
Continuous
 62
     7
100
AcDbLine
 10
68.0144753707
 20
169.5381141258
 30
0.0
 11
68.0144753707
 21
161.1777494713
 31
0.0
  0
LINE
  5
7A
330
5F
100
AcDbEntity
  8
D000121
  6
Continuous
 62
     7
100
AcDbLine
 10
67.8644753707
 20
160.5381141258
 30
0.0
 11
68.0144753707
 21
160.5381141258
 31
0.0
  0
LINE
  5
7B
330
5F
100
AcDbEntity
  8
D000121
  6
Continuous
 62
     7
100
AcDbLine
 10
78.8144753707
 20
160.5381141258
 30
0.0
 11
78.9644753707
 21
160.5381141258
 31
0.0
  0
LINE
  5
7C
330
5F
100
AcDbEntity
  8
D000121
  6
Continuous
 62
     7
100
AcDbLine
 10
78.8144753707
 20
160.5381141258
 30
0.0
 11
74.981938052
 21
160.5381141258
 31
0.0
  0
LINE
  5
7D
330
5F
100
AcDbEntity
  8
D000121
  6
Continuous
 62
     7
100
AcDbLine
 10
74.981938052
 20
160.5381141258
 30
0.0
 11
71.8470126894
 21
160.5381141258
 31
0.0
  0
LINE
  5
7E
330
5F
100
AcDbEntity
  8
D000121
  6
Continuous
 62
     7
100
AcDbLine
 10
71.8470126894
 20
160.5381141258
 30
0.0
 11
68.0144753707
 21
160.5381141258
 31
0.0
  0
LINE
  5
7F
330
5F
100
AcDbEntity
  8
D000121
  6
Continuous
 62
     7
100
AcDbLine
 10
71.8644753707
 20
169.5381141258
 30
0.0
 11
72.1374942102
 21
169.5381141258
 31
0.0
  0
LINE
  5
80
330
5F
100
AcDbEntity
  8
D000121
  6
Continuous
 62
     7
100
AcDbLine
 10
71.8644753707
 20
169.5381141258
 30
0.0
 11
68.0144753707
 21
169.5381141258
 31
0.0
  0
LINE
  5
81
330
5F
100
AcDbEntity
  8
D000121
  6
Continuous
 62
     7
100
AcDbLine
 10
72.2326734223
 20
166.4021841238
 30
0.0
 11
71.8644753707
 21
166.9280254372
 31
0.0
  0
LINE
  5
82
330
5F
100
AcDbEntity
  8
D000121
  6
Continuous
 62
     7
100
AcDbLine
 10
72.2326734223
 20
169.4021841238
 30
0.0
 11
72.1374942102
 21
169.5381141258
 31
0.0
  0
LINE
  5
83
330
5F
100
AcDbEntity
  8
D000121
  6
Continuous
 62
     7
100
AcDbLine
 10
71.8644753707
 20
165.5733868684
 30
0.0
 11
72.2326734223
 21
166.0992281818
 31
0.0
  0
ELLIPSE
  5
84
330
5F
100
AcDbEntity
  8
D000121
  6
Continuous
 62
     7
100
AcDbEllipse
 10
72.1266074051
 20
166.2507061528
 30
0.0
 11
0.0
 21
-0.2142222010113174
 31
0.0
210
0.0
220
0.0
230
1.0
 40
0.7002075382
 41
0.7853981633973683
 42
2.356194490192425
  0
ELLIPSE
  5
85
330
5F
100
AcDbEntity
  8
D000121
  6
Continuous
 62
     7
100
AcDbEllipse
 10
72.1266074051
 20
169.2507061528
 30
0.0
 11
2.168404344971009E-15
 21
-0.214222201011317
 31
0.0
210
0.0
220
0.0
230
1.0
 40
0.7002075382
 41
1.570796326794889
 42
2.356194490192232
  0
LINE
  5
86
330
5F
100
AcDbEntity
  8
D000121
  6
Continuous
 62
     7
100
AcDbLine
 10
71.8644753707
 20
166.9280254372
 30
0.0
 11
71.8644753707
 21
169.5381141258
 31
0.0
  0
LINE
  5
87
330
5F
100
AcDbEntity
  8
D000121
  6
Continuous
 62
     7
100
AcDbLine
 10
74.6914565313
 20
169.5381141258
 30
0.0
 11
74.9644753707
 21
169.5381141258
 31
0.0
  0
LINE
  5
88
330
5F
100
AcDbEntity
  8
D000121
  6
Continuous
 62
     7
100
AcDbLine
 10
78.8144753707
 20
169.5381141258
 30
0.0
 11
74.9644753707
 21
169.5381141258
 31
0.0
  0
LINE
  5
89
330
5F
100
AcDbEntity
  8
D000121
  6
Continuous
 62
     7
100
AcDbLine
 10
74.9644753707
 20
166.9280254372
 30
0.0
 11
74.5962773192
 21
166.4021841238
 31
0.0
  0
LINE
  5
8A
330
5F
100
AcDbEntity
  8
D000121
  6
Continuous
 62
     7
100
AcDbLine
 10
74.6914565313
 20
169.5381141258
 30
0.0
 11
74.5962773192
 21
169.4021841238
 31
0.0
  0
LINE
  5
8B
330
5F
100
AcDbEntity
  8
D000121
  6
Continuous
 62
     7
100
AcDbLine
 10
74.5962773192
 20
166.0992281818
 30
0.0
 11
74.9644753707
 21
165.5733868684
 31
0.0
  0
ELLIPSE
  5
8C
330
5F
100
AcDbEntity
  8
D000121
  6
Continuous
 62
     7
100
AcDbEllipse
 10
74.7023433364
 20
166.2507061528
 30
0.0
 11
-2.168404344971009E-16
 21
0.2142222010113174
 31
0.0
210
0.0
220
0.0
230
1.0
 40
0.7002075382
 41
0.7853981633973683
 42
2.356194490192424
  0
ELLIPSE
  5
8D
330
5F
100
AcDbEntity
  8
D000121
  6
Continuous
 62
     7
100
AcDbEllipse
 10
74.7023433364
 20
169.2507061528
 30
0.0
 11
2.168404344971009E-16
 21
0.2142222010113179
 31
0.0
210
0.0
220
0.0
230
1.0
 40
0.7002075382
 41
0.7853981633975593
 42
1.570796326794897
  0
LINE
  5
8E
330
5F
100
AcDbEntity
  8
D000121
  6
Continuous
 62
     7
100
AcDbLine
 10
74.9644753707
 20
169.5381141258
 30
0.0
 11
74.9644753707
 21
166.9280254372
 31
0.0
  0
LINE
  5
8F
330
5F
100
AcDbEntity
  8
D000121
  6
Continuous
 62
     7
100
AcDbLine
 10
74.9707731756
 20
161.1777494713
 30
0.0
 11
74.9644829871
 21
161.5381141258
 31
0.0
  0
LINE
  5
90
330
5F
100
AcDbEntity
  8
D000121
  6
Continuous
 62
     7
100
AcDbLine
 10
74.9644753707
 20
165.5733868684
 30
0.0
 11
74.9644753707
 21
163.5381141258
 31
0.0
  0
LINE
  5
91
330
5F
100
AcDbEntity
  8
D000121
  6
Continuous
 62
     7
100
AcDbLine
 10
71.8644753707
 20
163.5381141258
 30
0.0
 11
71.8644753707
 21
165.5733868684
 31
0.0
  0
LINE
  5
92
330
5F
100
AcDbEntity
  8
D000121
  6
Continuous
 62
     7
100
AcDbLine
 10
71.8644677543
 20
161.5381141258
 30
0.0
 11
71.8581775659
 21
161.1777494713
 31
0.0
  0
LINE
  5
93
330
5F
100
AcDbEntity
  8
D000121
  6
Continuous
 62
     7
100
AcDbLine
 10
71.8581775659
 20
161.1777494713
 30
0.0
 11
71.8470126894
 21
160.5381141258
 31
0.0
  0
LINE
  5
94
330
5F
100
AcDbEntity
  8
D000121
  6
Continuous
 62
     7
100
AcDbLine
 10
74.981938052
 20
160.5381141258
 30
0.0
 11
74.9707731756
 21
161.1777494713
 31
0.0
  0
LINE
  5
95
330
5F
100
AcDbEntity
  8
D000121
  6
Continuous
 62
     7
100
AcDbLine
 10
72.2766074051
 20
166.5381141258
 30
0.0
 11
74.5523433364
 21
166.5381141258
 31
0.0
  0
LINE
  5
96
330
5F
100
AcDbEntity
  8
D000121
  6
Continuous
 62
     7
100
AcDbLine
 10
67.8644753707
 20
166.5381141258
 30
0.0
 11
68.0144753707
 21
166.5381141258
 31
0.0
  0
LINE
  5
97
330
5F
100
AcDbEntity
  8
D000121
  6
Continuous
 62
     7
100
AcDbLine
 10
78.8144753707
 20
166.5381141258
 30
0.0
 11
78.9644753707
 21
166.5381141258
 31
0.0
  0
LINE
  5
98
330
5F
100
AcDbEntity
  8
D000121
  6
Continuous
 62
     7
100
AcDbLine
 10
78.9644753707
 20
166.5381141258
 30
0.0
 11
78.9644753707
 21
165.0976102031
 31
0.0
  0
LINE
  5
99
330
5F
100
AcDbEntity
  8
D000121
  6
Continuous
 62
     7
100
AcDbLine
 10
78.9644753707
 20
160.8983228409
 30
0.0
 11
78.9644753707
 21
160.5381141258
 31
0.0
  0
LINE
  5
9A
330
5F
100
AcDbEntity
  8
D000121
  6
Continuous
 62
     7
100
AcDbLine
 10
67.8644753707
 20
166.5381141258
 30
0.0
 11
67.8644753707
 21
165.0982599353
 31
0.0
  0
LINE
  5
9B
330
5F
100
AcDbEntity
  8
D000121
  6
Continuous
 62
     7
100
AcDbLine
 10
67.8644753707
 20
160.8983228409
 30
0.0
 11
67.8644753707
 21
160.5381141258
 31
0.0
  0
LINE
  5
9C
330
5F
100
AcDbEntity
  8
D000121
  6
Continuous
 62
     7
100
AcDbLine
 10
72.2766074051
 20
166.2507061528
 30
0.0
 11
72.2766074051
 21
169.2507061528
 31
0.0
  0
LINE
  5
9D
330
5F
100
AcDbEntity
  8
D000121
  6
Continuous
 62
     7
100
AcDbLine
 10
74.5523433364
 20
169.2507061528
 30
0.0
 11
74.5523433364
 21
166.2507061528
 31
0.0
  0
LINE
  5
9F
330
5F
100
AcDbEntity
  8
D000122
  6
Continuous
 62
     7
100
AcDbLine
 10
71.4144753707
 20
173.0381141258
 30
0.0
 11
71.4144753707
 21
173.5381141258
 31
0.0
  0
LINE
  5
A0
330
5F
100
AcDbEntity
  8
D000122
  6
Continuous
 62
     7
100
AcDbLine
 10
75.4144753707
 20
173.5381141258
 30
0.0
 11
75.4144753707
 21
173.0381141258
 31
0.0
  0
ELLIPSE
  5
A1
330
5F
100
AcDbEntity
  8
D000122
  6
Continuous
 62
     7
100
AcDbEllipse
 10
72.4997875645
 20
172.5381141258
 30
0.0
 11
2.168404344971009E-16
 21
-0.5000000000000004
 31
0.0
210
0.0
220
0.0
230
1.0
 40
0.3057306815
 41
1.919862177193763
 42
3.141592653589793
  0
LINE
  5
A2
330
5F
100
AcDbEntity
  8
D000122
  6
Continuous
 62
     7
100
AcDbLine
 10
69.8645791398
 20
173.0381141258
 30
0.0
 11
72.4997875645
 21
173.0381141258
 31
0.0
  0
ARC
  5
A3
330
5F
100
AcDbEntity
  8
D000122
  6
Continuous
 62
     7
100
AcDbCircle
 10
69.8645791398
 20
172.5381141258
 30
0.0
 40
0.5000000000000022
100
AcDbArc
 50
90.0
 51
160.0
  0
LINE
  5
A4
330
5F
100
AcDbEntity
  8
D000122
  6
Continuous
 62
     7
100
AcDbLine
 10
72.6024391508
 20
173.0775282261
 30
0.0
 11
72.6434339972
 21
172.7091241975
 31
0.0
  0
ELLIPSE
  5
A5
330
5F
100
AcDbEntity
  8
D000122
  6
Continuous
 62
     7
100
AcDbEllipse
 10
72.4013341451
 20
172.8381141258
 30
0.0
 11
-1.517883041479706E-15
 21
-0.7000000000000079
 31
0.0
210
0.0
220
0.0
230
1.0
 40
0.3057306815
 41
1.919862177193794
 42
3.1415926535898
  0
LINE
  5
A6
330
5F
100
AcDbEntity
  8
D000122
  6
Continuous
 62
     7
100
AcDbLine
 10
72.4013341451
 20
173.5381141258
 30
0.0
 11
71.4144753707
 21
173.5381141258
 31
0.0
  0
LINE
  5
A7
330
5F
100
AcDbEntity
  8
D000122
  6
Continuous
 62
     7
100
AcDbLine
 10
72.4013341451
 20
173.5381141258
 30
0.0
 11
74.4276165964
 21
173.5381141258
 31
0.0
  0
LINE
  5
A8
330
5F
100
AcDbEntity
  8
D000122
  6
Continuous
 62
     7
100
AcDbLine
 10
75.4144753707
 20
173.5381141258
 30
0.0
 11
74.4276165964
 21
173.5381141258
 31
0.0
  0
LINE
  5
A9
330
5F
100
AcDbEntity
  8
D000122
  6
Continuous
 62
     7
100
AcDbLine
 10
74.3291631769
 20
173.0381141258
 30
0.0
 11
76.9643716016
 21
173.0381141258
 31
0.0
  0
LINE
  5
AA
330
5F
100
AcDbEntity
  8
D000122
  6
Continuous
 62
     7
100
AcDbLine
 10
78.8644753707
 20
166.5381141258
 30
0.0
 11
78.8644753707
 21
167.105821951
 31
0.0
  0
ARC
  5
AB
330
5F
100
AcDbEntity
  8
D000122
  6
Continuous
 62
     7
100
AcDbCircle
 10
78.2144753707
 20
166.0381141258
 30
0.0
 40
1.25
100
AcDbArc
 50
58.6677485024
 51
61.3145979859
  0
LINE
  5
AC
330
5F
100
AcDbEntity
  8
D000122
  6
Continuous
 62
     7
100
AcDbLine
 10
74.5523433364
 20
168.9168979966
 30
0.0
 11
72.2766074051
 21
168.9168979966
 31
0.0
  0
ARC
  5
AD
330
5F
100
AcDbEntity
  8
D000122
  6
Continuous
 62
     7
100
AcDbCircle
 10
68.6144753707
 20
166.0381141258
 30
0.0
 40
1.25
100
AcDbArc
 50
118.6854020141
 51
121.3322514976
  0
LINE
  5
AE
330
5F
100
AcDbEntity
  8
D000122
  6
Continuous
 62
     7
100
AcDbLine
 10
67.9644753707
 20
167.105821951
 30
0.0
 11
67.9644753707
 21
166.5381141258
 31
0.0
  0
ELLIPSE
  5
AF
330
5F
100
AcDbEntity
  8
D000122
  6
Continuous
 62
     7
100
AcDbEllipse
 10
74.3291631769
 20
172.5381141258
 30
0.0
 11
1.084202172485504E-16
 21
0.5000000000000022
 31
0.0
210
0.0
220
0.0
230
1.0
 40
0.3057306815
 41
0.0
 42
1.221730476396032
  0
ARC
  5
B0
330
5F
100
AcDbEntity
  8
D000122
  6
Continuous
 62
     7
100
AcDbCircle
 10
76.9643716016
 20
172.5381141258
 30
0.0
 40
0.5000000000000022
100
AcDbArc
 50
20.0
 51
90.0
  0
LINE
  5
B1
330
5F
100
AcDbEntity
  8
D000122
  6
Continuous
 62
     7
100
AcDbLine
 10
74.2265115907
 20
173.0775282261
 30
0.0
 11
74.1855167443
 21
172.7091241975
 31
0.0
  0
LINE
  5
B2
330
5F
100
AcDbEntity
  8
D000122
  6
Continuous
 62
     7
100
AcDbLine
 10
69.3947328294
 20
172.7091241975
 30
0.0
 11
68.2405795508
 21
169.5381141258
 31
0.0
  0
LINE
  5
B3
330
5F
100
AcDbEntity
  8
D000122
  6
Continuous
 62
     7
100
AcDbLine
 10
78.5883711906
 20
169.5381141258
 30
0.0
 11
77.434217912
 21
172.7091241975
 31
0.0
  0
ARC
  5
B4
330
5F
100
AcDbEntity
  8
D000122
  6
Continuous
 62
     7
100
AcDbCircle
 10
68.6144753707
 20
166.0381141258
 30
0.0
 40
1.25
100
AcDbArc
 50
121.3322514976
 51
124.6124719347
  0
ARC
  5
B5
330
5F
100
AcDbEntity
  8
D000122
  6
Continuous
 62
     7
100
AcDbCircle
 10
68.6144753707
 20
166.0381141258
 30
0.0
 40
1.25
100
AcDbArc
 50
152.98162851
 51
207.0183725612
  0
ARC
  5
B6
330
5F
100
AcDbEntity
  8
D000122
  6
Continuous
 62
     7
100
AcDbCircle
 10
78.2144753707
 20
166.0381141258
 30
0.0
 40
1.25
100
AcDbArc
 50
332.8782215225
 51
27.2149006281
  0
ARC
  5
B7
330
5F
100
AcDbEntity
  8
D000122
  6
Continuous
 62
     7
100
AcDbCircle
 10
78.2144753707
 20
166.0381141258
 30
0.0
 40
1.25
100
AcDbArc
 50
55.2966933855
 51
58.6677485024
  0
ELLIPSE
  5
B8
330
5F
100
AcDbEntity
  8
D000122
  6
Continuous
 62
     7
100
AcDbEllipse
 10
74.4276165964
 20
172.8381141258
 30
0.0
 11
2.168404344971009E-16
 21
0.6999999999999993
 31
0.0
210
0.0
220
0.0
230
1.0
 40
0.3057306815
 41
0.000000000000001
 42
1.221730476396039
  0
LINE
  5
BA
330
5F
100
AcDbEntity
  8
D000123
  6
Continuous
 62
     7
100
AcDbLine
 10
67.215896727
 20
165.7552714082
 30
0.0
 11
67.8266074051
 21
165.1445607301
 31
0.0
  0
ARC
  5
BB
330
5F
100
AcDbEntity
  8
D000123
  6
Continuous
 62
     7
100
AcDbCircle
 10
67.4987394394
 20
166.0381141207
 30
0.0
 40
0.4
100
AcDbArc
 50
135.0
 51
225.0
  0
LINE
  5
BC
330
5F
100
AcDbEntity
  8
D000123
  6
Continuous
 62
     7
100
AcDbLine
 10
79.614620274
 20
166.3209568012
 30
0.0
 11
79.0032412128
 21
166.9329626157
 31
0.0
  0
ARC
  5
BD
330
5F
100
AcDbEntity
  8
D000123
  6
Continuous
 62
     7
100
AcDbCircle
 10
79.3316326953
 20
166.0382590292
 30
0.0
 40
0.4000000000000001
100
AcDbArc
 50
314.9706467581
 51
44.9706467581
  0
LINE
  5
BE
330
5F
100
AcDbEntity
  8
D000123
  6
Continuous
 62
     7
100
AcDbLine
 10
78.9154818968
 20
167.1449859447
 30
0.0
 11
78.9154818968
 21
167.4624002045
 31
0.0
  0
ARC
  5
BF
330
5F
100
AcDbEntity
  8
D000123
  6
Continuous
 62
     7
100
AcDbCircle
 10
79.2154818968
 20
167.1449859447
 30
0.0
 40
0.2999999999999999
100
AcDbArc
 50
180.0
 51
224.9706467581
  0
LINE
  5
C0
330
5F
100
AcDbEntity
  8
D000123
  6
Continuous
 62
     7
100
AcDbLine
 10
80.1144754977
 20
164.5971846806
 30
0.0
 11
80.1144754977
 21
161.1381141258
 31
0.0
  0
ARC
  5
C1
330
5F
100
AcDbEntity
  8
D000123
  6
Continuous
 62
     7
100
AcDbCircle
 10
80.4144754977
 20
164.5971846806
 30
0.0
 40
0.2999999999999999
100
AcDbArc
 50
153.8230499425
 51
180.0
  0
LINE
  5
C2
330
5F
100
AcDbEntity
  8
D000123
  6
Continuous
 62
     7
100
AcDbLine
 10
79.0024520417
 20
165.1440196476
 30
0.0
 11
79.6143304673
 21
165.7552714505
 31
0.0
  0
ARC
  5
C3
330
5F
100
AcDbEntity
  8
D000123
  6
Continuous
 62
     7
100
AcDbCircle
 10
79.2144753707
 20
164.9317789636
 30
0.0
 40
0.3000000000000004
100
AcDbArc
 50
134.9706467581
 51
180.0
  0
LINE
  5
C4
330
5F
100
AcDbEntity
  8
D000123
  6
Continuous
 62
     7
100
AcDbLine
 10
78.9467297367
 20
167.5957129062
 30
0.0
 11
79.5502919242
 21
168.8124659957
 31
0.0
  0
ARC
  5
C5
330
5F
100
AcDbEntity
  8
D000123
  6
Continuous
 62
     7
100
AcDbCircle
 10
79.2154818968
 20
167.4624002045
 30
0.0
 40
0.2999999999999999
100
AcDbArc
 50
153.6165986229
 51
180.0
  0
LINE
  5
C6
330
5F
100
AcDbEntity
  8
D000123
  6
Continuous
 62
     7
100
AcDbLine
 10
79.3984601697
 20
169.5387180649
 30
0.0
 11
78.5636923946
 21
170.2391713972
 31
0.0
  0
ARC
  5
C7
330
5F
100
AcDbEntity
  8
D000123
  6
Continuous
 62
     7
100
AcDbCircle
 10
79.0127876039
 20
169.0790913991
 30
0.0
 40
0.6000000000000001
100
AcDbArc
 50
333.6165986229
 51
50.0
  0
ARC
  5
C8
330
5F
100
AcDbEntity
  8
D000123
  6
Continuous
 62
     7
100
AcDbCircle
 10
79.5144754977
 20
161.1381141258
 30
0.0
 40
0.6000001269666436
100
AcDbArc
 50
180.0
 51
0.0
  0
LINE
  5
C9
330
5F
100
AcDbEntity
  8
D000123
  6
Continuous
 62
     7
100
AcDbLine
 10
78.9144753707
 20
161.1381141258
 30
0.0
 11
78.9144753707
 21
164.9317789636
 31
0.0
  0
LINE
  5
CA
330
5F
100
AcDbEntity
  8
D000123
  6
Continuous
 62
     7
100
AcDbLine
 10
78.385549388
 20
170.493585977
 30
0.0
 11
77.4749071065
 21
172.9955550825
 31
0.0
  0
ARC
  5
CB
330
5F
100
AcDbEntity
  8
D000123
  6
Continuous
 62
     7
100
AcDbCircle
 10
78.9493649604
 20
170.698798063
 30
0.0
 40
0.6000000000000005
100
AcDbArc
 50
200.0
 51
230.0
  0
ARC
  5
CC
330
5F
100
AcDbEntity
  8
D000123
  6
Continuous
 62
     7
100
AcDbCircle
 10
73.4144753707
 20
168.0381145291
 30
0.0
 40
6.499999999999999
100
AcDbArc
 50
53.6549404883
 51
126.3450595117
  0
ARC
  5
CD
330
5F
100
AcDbEntity
  8
D000123
  6
Continuous
 62
     7
100
AcDbCircle
 10
76.9110915341
 20
172.7903429965
 30
0.0
 40
0.6000000000000005
100
AcDbArc
 50
20.0
 51
53.6549404883
  0
LINE
  5
CE
330
5F
100
AcDbEntity
  8
D000123
  6
Continuous
 62
     7
100
AcDbLine
 10
67.8266074051
 20
166.9316675113
 30
0.0
 11
67.215896727
 21
166.3209568332
 31
0.0
  0
ARC
  5
CF
330
5F
100
AcDbEntity
  8
D000123
  6
Continuous
 62
     7
100
AcDbCircle
 10
67.6144753707
 20
167.1437995457
 30
0.0
 40
0.3000000000000004
100
AcDbArc
 50
315.0
 51
360.0
  0
ARC
  5
D0
330
5F
100
AcDbEntity
  8
D000123
  6
Continuous
 62
     7
100
AcDbCircle
 10
73.4144753707
 20
168.0381145291
 30
0.0
 40
7.500000000000001
100
AcDbArc
 50
333.8230499425
 51
206.1769500575
  0
ARC
  5
D1
330
5F
100
AcDbEntity
  8
D000123
  6
Continuous
 62
     7
100
AcDbCircle
 10
66.4144752438
 20
164.5971846806
 30
0.0
 40
0.2999999999999995
100
AcDbArc
 50
0.0
 51
26.1769500575
  0
LINE
  5
D2
330
5F
100
AcDbEntity
  8
D000123
  6
Continuous
 62
     7
100
AcDbLine
 10
67.9144753707
 20
164.9324286958
 30
0.0
 11
67.9144753707
 21
161.1381141258
 31
0.0
  0
ARC
  5
D3
330
5F
100
AcDbEntity
  8
D000123
  6
Continuous
 62
     7
100
AcDbCircle
 10
67.6144753707
 20
164.9324286958
 30
0.0
 40
0.2999999999999999
100
AcDbArc
 50
0.0
 51
45.0
  0
LINE
  5
D4
330
5F
100
AcDbEntity
  8
D000123
  6
Continuous
 62
     7
100
AcDbLine
 10
67.9144753707
 20
167.461100318
 30
0.0
 11
67.9144753707
 21
167.1437995457
 31
0.0
  0
ARC
  5
D5
330
5F
100
AcDbEntity
  8
D000123
  6
Continuous
 62
     7
100
AcDbCircle
 10
67.6144753707
 20
167.461100318
 30
0.0
 40
0.2999999999999999
100
AcDbArc
 50
0.0
 51
26.3919178685
  0
LINE
  5
D6
330
5F
100
AcDbEntity
  8
D000123
  6
Continuous
 62
     7
100
AcDbLine
 10
67.2787945575
 20
168.8124667434
 30
0.0
 11
67.8832077122
 21
167.5944529657
 31
0.0
  0
ARC
  5
D7
330
5F
100
AcDbEntity
  8
D000123
  6
Continuous
 62
     7
100
AcDbCircle
 10
67.8162592404
 20
169.0791720389
 30
0.0
 40
0.6000000000000004
100
AcDbArc
 50
130.0
 51
206.3919178685
  0
LINE
  5
D8
330
5F
100
AcDbEntity
  8
D000123
  6
Continuous
 62
     7
100
AcDbLine
 10
66.7144752437
 20
161.1381141258
 30
0.0
 11
66.7144752438
 21
164.5971846806
 31
0.0
  0
ARC
  5
D9
330
5F
100
AcDbEntity
  8
D000123
  6
Continuous
 62
     7
100
AcDbCircle
 10
67.3144752437
 20
161.1381141258
 30
0.0
 40
0.5999999999999999
100
AcDbArc
 50
180.0
 51
0.0
  0
LINE
  5
DA
330
5F
100
AcDbEntity
  8
D000123
  6
Continuous
 62
     7
100
AcDbLine
 10
68.2652583468
 20
170.2391713972
 30
0.0
 11
67.4305866746
 21
169.5387987048
 31
0.0
  0
ARC
  5
DB
330
5F
100
AcDbEntity
  8
D000123
  6
Continuous
 62
     7
100
AcDbCircle
 10
67.879585781
 20
170.698798063
 30
0.0
 40
0.6000000000000001
100
AcDbArc
 50
310.0
 51
340.0
  0
LINE
  5
DC
330
5F
100
AcDbEntity
  8
D000123
  6
Continuous
 62
     7
100
AcDbLine
 10
69.3540436349
 20
172.9955550825
 30
0.0
 11
68.4434013535
 21
170.493585977
 31
0.0
  0
ARC
  5
DD
330
5F
100
AcDbEntity
  8
D000123
  6
Continuous
 62
     7
100
AcDbCircle
 10
69.9178592074
 20
172.7903429965
 30
0.0
 40
0.599999999999999
100
AcDbArc
 50
126.3450595117
 51
160.0
  0
LINE
  5
E0
330
5F
100
AcDbEntity
  8
DV1_Standard
  6
CENTER2
 62
     7
100
AcDbLine
 10
73.4144753707
 20
157.0381141258
 30
0.0
 11
73.4144753707
 21
167.0381141258
 31
0.0
  0
ENDBLK
  5
E2
330
5F
100
AcDbEntity
  8
0
100
AcDbBlockEnd
  0
BLOCK
  5
E5
330
E4
100
AcDbEntity
  8
0
100
AcDbBlockBegin
  2
_Oblique
 70
     0
 10
0.0
 20
0.0
 30
0.0
  3
_Oblique
  1

  0
LINE
  5
E7
330
E4
100
AcDbEntity
  8
0
  6
ByBlock
 62
     0
370
    -2
100
AcDbLine
 10
-0.5
 20
-0.5
 30
0.0
 11
0.5
 21
0.5
 31
0.0
  0
ENDBLK
  5
E6
330
E4
100
AcDbEntity
  8
0
100
AcDbBlockEnd
  0
BLOCK
  5
E9
330
E8
100
AcDbEntity
  8
0
100
AcDbBlockBegin
  2
_Dot
 70
     0
 10
0.0
 20
0.0
 30
0.0
  3
_Dot
  1

  0
LWPOLYLINE
  5
EB
330
E8
100
AcDbEntity
  8
0
  6
ByBlock
 62
     0
100
AcDbPolyline
 90
        2
 70
     1
 43
0.5
 10
-0.25
 20
0.0
 42
1.0
 10
0.25
 20
0.0
 42
1.0
  0
LINE
  5
EC
330
E8
100
AcDbEntity
  8
0
  6
ByBlock
 62
     0
370
    -2
100
AcDbLine
 10
-0.5
 20
0.0
 30
0.0
 11
-1.0
 21
0.0
 31
0.0
  0
ENDBLK
  5
EA
330
E8
100
AcDbEntity
  8
0
100
AcDbBlockEnd
  0
BLOCK
  5
F1
330
ED
100
AcDbEntity
  8
0
100
AcDbBlockBegin
  2
_SE_OPEN
 70
     0
 10
0.0
 20
0.0
 30
0.0
  3
_SE_OPEN
  1

  0
LINE
  5
EE
330
ED
100
AcDbEntity
  8
0
 62
     0
100
AcDbLine
 10
0.0
 20
0.0
 30
0.0
 11
-1.0
 21
-0.1665
 31
0.0
  0
LINE
  5
EF
330
ED
100
AcDbEntity
  8
0
 62
     0
100
AcDbLine
 10
-1.0
 20
0.1665
 30
0.0
 11
0.0
 21
0.0
 31
0.0
  0
LINE
  5
F0
330
ED
100
AcDbEntity
  8
0
 62
     0
100
AcDbLine
 10
0.0
 20
0.0
 30
0.0
 11
-1.0
 21
0.0
 31
0.0
  0
ENDBLK
  5
F2
330
ED
100
AcDbEntity
  8
0
100
AcDbBlockEnd
  0
BLOCK
  5
FD
330
F6
100
AcDbEntity
  8
0
100
AcDbBlockBegin
  2
DMBLK394
 70
     0
 10
0.0
 20
0.0
 30
0.0
  3
DMBLK394
  1

  0
LWPOLYLINE
  5
F7
330
F6
100
AcDbEntity
  8
Standard
  6
Continuous
 62
     7
100
AcDbPolyline
 90
        3
 70
     0
 43
0.0
 10
70.4644751599
 20
152.7013128646
 10
66.7144752437
 20
152.0763128785
 10
70.4644751599
 20
151.4513128925
  0
LWPOLYLINE
  5
F8
330
F6
100
AcDbEntity
  8
Standard
  6
Continuous
 62
     7
100
AcDbPolyline
 90
        3
 70
     0
 43
0.0
 10
76.3644758476
 20
152.7013128646
 10
80.1144757638
 20
152.0763128785
 10
76.3644758476
 20
151.4513128925
  0
LINE
  5
F9
330
F6
100
AcDbEntity
  8
Standard
  6
Continuous
 62
     7
100
AcDbLine
 10
66.7144752437
 20
160.3881141193
 30
0.0
 11
66.7144752437
 21
150.8263129065
 31
0.0
  0
LINE
  5
FA
330
F6
100
AcDbEntity
  8
Standard
  6
Continuous
 62
     7
100
AcDbLine
 10
80.1144754977
 20
160.3881141193
 30
0.0
 11
80.1144754977
 21
150.8263129065
 31
0.0
  0
LINE
  5
FB
330
F6
100
AcDbEntity
  8
Standard
  6
Continuous
 62
     7
100
AcDbLine
 10
66.7144752437
 20
152.0763128785
 30
0.0
 11
80.1144757638
 21
152.0763128785
 31
0.0
  0
TEXT
  5
FC
330
F6
100
AcDbEntity
  8
Standard
  6
Continuous
 62
     7
100
AcDbText
 10
71.4579537646
 20
152.7013128785
 30
0.0
 40
2.5
  1
13
  7
SEACAD_Arial
 11
71.4579537646
 21
155.2013128785
 31
0.0
100
AcDbText
 73
     3
  0
ENDBLK
  5
FE
330
F6
100
AcDbEntity
  8
0
100
AcDbBlockEnd
  0
BLOCK
  5
105
330
100
100
AcDbEntity
  8
0
100
AcDbBlockBegin
  2
DMBLK395
 70
     0
 10
0.0
 20
0.0
 30
0.0
  3
DMBLK395
  1

  0
LINE
  5
101
330
100
100
AcDbEntity
  8
Standard
  6
Continuous
 62
     7
100
AcDbLine
 10
73.4144753707
 20
168.0381145291
 30
0.0
 11
92.1189862528
 21
179.363287094
 31
0.0
  0
LWPOLYLINE
  5
102
330
100
100
AcDbEntity
  8
Standard
  6
Continuous
 62
     7
100
AcDbPolyline
 90
        3
 70
     0
 43
0.0
 10
83.3616453614
 20
173.3302721489
 10
79.8301148883
 20
171.9226440476
 10
82.7142237894
 20
174.399545378
  0
TEXT
  5
103
330
100
100
AcDbEntity
  8
Standard
  6
Continuous
 62
     7
100
AcDbText
 10
83.440996678
 20
174.8395904952
 30
0.0
 40
2.5
  1
R
 50
31.1939890246
  7
SEACAD_Arial
 11
82.1461535051
 21
176.978137001
 31
0.0
100
AcDbText
 73
     3
  0
TEXT
  5
104
330
100
100
AcDbEntity
  8
Standard
  6
Continuous
 62
     7
100
AcDbText
 10
86.8626710873
 20
176.9113395717
 30
0.0
 40
2.5
  1
7,5
 50
31.1939890246
  7
SEACAD_Arial
 11
85.5678279145
 21
179.0498860776
 31
0.0
100
AcDbText
 73
     3
  0
ENDBLK
  5
106
330
100
100
AcDbEntity
  8
0
100
AcDbBlockEnd
  0
BLOCK
  5
111
330
108
100
AcDbEntity
  8
0
100
AcDbBlockBegin
  2
DMBLK396
 70
     0
 10
0.0
 20
0.0
 30
0.0
  3
DMBLK396
  1

  0
LWPOLYLINE
  5
109
330
108
100
AcDbEntity
  8
Standard
  6
Continuous
 62
     7
100
AcDbPolyline
 90
        3
 70
     0
 43
0.0
 10
61.4416054961
 20
164.288114042
 10
60.81660551
 20
160.5381141258
 10
60.191605524
 20
164.288114042
  0
LWPOLYLINE
  5
10A
330
108
100
AcDbEntity
  8
Standard
  6
Continuous
 62
     7
100
AcDbPolyline
 90
        3
 70
     0
 43
0.0
 10
61.4416054961
 20
171.7881148057
 10
60.81660551
 20
175.5381147219
 10
60.191605524
 20
171.7881148057
  0
LINE
  5
10B
330
108
100
AcDbEntity
  8
Standard
  6
Continuous
 62
     7
100
AcDbLine
 10
66.5644752372
 20
160.5381141258
 30
0.0
 11
59.566605538
 21
160.5381141258
 31
0.0
  0
LINE
  5
10C
330
108
100
AcDbEntity
  8
Standard
  6
Continuous
 62
     7
100
AcDbLine
 10
72.6644753642
 20
175.5381145291
 30
0.0
 11
59.566605538
 21
175.5381145291
 31
0.0
  0
LINE
  5
10D
330
108
100
AcDbEntity
  8
Standard
  6
Continuous
 62
     7
100
AcDbLine
 10
60.81660551
 20
160.5381141258
 30
0.0
 11
60.81660551
 21
175.5381147219
 31
0.0
  0
TEXT
  5
10E
330
108
100
AcDbEntity
  8
Standard
  6
Continuous
 62
     7
100
AcDbText
 10
60.19160551
 20
164.0680057282
 30
0.0
 40
2.5
  1
15
 50
90.0
  7
SEACAD_Arial
 11
57.69160551
 21
164.0680057282
 31
0.0
100
AcDbText
 73
     3
  0
TEXT
  5
10F
330
108
100
AcDbEntity
  8
Standard
  6
Continuous
 62
     7
100
AcDbText
 10
57.19160551
 20
169.2310492065
 30
0.0
 40
1.75
  1
+4
 50
90.0
  7
SEACAD_Arial
 11
55.44160551
 21
169.2310492065
 31
0.0
100
AcDbText
 73
     3
  0
TEXT
  5
110
330
108
100
AcDbEntity
  8
Standard
  6
Continuous
 62
     7
100
AcDbText
 10
60.19160551
 20
170.6386579021
 30
0.0
 40
1.75
  1
0
 50
90.0
  7
SEACAD_Arial
 11
58.44160551
 21
170.6386579021
 31
0.0
100
AcDbText
 73
     3
  0
ENDBLK
  5
112
330
108
100
AcDbEntity
  8
0
100
AcDbBlockEnd
  0
BLOCK
  5
191
330
113
100
AcDbEntity
  8
0
100
AcDbBlockBegin
  2
SE1
 70
     0
 10
0.0
 20
0.0
 30
0.0
  3
SE1
  1

  0
HATCH
  5
116
330
113
100
AcDbEntity
  8
DV2_Füllung
  6
Continuous
 62
     7
100
AcDbHatch
 10
0.0
 20
0.0
 30
0.0
210
0.0
220
0.0
230
1.0
  2
SOLID
 70
     1
 71
     0
 91
        1
 92
        1
 93
       36
 72
     2
 10
127.2107576033177
 20
172.7903429964586
 40
0.599999999999999
 50
200.0000000000016
 51
233.6549404883438
 73
     0
 72
     2
 10
130.7073737666746
 20
168.0381145290813
 40
6.499999999999999
 50
233.6549404883433
 51
306.3450595116565
 73
     0
 72
     2
 10
134.2039899300315
 20
172.7903429964586
 40
0.6000000000000005
 50
306.3450595116561
 51
339.9999999999984
 73
     0
 72
     1
 10
134.767805502503
 20
172.995555082454
 11
135.678447783932
 21
170.4935859770272
 72
     2
 10
136.2422633564036
 20
170.6987980630226
 40
0.6000000000000005
 50
199.9999999999982
 51
229.9999999999982
 73
     1
 72
     1
 10
135.8565907905916
 20
170.2391713971512
 11
136.6913585656884
 21
169.5387180649488
 72
     2
 10
136.3056859998765
 20
169.0790913990774
 40
0.6000000000000001
 50
310.0000000000001
 51
386.3834013771072
 73
     0
 72
     1
 10
136.8431903201193
 20
168.8124659957111
 11
136.239628132658
 21
167.5957129061717
 72
     2
 10
136.5083802927794
 20
167.4624002044886
 40
0.2999999999999999
 50
153.6165986228905
 51
180.0
 73
     1
 72
     1
 10
136.2083802927794
 20
167.4624002044886
 11
136.2083802927794
 21
167.1449859446604
 72
     2
 10
136.5083802927794
 20
167.1449859446604
 40
0.2999999999999999
 50
180.0
 51
224.9706467581112
 73
     1
 72
     1
 10
136.2961396087519
 20
166.9329626156527
 11
136.9075186699905
 21
166.3209568011763
 72
     2
 10
136.6245310912872
 20
166.0382590291659
 40
0.4000000000000001
 50
315.029353241885
 51
405.0293532418821
 73
     0
 72
     1
 10
136.9072288632976
 20
165.7552714504626
 11
136.2953504376663
 21
165.1440196476104
 72
     2
 10
136.507373766674
 20
164.9317789635829
 40
0.3000000000000004
 50
134.970646758115
 51
180.0
 73
     1
 72
     1
 10
136.207373766674
 20
164.9317789635829
 11
136.207373766674
 21
161.1381141258194
 72
     2
 10
136.8073738936406
 20
161.1381141258194
 40
0.6000001269666436
 50
180.0
 51
360.0
 73
     1
 72
     1
 10
137.4073740206073
 20
161.1381141258194
 11
137.4073738936407
 21
164.5971846805555
 72
     2
 10
137.7073738936407
 20
164.5971846805555
 40
0.2999999999999999
 50
180.0
 51
206.1769500575237
 73
     0
 72
     2
 10
130.7073737666746
 20
168.0381145290813
 40
7.500000000000001
 50
333.8230499424765
 51
566.1769500575231
 73
     1
 72
     2
 10
123.7073736397085
 20
164.5971846805556
 40
0.2999999999999995
 50
333.8230499424727
 51
359.9999999999999
 73
     0
 72
     1
 10
124.0073736397085
 20
164.5971846805556
 11
124.0073736397075
 21
161.1381141258196
 72
     2
 10
124.6073736397075
 20
161.1381141258194
 40
0.5999999999999999
 50
179.999999999981
 51
360.0
 73
     1
 72
     1
 10
125.2073736397075
 20
161.1381141258194
 11
125.207373766674
 21
164.9324286957686
 72
     2
 10
124.907373766674
 20
164.9324286957686
 40
0.2999999999999999
 50
0.0
 51
44.99999999999232
 73
     1
 72
     1
 10
125.11950580103
 20
165.1445607301245
 11
124.5087951229116
 21
165.755271408243
 72
     2
 10
124.7916378353862
 20
166.0381141207176
 40
0.4
 50
135.0000000000057
 51
225.0000000000072
 73
     0
 72
     1
 10
124.5087951229116
 20
166.3209568331923
 11
125.1195058010301
 21
166.9316675113107
 72
     2
 10
124.9073737666742
 20
167.1437995456666
 40
0.3000000000000004
 50
314.9999999999981
 51
359.9999999999945
 73
     1
 72
     1
 10
125.2073737666742
 20
167.1437995456666
 11
125.2073737666742
 21
167.4611003179657
 72
     2
 10
124.9073737666742
 20
167.4611003179657
 40
0.2999999999999999
 50
0.0
 51
26.39191786853659
 73
     1
 72
     1
 10
125.176106108118
 20
167.5944529657165
 11
124.5716929534372
 21
168.8124667434436
 72
     2
 10
125.1091576363248
 20
169.0791720389452
 40
0.6000000000000004
 50
153.608082131461
 51
229.9999999999993
 73
     0
 72
     1
 10
124.7234850705128
 20
169.5387987048165
 11
125.5581567427575
 21
170.2391713971512
 72
     2
 10
125.1724841769456
 20
170.6987980630226
 40
0.6000000000000001
 50
310.0000000000007
 51
340.0000000000009
 73
     1
 72
     1
 10
125.7362997494172
 20
170.4935859770272
 11
126.6469420308462
 21
172.995555082454
 97
        0
 75
     0
 76
     1
 98
        0
  0
HATCH
  5
117
330
113
100
AcDbEntity
  8
DV2_Füllung
  6
Continuous
 62
     7
100
AcDbHatch
 10
0.0
 20
0.0
 30
0.0
210
0.0
220
0.0
230
1.0
  2
SOLID
 70
     1
 71
     0
 91
        1
 92
        1
 93
       24
 72
     3
 10
129.7926859604536
 20
172.5381141258193
 11
2.168404344971009E-16
 21
-0.5000000000000004
 40
0.3057306814586597
 50
139.9701390146387
 51
180.0
 73
     1
 72
     1
 10
129.7926859604536
 20
173.0381141258193
 11
127.1574775357794
 21
173.0381141258193
 72
     2
 10
127.1574775357794
 20
172.5381141258193
 40
0.5000000000000022
 50
90.0
 51
159.9999999999999
 73
     1
 72
     1
 10
126.6876312253865
 20
172.7091241974821
 11
125.5334779467428
 21
169.5381141258193
 72
     1
 10
125.5334779467428
 20
169.5381141258192
 11
129.1573737666745
 21
169.5381141258192
 72
     1
 10
129.1573737666745
 20
169.5381141258192
 11
129.4303926061282
 21
169.5381141258192
 72
     1
 10
129.4303926061282
 20
169.5381141258192
 11
129.5255718182085
 21
169.4021841238035
 72
     3
 10
129.4195058010305
 20
169.2507061527877
 11
-2.168404344971009E-15
 21
0.214222201011317
 40
0.7002075382097086
 50
35.00000000000605
 51
90.00000000000058
 73
     0
 72
     1
 10
129.5695058010305
 20
169.2507061527877
 11
129.5695058010305
 21
168.9168979966373
 72
     1
 10
129.5695058010305
 20
168.9168979966373
 11
131.8452417323186
 21
168.9168979966373
 72
     1
 10
131.8452417323186
 20
168.9168979966373
 11
131.8452417323186
 21
169.2507061606207
 72
     3
 10
131.9952417323186
 20
169.2507061527877
 11
-2.168404344971009E-16
 21
-0.2142222010113179
 40
0.7002075382097077
 50
89.99999999999991
 51
144.9999999999941
 73
     0
 72
     1
 10
131.8891757151406
 20
169.4021841238035
 11
131.9843549272209
 21
169.5381141258193
 72
     1
 10
131.9843549272209
 20
169.5381141258193
 11
132.2573737666746
 21
169.5381141258192
 72
     1
 10
132.2573737666745
 20
169.5381141258192
 11
135.8812695866063
 21
169.5381141258192
 72
     1
 10
135.8812695866063
 20
169.5381141258192
 11
134.7271163079627
 21
172.7091241974821
 72
     2
 10
134.2572699975697
 20
172.5381141258193
 40
0.5000000000000022
 50
19.99999999999953
 51
90.0
 73
     1
 72
     1
 10
134.2572699975697
 20
173.0381141258193
 11
131.6220615728955
 21
173.0381141258193
 72
     3
 10
131.6220615728955
 20
172.5381141258193
 11
1.084202172485504E-16
 21
0.5000000000000022
 40
0.3057306814586604
 50
0.0
 51
40.02986098536152
 73
     1
 72
     1
 10
131.4784151402382
 20
172.7091241974821
 11
131.5194099866156
 21
173.0775282261473
 72
     3
 10
131.7205149923358
 20
172.8381141258193
 11
-2.168404344971009E-16
 21
-0.6999999999999992
 40
0.3057306814586611
 50
139.9701390146379
 51
180.0
 73
     0
 72
     1
 10
131.7205149923358
 20
173.5381141258193
 11
129.6942325410133
 21
173.5381141258193
 72
     3
 10
129.6942325410133
 20
172.8381141258193
 11
1.517883041479706E-15
 21
0.7000000000000079
 40
0.3057306814586578
 50
0.0
 51
40.02986098535838
 73
     0
 72
     1
 10
129.8953375467335
 20
173.0775282261473
 11
129.9363323931109
 21
172.7091241974821
 97
        0
 75
     0
 76
     1
 98
        0
  0
HATCH
  5
118
330
113
100
AcDbEntity
  8
DV2_Füllung
  6
Continuous
 62
     7
100
AcDbHatch
 10
0.0
 20
0.0
 30
0.0
210
0.0
220
0.0
230
1.0
  2
SOLID
 70
     1
 71
     0
 91
        1
 92
        1
 93
        6
 72
     1
 10
128.7073737666746
 20
173.0381141258193
 11
129.7926859604537
 21
173.0381141258193
 72
     3
 10
129.7926859604536
 20
172.5381141258193
 11
-2.168404344971009E-16
 21
0.5000000000000004
 40
0.3057306814586597
 50
0.0
 51
40.02986098536132
 73
     0
 72
     1
 10
129.9363323931109
 20
172.7091241974821
 11
129.8953375467335
 21
173.0775282261473
 72
     3
 10
129.6942325410133
 20
172.8381141258193
 11
-1.517883041479706E-15
 21
-0.7000000000000079
 40
0.3057306814586578
 50
139.9701390146416
 51
180.0000000000001
 73
     1
 72
     1
 10
129.6942325410133
 20
173.5381141258193
 11
128.7073737666746
 21
173.5381141258193
 72
     1
 10
128.7073737666746
 20
173.5381141258193
 11
128.7073737666746
 21
173.0381141258193
 97
        0
 75
     0
 76
     1
 98
        0
  0
HATCH
  5
119
330
113
100
AcDbEntity
  8
DV2_Füllung
  6
Continuous
 62
     7
100
AcDbHatch
 10
0.0
 20
0.0
 30
0.0
210
0.0
220
0.0
230
1.0
  2
SOLID
 70
     1
 71
     0
 91
        1
 92
        1
 93
        6
 72
     1
 10
131.622061560086
 20
173.0381141258193
 11
132.7073737666746
 21
173.0381141258193
 72
     1
 10
132.7073737666746
 20
173.0381141258193
 11
132.7073737666746
 21
173.5381141258193
 72
     1
 10
132.7073737666746
 20
173.5381141258193
 11
131.7205149923358
 21
173.5381141258193
 72
     3
 10
131.7205149923358
 20
172.8381141258193
 11
2.168404344971009E-16
 21
0.6999999999999992
 40
0.3057306814586611
 50
0.0
 51
40.02986098536218
 73
     1
 72
     1
 10
131.5194099866156
 20
173.0775282261473
 11
131.4784151402382
 21
172.7091241974821
 72
     3
 10
131.6220615728955
 20
172.5381141258193
 11
-1.084202172485504E-16
 21
-0.5000000000000022
 40
0.3057306814586604
 50
139.9701390146385
 51
180.0
 73
     0
 97
        0
 75
     0
 76
     1
 98
        0
  0
HATCH
  5
11A
330
113
100
AcDbEntity
  8
DV2_Füllung
  6
Continuous
 62
     7
100
AcDbHatch
 10
0.0
 20
0.0
 30
0.0
210
0.0
220
0.0
230
1.0
  2
SOLID
 70
     1
 71
     0
 91
        1
 92
        1
 93
        4
 72
     1
 10
131.8452417323186
 20
166.5381141258193
 11
131.8452417323186
 21
168.9168979966373
 72
     1
 10
131.8452417323186
 20
168.9168979966374
 11
129.5695058010305
 21
168.9168979966373
 72
     1
 10
129.5695058010305
 20
168.9168979966373
 11
129.5695058010305
 21
166.5381141258193
 72
     1
 10
129.5695058010305
 20
166.5381141258192
 11
131.8452417323186
 21
166.5381141258193
 97
        0
 75
     0
 76
     1
 98
        0
  0
HATCH
  5
11B
330
113
100
AcDbEntity
  8
DV2_Füllung
  6
Continuous
 62
     7
100
AcDbHatch
 10
0.0
 20
0.0
 30
0.0
210
0.0
220
0.0
230
1.0
  2
SOLID
 70
     1
 71
     0
 91
        1
 92
        1
 93
       10
 72
     1
 10
131.8452417323186
 20
166.5381141258193
 11
129.5695058010305
 21
166.5381141258193
 72
     1
 10
129.5695058010305
 20
166.5381141258193
 11
129.5695058010305
 21
166.2507061527877
 72
     3
 10
129.4195058010305
 20
166.2507061527877
 11
0.0
 21
0.2142222010113174
 40
0.7002075382097097
 50
90.0
 51
145.0000000000043
 73
     0
 72
     1
 10
129.5255718182085
 20
166.0992281817719
 11
129.1573737666745
 21
165.5733868683874
 72
     1
 10
129.1573737666745
 20
165.5733868683874
 11
129.1573737666745
 21
163.5381141258193
 72
     1
 10
129.1573737666745
 20
163.5381141258192
 11
132.2573737666746
 21
163.5381141258193
 72
     1
 10
132.2573737666746
 20
163.5381141258193
 11
132.2573737666746
 21
165.5733868683873
 72
     1
 10
132.2573737666746
 20
165.5733868683874
 11
131.8891757151406
 21
166.0992281817719
 72
     3
 10
131.9952417323186
 20
166.2507061527877
 11
2.168404344971009E-16
 21
-0.2142222010113174
 40
0.7002075382097079
 50
34.99999999999567
 51
90.00001472479236
 73
     0
 72
     1
 10
131.8452417323186
 20
166.2507061913371
 11
131.8452417323186
 21
166.5381141258193
 97
        0
 75
     0
 76
     1
 98
        0
  0
HATCH
  5
11C
330
113
100
AcDbEntity
  8
DV2_Füllung
  6
Continuous
 62
     7
100
AcDbHatch
 10
0.0
 20
0.0
 30
0.0
210
0.0
220
0.0
230
1.0
  2
SOLID
 70
     1
 71
     0
 91
        1
 92
        1
 93
        9
 72
     2
 10
135.5073737666745
 20
166.0381141258193
 40
1.25
 50
332.8782215224536
 51
387.2149006280869
 73
     1
 72
     1
 10
136.6189956017164
 20
166.6097756479268
 11
136.2961396087519
 21
166.9329626156527
 72
     2
 10
136.5083802927794
 20
167.1449859446604
 40
0.2999999999999999
 50
135.0293532418888
 51
164.6859567885157
 73
     0
 72
     2
 10
135.5073737666745
 20
166.0381141258193
 40
1.25
 50
55.29669338545395
 51
58.66774850240469
 73
     1
 72
     1
 10
136.1573737666746
 20
167.1058219510224
 11
136.1573737666746
 21
166.5381141258193
 72
     1
 10
136.1573737666746
 20
166.5381141258193
 11
136.2573737666746
 21
166.5381141258193
 72
     1
 10
136.2573737666746
 20
166.5381141258193
 11
136.2573737666746
 21
165.0976102031015
 72
     2
 10
136.507373766674
 20
164.9317789635829
 40
0.3000000000000004
 50
213.5573097621115
 51
225.029353241885
 73
     0
 72
     1
 10
136.2953504376663
 20
165.1440196476104
 11
136.6199232477871
 21
165.4682600637331
 97
        0
 75
     0
 76
     1
 98
        0
  0
HATCH
  5
11D
330
113
100
AcDbEntity
  8
DV2_Füllung
  6
Continuous
 62
     7
100
AcDbHatch
 10
0.0
 20
0.0
 30
0.0
210
0.0
220
0.0
230
1.0
  2
SOLID
 70
     1
 71
     0
 91
        1
 92
        1
 93
        9
 72
     2
 10
125.9073737666746
 20
166.0381141258193
 40
1.25
 50
152.981628510034
 51
207.0183725612101
 73
     1
 72
     1
 10
124.7937976403948
 20
165.4702688907597
 11
125.11950580103
 21
165.1445607301245
 72
     2
 10
124.907373766674
 20
164.9324286957686
 40
0.2999999999999999
 50
315.0000000000077
 51
326.442690238277
 73
     0
 72
     1
 10
125.1573737666745
 20
165.0982599352855
 11
125.1573737666745
 21
166.5381141258193
 72
     1
 10
125.1573737666745
 20
166.5381141258193
 11
125.2573737666746
 21
166.5381141258193
 72
     1
 10
125.2573737666746
 20
166.5381141258193
 11
125.2573737666746
 21
167.1058219510224
 72
     2
 10
125.9073737666746
 20
166.0381141258193
 40
1.25
 50
121.3322514975936
 51
124.6124719347356
 73
     1
 72
     2
 10
124.9073737666742
 20
167.1437995456666
 40
0.3000000000000004
 50
14.85645704238392
 51
45.00000000000194
 73
     0
 72
     1
 10
125.1195058010301
 20
166.9316675113107
 11
124.793797629778
 21
166.6059593400586
 97
        0
 75
     0
 76
     1
 98
        0
  0
HATCH
  5
11E
330
113
100
AcDbEntity
  8
DV2_Füllung
  6
Continuous
 62
     7
100
AcDbHatch
 10
0.0
 20
0.0
 30
0.0
210
0.0
220
0.0
230
1.0
  2
SOLID
 70
     1
 71
     0
 91
        1
 92
        1
 93
       24
 72
     1
 10
125.3073737666745
 20
169.5381141258192
 11
125.3073737666745
 21
161.1777494712927
 72
     1
 10
125.3073737666745
 20
161.1777494712927
 11
125.3073737666746
 21
160.5381141258193
 72
     1
 10
125.3073737666746
 20
160.5381141258193
 11
129.1399110853442
 21
160.5381141258193
 72
     1
 10
129.1399110853442
 20
160.5381141258193
 11
129.1510759618298
 21
161.1777494712927
 72
     1
 10
129.1510759618297
 20
161.1777494712927
 11
129.1573661502723
 21
161.5381141258192
 72
     1
 10
129.1573661502723
 20
161.5381141258192
 11
132.2573813830767
 21
161.5381141258193
 72
     1
 10
132.2573813830767
 20
161.5381141258193
 11
132.2636715715193
 21
161.1777494712927
 72
     1
 10
132.2636715715193
 20
161.1777494712927
 11
132.274836448005
 21
160.5381141258193
 72
     1
 10
132.274836448005
 20
160.5381141258193
 11
136.1073737666746
 21
160.5381141258193
 72
     1
 10
136.1073737666746
 20
160.5381141258193
 11
136.1073737666746
 21
161.1777494712927
 72
     1
 10
136.1073737666746
 20
161.1777494712927
 11
136.1073737666746
 21
169.5381141258193
 72
     1
 10
136.1073737666746
 20
169.5381141258192
 11
132.2573737666746
 21
169.5381141258192
 72
     1
 10
132.2573737666746
 20
169.5381141258192
 11
132.2573737666746
 21
166.928025437188
 72
     1
 10
132.2573737666746
 20
166.928025437188
 11
131.8891757151406
 21
166.4021841238035
 72
     3
 10
131.9952417323186
 20
166.2507061527877
 11
-2.168404344971009E-16
 21
0.2142222010113174
 40
0.7002075382097079
 50
34.99999999999561
 51
145.0000000000043
 73
     1
 72
     1
 10
131.8891757151406
 20
166.0992281817719
 11
132.2573737666746
 21
165.5733868683873
 72
     1
 10
132.2573737666746
 20
165.5733868683874
 11
132.2573737666746
 21
163.5381141258193
 72
     1
 10
132.2573737666746
 20
163.5381141258192
 11
129.1573737666745
 21
163.5381141258193
 72
     1
 10
129.1573737666745
 20
163.5381141258193
 11
129.1573737666745
 21
165.5733868683874
 72
     1
 10
129.1573737666745
 20
165.5733868683874
 11
129.5255718182085
 21
166.0992281817719
 72
     3
 10
129.4195058010305
 20
166.2507061527877
 11
0.0
 21
-0.2142222010113174
 40
0.7002075382097097
 50
34.99999999999571
 51
145.0000000000043
 73
     1
 72
     1
 10
129.5255718182085
 20
166.4021841238035
 11
129.1573737666746
 21
166.928025437188
 72
     1
 10
129.1573737666746
 20
166.928025437188
 11
129.1573737666745
 21
169.5381141258193
 72
     1
 10
129.1573737666745
 20
169.5381141258193
 11
125.3073737666745
 21
169.5381141258192
 97
        0
 75
     0
 76
     1
 98
        0
  0
HATCH
  5
11F
330
113
100
AcDbEntity
  8
DV2_Füllung
  6
Continuous
 62
     7
100
AcDbHatch
 10
0.0
 20
0.0
 30
0.0
210
0.0
220
0.0
230
1.0
  2
SOLID
 70
     1
 71
     0
 91
        1
 92
        1
 93
        6
 72
     1
 10
129.1399110853442
 20
160.5381141258193
 11
132.274836448005
 21
160.5381141258193
 72
     1
 10
132.274836448005
 20
160.5381141258193
 11
132.2636715715194
 21
161.1777494712927
 72
     1
 10
132.2636715715194
 20
161.1777494712927
 11
132.2573813830768
 21
161.5381141258192
 72
     1
 10
132.2573813830768
 20
161.5381141258192
 11
129.1573661502723
 21
161.5381141258193
 72
     1
 10
129.1573661502723
 20
161.5381141258193
 11
129.1510759618297
 21
161.1777494712927
 72
     1
 10
129.1510759618297
 20
161.1777494712927
 11
129.1399110853441
 21
160.5381141258193
 97
        0
 75
     0
 76
     1
 98
        0
  0
HATCH
  5
120
330
113
100
AcDbEntity
  8
DV2_Füllung
  6
Continuous
 62
     7
100
AcDbHatch
 10
0.0
 20
0.0
 30
0.0
210
0.0
220
0.0
230
1.0
  2
SOLID
 70
     1
 71
     0
 91
        1
 92
        1
 93
        9
 72
     1
 10
125.1573737666745
 20
166.5381141258193
 11
125.1573737666745
 21
165.0982599352855
 72
     2
 10
124.907373766674
 20
164.9324286957686
 40
0.2999999999999999
 50
326.442690238277
 51
360.0000000000001
 73
     0
 72
     1
 10
125.207373766674
 20
164.9324286957686
 11
125.207373766674
 21
161.1381141258194
 72
     2
 10
124.6073736397075
 20
161.1381141258194
 40
0.5999999999999999
 50
0.0
 51
23.55643397159531
 73
     0
 72
     1
 10
125.1573737666745
 20
160.898322840873
 11
125.1573737666745
 21
160.5381141258193
 72
     1
 10
125.1573737666745
 20
160.5381141258193
 11
125.3073737666745
 21
160.5381141258193
 72
     1
 10
125.3073737666746
 20
160.5381141258193
 11
125.3073737666746
 21
161.1777494712927
 72
     1
 10
125.3073737666746
 20
161.1777494712927
 11
125.3073737666745
 21
166.5381141258193
 72
     1
 10
125.3073737666745
 20
166.5381141258192
 11
125.1573737666745
 21
166.5381141258193
 97
        0
 75
     0
 76
     1
 98
        0
  0
HATCH
  5
121
330
113
100
AcDbEntity
  8
DV2_Füllung
  6
Continuous
 62
     7
100
AcDbHatch
 10
0.0
 20
0.0
 30
0.0
210
0.0
220
0.0
230
1.0
  2
SOLID
 70
     1
 71
     0
 91
        1
 92
        1
 93
        7
 72
     1
 10
129.5695058010305
 20
166.2507061527877
 11
129.5695058010305
 21
169.2507061527877
 72
     3
 10
129.4195058010305
 20
169.2507061527877
 11
2.168404344971009E-15
 21
-0.214222201011317
 40
0.7002075382097086
 50
89.99999999999942
 51
144.9999999999939
 73
     1
 72
     1
 10
129.5255718182085
 20
169.4021841238035
 11
129.4303926061282
 21
169.5381141258193
 72
     1
 10
129.4303926061282
 20
169.5381141258193
 11
129.1573737666746
 21
169.5381141258192
 72
     1
 10
129.1573737666746
 20
169.5381141258192
 11
129.1573737666745
 21
166.928025437188
 72
     1
 10
129.1573737666745
 20
166.928025437188
 11
129.5255718182085
 21
166.4021841238035
 72
     3
 10
129.4195058010305
 20
166.2507061527877
 11
0.0
 21
0.2142222010113174
 40
0.7002075382097097
 50
34.99999999999569
 51
90.0
 73
     0
 97
        0
 75
     0
 76
     1
 98
        0
  0
HATCH
  5
122
330
113
100
AcDbEntity
  8
DV2_Füllung
  6
Continuous
 62
     7
100
AcDbHatch
 10
0.0
 20
0.0
 30
0.0
210
0.0
220
0.0
230
1.0
  2
SOLID
 70
     1
 71
     0
 91
        1
 92
        1
 93
        7
 72
     1
 10
131.8452417323186
 20
169.2507061527877
 11
131.8452417323186
 21
166.2507061527877
 72
     3
 10
131.9952417323186
 20
166.2507061527877
 11
2.168404344971009E-16
 21
-0.2142222010113174
 40
0.7002075382097079
 50
90.00001472479236
 51
145.0000000000044
 73
     0
 72
     1
 10
131.8891757151406
 20
166.4021841238035
 11
132.2573737666746
 21
166.928025437188
 72
     1
 10
132.2573737666745
 20
166.928025437188
 11
132.2573737666746
 21
169.5381141258192
 72
     1
 10
132.2573737666746
 20
169.5381141258192
 11
131.9843549272209
 21
169.5381141258192
 72
     1
 10
131.9843549272209
 20
169.5381141258192
 11
131.8891757151406
 21
169.4021841238035
 72
     3
 10
131.9952417323186
 20
169.2507061527877
 11
2.168404344971009E-16
 21
0.2142222010113179
 40
0.7002075382097077
 50
35.00000000000588
 51
90.00000000000006
 73
     1
 97
        0
 75
     0
 76
     1
 98
        0
  0
HATCH
  5
123
330
113
100
AcDbEntity
  8
DV2_Füllung
  6
Continuous
 62
     7
100
AcDbHatch
 10
0.0
 20
0.0
 30
0.0
210
0.0
220
0.0
230
1.0
  2
SOLID
 70
     1
 71
     0
 91
        1
 92
        1
 93
        9
 72
     1
 10
136.1073737666746
 20
166.5381141258192
 11
136.1073737666746
 21
161.1777494712927
 72
     1
 10
136.1073737666746
 20
161.1777494712927
 11
136.1073737666746
 21
160.5381141258193
 72
     1
 10
136.1073737666746
 20
160.5381141258193
 11
136.2573737666746
 21
160.5381141258193
 72
     1
 10
136.2573737666746
 20
160.5381141258193
 11
136.2573737666746
 21
160.8983228408709
 72
     2
 10
136.8073738936406
 20
161.1381141258194
 40
0.6000001269666436
 50
156.4435382188797
 51
180.0
 73
     0
 72
     1
 10
136.207373766674
 20
161.1381141258194
 11
136.207373766674
 21
164.9317789635829
 72
     2
 10
136.507373766674
 20
164.9317789635829
 40
0.3000000000000004
 50
180.0
 51
213.5573097621114
 73
     0
 72
     1
 10
136.2573737666746
 20
165.0976102031015
 11
136.2573737666746
 21
166.5381141258193
 72
     1
 10
136.2573737666746
 20
166.5381141258193
 11
136.1073737666746
 21
166.5381141258193
 97
        0
 75
     0
 76
     1
 98
        0
  0
HATCH
  5
124
330
113
100
AcDbEntity
  8
DV2_Füllung
  6
Continuous
 62
     7
100
AcDbHatch
 10
0.0
 20
0.0
 30
0.0
210
0.0
220
0.0
230
1.0
  2
SOLID
 70
     1
 71
     0
 91
        1
 92
        1
 93
        4
 72
     1
 10
136.1573737666746
 20
166.5381141258193
 11
136.1573737666746
 21
167.1058219510224
 72
     2
 10
135.5073737666745
 20
166.0381141258193
 40
1.25
 50
58.66774850240469
 51
61.31459798588008
 73
     1
 72
     1
 10
136.1073737666746
 20
167.1346997357923
 11
136.1073737666746
 21
166.5381141258192
 72
     1
 10
136.1073737666746
 20
166.5381141258192
 11
136.1573737666745
 21
166.5381141258193
 97
        0
 75
     0
 76
     1
 98
        0
  0
HATCH
  5
125
330
113
100
AcDbEntity
  8
DV2_Füllung
  6
Continuous
 62
     7
100
AcDbHatch
 10
0.0
 20
0.0
 30
0.0
210
0.0
220
0.0
230
1.0
  2
SOLID
 70
     1
 71
     0
 91
        1
 92
        1
 93
       24
 72
     1
 10
125.3073737666745
 20
169.5381141258192
 11
125.3073737666745
 21
161.1777494712927
 72
     1
 10
125.3073737666745
 20
161.1777494712927
 11
125.3073737666746
 21
160.5381141258193
 72
     1
 10
125.3073737666746
 20
160.5381141258193
 11
129.1399110853442
 21
160.5381141258193
 72
     1
 10
129.1399110853442
 20
160.5381141258193
 11
129.1510759618298
 21
161.1777494712927
 72
     1
 10
129.1510759618297
 20
161.1777494712927
 11
129.1573661502723
 21
161.5381141258192
 72
     1
 10
129.1573661502723
 20
161.5381141258192
 11
132.2573813830767
 21
161.5381141258193
 72
     1
 10
132.2573813830767
 20
161.5381141258193
 11
132.2636715715193
 21
161.1777494712927
 72
     1
 10
132.2636715715193
 20
161.1777494712927
 11
132.274836448005
 21
160.5381141258193
 72
     1
 10
132.274836448005
 20
160.5381141258193
 11
136.1073737666746
 21
160.5381141258193
 72
     1
 10
136.1073737666746
 20
160.5381141258193
 11
136.1073737666746
 21
161.1777494712927
 72
     1
 10
136.1073737666746
 20
161.1777494712927
 11
136.1073737666746
 21
169.5381141258193
 72
     1
 10
136.1073737666746
 20
169.5381141258192
 11
132.2573737666746
 21
169.5381141258192
 72
     1
 10
132.2573737666746
 20
169.5381141258192
 11
132.2573737666746
 21
166.928025437188
 72
     1
 10
132.2573737666746
 20
166.928025437188
 11
131.8891757151406
 21
166.4021841238035
 72
     3
 10
131.9952417323186
 20
166.2507061527877
 11
-2.168404344971009E-16
 21
0.2142222010113174
 40
0.7002075382097079
 50
34.99999999999561
 51
145.0000000000043
 73
     1
 72
     1
 10
131.8891757151406
 20
166.0992281817719
 11
132.2573737666746
 21
165.5733868683873
 72
     1
 10
132.2573737666746
 20
165.5733868683874
 11
132.2573737666746
 21
163.5381141258193
 72
     1
 10
132.2573737666746
 20
163.5381141258192
 11
129.1573737666745
 21
163.5381141258193
 72
     1
 10
129.1573737666745
 20
163.5381141258193
 11
129.1573737666745
 21
165.5733868683874
 72
     1
 10
129.1573737666745
 20
165.5733868683874
 11
129.5255718182085
 21
166.0992281817719
 72
     3
 10
129.4195058010305
 20
166.2507061527877
 11
0.0
 21
-0.2142222010113174
 40
0.7002075382097097
 50
34.99999999999571
 51
145.0000000000043
 73
     1
 72
     1
 10
129.5255718182085
 20
166.4021841238035
 11
129.1573737666746
 21
166.928025437188
 72
     1
 10
129.1573737666746
 20
166.928025437188
 11
129.1573737666745
 21
169.5381141258193
 72
     1
 10
129.1573737666745
 20
169.5381141258193
 11
125.3073737666745
 21
169.5381141258192
 97
        0
 75
     0
 76
     1
 98
        0
  0
HATCH
  5
126
330
113
100
AcDbEntity
  8
DV2_Füllung
  6
Continuous
 62
     7
100
AcDbHatch
 10
0.0
 20
0.0
 30
0.0
210
0.0
220
0.0
230
1.0
  2
SOLID
 70
     1
 71
     0
 91
        1
 92
        1
 93
        4
 72
     1
 10
125.2573737666746
 20
167.1058219510224
 11
125.2573737666746
 21
166.5381141258193
 72
     1
 10
125.2573737666746
 20
166.5381141258193
 11
125.3073737666746
 21
166.5381141258193
 72
     1
 10
125.3073737666746
 20
166.5381141258193
 11
125.3073737666745
 21
167.1346997357923
 72
     2
 10
125.9073737666746
 20
166.0381141258193
 40
1.25
 50
118.6854020141188
 51
121.3322514975936
 73
     1
 97
        0
 75
     0
 76
     1
 98
        0
  0
LINE
  5
127
330
113
100
AcDbEntity
  8
D000121
  6
Continuous
 62
     7
100
AcDbLine
 10
136.1073737667
 20
169.5381141258
 30
0.0
 11
136.1073737667
 21
161.1777494713
 31
0.0
  0
LINE
  5
128
330
113
100
AcDbEntity
  8
D000121
  6
Continuous
 62
     7
100
AcDbLine
 10
136.1073737667
 20
161.1777494713
 30
0.0
 11
136.1073737667
 21
160.5381141258
 31
0.0
  0
LINE
  5
129
330
113
100
AcDbEntity
  8
D000121
  6
Continuous
 62
     7
100
AcDbLine
 10
129.1573661503
 20
161.5381141258
 30
0.0
 11
132.2573813831
 21
161.5381141258
 31
0.0
  0
LINE
  5
12A
330
113
100
AcDbEntity
  8
D000121
  6
Continuous
 62
     7
100
AcDbLine
 10
132.2573737667
 20
163.5381141258
 30
0.0
 11
129.1573737667
 21
163.5381141258
 31
0.0
  0
LINE
  5
12B
330
113
100
AcDbEntity
  8
D000121
  6
Continuous
 62
     7
100
AcDbLine
 10
125.3073737667
 20
160.5381141258
 30
0.0
 11
125.3073737667
 21
161.1777494713
 31
0.0
  0
LINE
  5
12C
330
113
100
AcDbEntity
  8
D000121
  6
Continuous
 62
     7
100
AcDbLine
 10
125.3073737667
 20
169.5381141258
 30
0.0
 11
125.3073737667
 21
161.1777494713
 31
0.0
  0
LINE
  5
12D
330
113
100
AcDbEntity
  8
D000121
  6
Continuous
 62
     7
100
AcDbLine
 10
125.1573737667
 20
160.5381141258
 30
0.0
 11
125.3073737667
 21
160.5381141258
 31
0.0
  0
LINE
  5
12E
330
113
100
AcDbEntity
  8
D000121
  6
Continuous
 62
     7
100
AcDbLine
 10
136.1073737667
 20
160.5381141258
 30
0.0
 11
136.2573737667
 21
160.5381141258
 31
0.0
  0
LINE
  5
12F
330
113
100
AcDbEntity
  8
D000121
  6
Continuous
 62
     7
100
AcDbLine
 10
136.1073737667
 20
160.5381141258
 30
0.0
 11
132.274836448
 21
160.5381141258
 31
0.0
  0
LINE
  5
130
330
113
100
AcDbEntity
  8
D000121
  6
Continuous
 62
     7
100
AcDbLine
 10
132.274836448
 20
160.5381141258
 30
0.0
 11
129.1399110853
 21
160.5381141258
 31
0.0
  0
LINE
  5
131
330
113
100
AcDbEntity
  8
D000121
  6
Continuous
 62
     7
100
AcDbLine
 10
129.1399110853
 20
160.5381141258
 30
0.0
 11
125.3073737667
 21
160.5381141258
 31
0.0
  0
LINE
  5
132
330
113
100
AcDbEntity
  8
D000121
  6
Continuous
 62
     7
100
AcDbLine
 10
129.1573737667
 20
169.5381141258
 30
0.0
 11
129.4303926061
 21
169.5381141258
 31
0.0
  0
LINE
  5
133
330
113
100
AcDbEntity
  8
D000121
  6
Continuous
 62
     7
100
AcDbLine
 10
129.1573737667
 20
169.5381141258
 30
0.0
 11
125.3073737667
 21
169.5381141258
 31
0.0
  0
LINE
  5
134
330
113
100
AcDbEntity
  8
D000121
  6
Continuous
 62
     7
100
AcDbLine
 10
129.5255718182
 20
166.4021841238
 30
0.0
 11
129.1573737667
 21
166.9280254372
 31
0.0
  0
LINE
  5
135
330
113
100
AcDbEntity
  8
D000121
  6
Continuous
 62
     7
100
AcDbLine
 10
129.5255718182
 20
169.4021841238
 30
0.0
 11
129.4303926061
 21
169.5381141258
 31
0.0
  0
LINE
  5
136
330
113
100
AcDbEntity
  8
D000121
  6
Continuous
 62
     7
100
AcDbLine
 10
129.1573737667
 20
165.5733868684
 30
0.0
 11
129.5255718182
 21
166.0992281818
 31
0.0
  0
ELLIPSE
  5
137
330
113
100
AcDbEntity
  8
D000121
  6
Continuous
 62
     7
100
AcDbEllipse
 10
129.419505801
 20
166.2507061528
 30
0.0
 11
0.0
 21
-0.2142222010113174
 31
0.0
210
0.0
220
0.0
230
1.0
 40
0.7002075382
 41
0.7853981633973683
 42
2.356194490192425
  0
ELLIPSE
  5
138
330
113
100
AcDbEntity
  8
D000121
  6
Continuous
 62
     7
100
AcDbEllipse
 10
129.419505801
 20
169.2507061528
 30
0.0
 11
2.168404344971009E-15
 21
-0.214222201011317
 31
0.0
210
0.0
220
0.0
230
1.0
 40
0.7002075382
 41
1.570796326794889
 42
2.356194490192232
  0
LINE
  5
139
330
113
100
AcDbEntity
  8
D000121
  6
Continuous
 62
     7
100
AcDbLine
 10
129.1573737667
 20
166.9280254372
 30
0.0
 11
129.1573737667
 21
169.5381141258
 31
0.0
  0
LINE
  5
13A
330
113
100
AcDbEntity
  8
D000121
  6
Continuous
 62
     7
100
AcDbLine
 10
131.9843549272
 20
169.5381141258
 30
0.0
 11
132.2573737667
 21
169.5381141258
 31
0.0
  0
LINE
  5
13B
330
113
100
AcDbEntity
  8
D000121
  6
Continuous
 62
     7
100
AcDbLine
 10
136.1073737667
 20
169.5381141258
 30
0.0
 11
132.2573737667
 21
169.5381141258
 31
0.0
  0
LINE
  5
13C
330
113
100
AcDbEntity
  8
D000121
  6
Continuous
 62
     7
100
AcDbLine
 10
132.2573737667
 20
166.9280254372
 30
0.0
 11
131.8891757151
 21
166.4021841238
 31
0.0
  0
LINE
  5
13D
330
113
100
AcDbEntity
  8
D000121
  6
Continuous
 62
     7
100
AcDbLine
 10
131.9843549272
 20
169.5381141258
 30
0.0
 11
131.8891757151
 21
169.4021841238
 31
0.0
  0
LINE
  5
13E
330
113
100
AcDbEntity
  8
D000121
  6
Continuous
 62
     7
100
AcDbLine
 10
131.8891757151
 20
166.0992281818
 30
0.0
 11
132.2573737667
 21
165.5733868684
 31
0.0
  0
ELLIPSE
  5
13F
330
113
100
AcDbEntity
  8
D000121
  6
Continuous
 62
     7
100
AcDbEllipse
 10
131.9952417323
 20
166.2507061528
 30
0.0
 11
-2.168404344971009E-16
 21
0.2142222010113174
 31
0.0
210
0.0
220
0.0
230
1.0
 40
0.7002075382
 41
0.7853981633973683
 42
2.356194490192424
  0
ELLIPSE
  5
140
330
113
100
AcDbEntity
  8
D000121
  6
Continuous
 62
     7
100
AcDbEllipse
 10
131.9952417323
 20
169.2507061528
 30
0.0
 11
2.168404344971009E-16
 21
0.2142222010113179
 31
0.0
210
0.0
220
0.0
230
1.0
 40
0.7002075382
 41
0.7853981633975593
 42
1.570796326794897
  0
LINE
  5
141
330
113
100
AcDbEntity
  8
D000121
  6
Continuous
 62
     7
100
AcDbLine
 10
132.2573737667
 20
169.5381141258
 30
0.0
 11
132.2573737667
 21
166.9280254372
 31
0.0
  0
LINE
  5
142
330
113
100
AcDbEntity
  8
D000121
  6
Continuous
 62
     7
100
AcDbLine
 10
132.2636715715
 20
161.1777494713
 30
0.0
 11
132.2573813831
 21
161.5381141258
 31
0.0
  0
LINE
  5
143
330
113
100
AcDbEntity
  8
D000121
  6
Continuous
 62
     7
100
AcDbLine
 10
132.2573737667
 20
165.5733868684
 30
0.0
 11
132.2573737667
 21
163.5381141258
 31
0.0
  0
LINE
  5
144
330
113
100
AcDbEntity
  8
D000121
  6
Continuous
 62
     7
100
AcDbLine
 10
129.1573737667
 20
163.5381141258
 30
0.0
 11
129.1573737667
 21
165.5733868684
 31
0.0
  0
LINE
  5
145
330
113
100
AcDbEntity
  8
D000121
  6
Continuous
 62
     7
100
AcDbLine
 10
129.1573661503
 20
161.5381141258
 30
0.0
 11
129.1510759618
 21
161.1777494713
 31
0.0
  0
LINE
  5
146
330
113
100
AcDbEntity
  8
D000121
  6
Continuous
 62
     7
100
AcDbLine
 10
129.1510759618
 20
161.1777494713
 30
0.0
 11
129.1399110853
 21
160.5381141258
 31
0.0
  0
LINE
  5
147
330
113
100
AcDbEntity
  8
D000121
  6
Continuous
 62
     7
100
AcDbLine
 10
132.274836448
 20
160.5381141258
 30
0.0
 11
132.2636715715
 21
161.1777494713
 31
0.0
  0
LINE
  5
148
330
113
100
AcDbEntity
  8
D000121
  6
Continuous
 62
     7
100
AcDbLine
 10
129.569505801
 20
166.5381141258
 30
0.0
 11
131.8452417323
 21
166.5381141258
 31
0.0
  0
LINE
  5
149
330
113
100
AcDbEntity
  8
D000121
  6
Continuous
 62
     7
100
AcDbLine
 10
125.1573737667
 20
166.5381141258
 30
0.0
 11
125.3073737667
 21
166.5381141258
 31
0.0
  0
LINE
  5
14A
330
113
100
AcDbEntity
  8
D000121
  6
Continuous
 62
     7
100
AcDbLine
 10
136.1073737667
 20
166.5381141258
 30
0.0
 11
136.2573737667
 21
166.5381141258
 31
0.0
  0
LINE
  5
14B
330
113
100
AcDbEntity
  8
D000121
  6
Continuous
 62
     7
100
AcDbLine
 10
136.2573737667
 20
166.5381141258
 30
0.0
 11
136.2573737667
 21
165.0976102031
 31
0.0
  0
LINE
  5
14C
330
113
100
AcDbEntity
  8
D000121
  6
Continuous
 62
     7
100
AcDbLine
 10
136.2573737667
 20
160.8983228409
 30
0.0
 11
136.2573737667
 21
160.5381141258
 31
0.0
  0
LINE
  5
14D
330
113
100
AcDbEntity
  8
D000121
  6
Continuous
 62
     7
100
AcDbLine
 10
125.1573737667
 20
166.5381141258
 30
0.0
 11
125.1573737667
 21
165.0982599353
 31
0.0
  0
LINE
  5
14E
330
113
100
AcDbEntity
  8
D000121
  6
Continuous
 62
     7
100
AcDbLine
 10
125.1573737667
 20
160.8983228409
 30
0.0
 11
125.1573737667
 21
160.5381141258
 31
0.0
  0
LINE
  5
14F
330
113
100
AcDbEntity
  8
D000121
  6
Continuous
 62
     7
100
AcDbLine
 10
129.569505801
 20
166.2507061528
 30
0.0
 11
129.569505801
 21
169.2507061528
 31
0.0
  0
LINE
  5
150
330
113
100
AcDbEntity
  8
D000121
  6
Continuous
 62
     7
100
AcDbLine
 10
131.8452417323
 20
169.2507061528
 30
0.0
 11
131.8452417323
 21
166.2507061528
 31
0.0
  0
LINE
  5
151
330
113
100
AcDbEntity
  8
D000122
  6
Continuous
 62
     7
100
AcDbLine
 10
128.7073737667
 20
173.0381141258
 30
0.0
 11
128.7073737667
 21
173.5381141258
 31
0.0
  0
LINE
  5
152
330
113
100
AcDbEntity
  8
D000122
  6
Continuous
 62
     7
100
AcDbLine
 10
132.7073737667
 20
173.5381141258
 30
0.0
 11
132.7073737667
 21
173.0381141258
 31
0.0
  0
ELLIPSE
  5
153
330
113
100
AcDbEntity
  8
D000122
  6
Continuous
 62
     7
100
AcDbEllipse
 10
129.7926859605
 20
172.5381141258
 30
0.0
 11
2.168404344971009E-16
 21
-0.5000000000000004
 31
0.0
210
0.0
220
0.0
230
1.0
 40
0.3057306815
 41
1.919862177193763
 42
3.141592653589793
  0
LINE
  5
154
330
113
100
AcDbEntity
  8
D000122
  6
Continuous
 62
     7
100
AcDbLine
 10
127.1574775358
 20
173.0381141258
 30
0.0
 11
129.7926859605
 21
173.0381141258
 31
0.0
  0
ARC
  5
155
330
113
100
AcDbEntity
  8
D000122
  6
Continuous
 62
     7
100
AcDbCircle
 10
127.1574775358
 20
172.5381141258
 30
0.0
 40
0.5000000000000022
100
AcDbArc
 50
90.0
 51
160.0
  0
LINE
  5
156
330
113
100
AcDbEntity
  8
D000122
  6
Continuous
 62
     7
100
AcDbLine
 10
129.8953375467
 20
173.0775282261
 30
0.0
 11
129.9363323931
 21
172.7091241975
 31
0.0
  0
ELLIPSE
  5
157
330
113
100
AcDbEntity
  8
D000122
  6
Continuous
 62
     7
100
AcDbEllipse
 10
129.694232541
 20
172.8381141258
 30
0.0
 11
-1.517883041479706E-15
 21
-0.7000000000000079
 31
0.0
210
0.0
220
0.0
230
1.0
 40
0.3057306815
 41
1.919862177193794
 42
3.1415926535898
  0
LINE
  5
158
330
113
100
AcDbEntity
  8
D000122
  6
Continuous
 62
     7
100
AcDbLine
 10
129.694232541
 20
173.5381141258
 30
0.0
 11
128.7073737667
 21
173.5381141258
 31
0.0
  0
LINE
  5
159
330
113
100
AcDbEntity
  8
D000122
  6
Continuous
 62
     7
100
AcDbLine
 10
129.694232541
 20
173.5381141258
 30
0.0
 11
131.7205149923
 21
173.5381141258
 31
0.0
  0
LINE
  5
15A
330
113
100
AcDbEntity
  8
D000122
  6
Continuous
 62
     7
100
AcDbLine
 10
132.7073737667
 20
173.5381141258
 30
0.0
 11
131.7205149923
 21
173.5381141258
 31
0.0
  0
LINE
  5
15B
330
113
100
AcDbEntity
  8
D000122
  6
Continuous
 62
     7
100
AcDbLine
 10
131.6220615729
 20
173.0381141258
 30
0.0
 11
134.2572699976
 21
173.0381141258
 31
0.0
  0
LINE
  5
15C
330
113
100
AcDbEntity
  8
D000122
  6
Continuous
 62
     7
100
AcDbLine
 10
136.1573737667
 20
166.5381141258
 30
0.0
 11
136.1573737667
 21
167.105821951
 31
0.0
  0
ARC
  5
15D
330
113
100
AcDbEntity
  8
D000122
  6
Continuous
 62
     7
100
AcDbCircle
 10
135.5073737667
 20
166.0381141258
 30
0.0
 40
1.25
100
AcDbArc
 50
58.6677485024
 51
61.3145979859
  0
LINE
  5
15E
330
113
100
AcDbEntity
  8
D000122
  6
Continuous
 62
     7
100
AcDbLine
 10
131.8452417323
 20
168.9168979966
 30
0.0
 11
129.569505801
 21
168.9168979966
 31
0.0
  0
ARC
  5
15F
330
113
100
AcDbEntity
  8
D000122
  6
Continuous
 62
     7
100
AcDbCircle
 10
125.9073737667
 20
166.0381141258
 30
0.0
 40
1.25
100
AcDbArc
 50
118.6854020141
 51
121.3322514976
  0
LINE
  5
160
330
113
100
AcDbEntity
  8
D000122
  6
Continuous
 62
     7
100
AcDbLine
 10
125.2573737667
 20
167.105821951
 30
0.0
 11
125.2573737667
 21
166.5381141258
 31
0.0
  0
ELLIPSE
  5
161
330
113
100
AcDbEntity
  8
D000122
  6
Continuous
 62
     7
100
AcDbEllipse
 10
131.6220615729
 20
172.5381141258
 30
0.0
 11
1.084202172485504E-16
 21
0.5000000000000022
 31
0.0
210
0.0
220
0.0
230
1.0
 40
0.3057306815
 41
0.0
 42
1.221730476396032
  0
ARC
  5
162
330
113
100
AcDbEntity
  8
D000122
  6
Continuous
 62
     7
100
AcDbCircle
 10
134.2572699976
 20
172.5381141258
 30
0.0
 40
0.5000000000000022
100
AcDbArc
 50
20.0
 51
90.0
  0
LINE
  5
163
330
113
100
AcDbEntity
  8
D000122
  6
Continuous
 62
     7
100
AcDbLine
 10
131.5194099866
 20
173.0775282261
 30
0.0
 11
131.4784151402
 21
172.7091241975
 31
0.0
  0
LINE
  5
164
330
113
100
AcDbEntity
  8
D000122
  6
Continuous
 62
     7
100
AcDbLine
 10
126.6876312254
 20
172.7091241975
 30
0.0
 11
125.5334779467
 21
169.5381141258
 31
0.0
  0
LINE
  5
165
330
113
100
AcDbEntity
  8
D000122
  6
Continuous
 62
     7
100
AcDbLine
 10
135.8812695866
 20
169.5381141258
 30
0.0
 11
134.727116308
 21
172.7091241975
 31
0.0
  0
ARC
  5
166
330
113
100
AcDbEntity
  8
D000122
  6
Continuous
 62
     7
100
AcDbCircle
 10
125.9073737667
 20
166.0381141258
 30
0.0
 40
1.25
100
AcDbArc
 50
121.3322514976
 51
124.6124719347
  0
ARC
  5
167
330
113
100
AcDbEntity
  8
D000122
  6
Continuous
 62
     7
100
AcDbCircle
 10
125.9073737667
 20
166.0381141258
 30
0.0
 40
1.25
100
AcDbArc
 50
152.98162851
 51
207.0183725612
  0
ARC
  5
168
330
113
100
AcDbEntity
  8
D000122
  6
Continuous
 62
     7
100
AcDbCircle
 10
135.5073737667
 20
166.0381141258
 30
0.0
 40
1.25
100
AcDbArc
 50
332.8782215225
 51
27.2149006281
  0
ARC
  5
169
330
113
100
AcDbEntity
  8
D000122
  6
Continuous
 62
     7
100
AcDbCircle
 10
135.5073737667
 20
166.0381141258
 30
0.0
 40
1.25
100
AcDbArc
 50
55.2966933855
 51
58.6677485024
  0
ELLIPSE
  5
16A
330
113
100
AcDbEntity
  8
D000122
  6
Continuous
 62
     7
100
AcDbEllipse
 10
131.7205149923
 20
172.8381141258
 30
0.0
 11
2.168404344971009E-16
 21
0.6999999999999993
 31
0.0
210
0.0
220
0.0
230
1.0
 40
0.3057306815
 41
0.000000000000001
 42
1.221730476396039
  0
LINE
  5
16B
330
113
100
AcDbEntity
  8
D000123
  6
Continuous
 62
     7
100
AcDbLine
 10
124.5087951229
 20
165.7552714082
 30
0.0
 11
125.119505801
 21
165.1445607301
 31
0.0
  0
ARC
  5
16C
330
113
100
AcDbEntity
  8
D000123
  6
Continuous
 62
     7
100
AcDbCircle
 10
124.7916378354
 20
166.0381141207
 30
0.0
 40
0.4
100
AcDbArc
 50
135.0
 51
225.0
  0
LINE
  5
16D
330
113
100
AcDbEntity
  8
D000123
  6
Continuous
 62
     7
100
AcDbLine
 10
136.90751867
 20
166.3209568012
 30
0.0
 11
136.2961396088
 21
166.9329626157
 31
0.0
  0
ARC
  5
16E
330
113
100
AcDbEntity
  8
D000123
  6
Continuous
 62
     7
100
AcDbCircle
 10
136.6245310913
 20
166.0382590292
 30
0.0
 40
0.4000000000000001
100
AcDbArc
 50
314.9706467581
 51
44.9706467581
  0
LINE
  5
16F
330
113
100
AcDbEntity
  8
D000123
  6
Continuous
 62
     7
100
AcDbLine
 10
136.2083802928
 20
167.1449859447
 30
0.0
 11
136.2083802928
 21
167.4624002045
 31
0.0
  0
ARC
  5
170
330
113
100
AcDbEntity
  8
D000123
  6
Continuous
 62
     7
100
AcDbCircle
 10
136.5083802928
 20
167.1449859447
 30
0.0
 40
0.2999999999999999
100
AcDbArc
 50
180.0
 51
224.9706467581
  0
LINE
  5
171
330
113
100
AcDbEntity
  8
D000123
  6
Continuous
 62
     7
100
AcDbLine
 10
137.4073738936
 20
164.5971846806
 30
0.0
 11
137.4073738936
 21
161.1381141258
 31
0.0
  0
ARC
  5
172
330
113
100
AcDbEntity
  8
D000123
  6
Continuous
 62
     7
100
AcDbCircle
 10
137.7073738936
 20
164.5971846806
 30
0.0
 40
0.2999999999999999
100
AcDbArc
 50
153.8230499425
 51
180.0
  0
LINE
  5
173
330
113
100
AcDbEntity
  8
D000123
  6
Continuous
 62
     7
100
AcDbLine
 10
136.2953504377
 20
165.1440196476
 30
0.0
 11
136.9072288633
 21
165.7552714505
 31
0.0
  0
ARC
  5
174
330
113
100
AcDbEntity
  8
D000123
  6
Continuous
 62
     7
100
AcDbCircle
 10
136.5073737667
 20
164.9317789636
 30
0.0
 40
0.3000000000000004
100
AcDbArc
 50
134.9706467581
 51
180.0
  0
LINE
  5
175
330
113
100
AcDbEntity
  8
D000123
  6
Continuous
 62
     7
100
AcDbLine
 10
136.2396281327
 20
167.5957129062
 30
0.0
 11
136.8431903201
 21
168.8124659957
 31
0.0
  0
ARC
  5
176
330
113
100
AcDbEntity
  8
D000123
  6
Continuous
 62
     7
100
AcDbCircle
 10
136.5083802928
 20
167.4624002045
 30
0.0
 40
0.2999999999999999
100
AcDbArc
 50
153.6165986229
 51
180.0
  0
LINE
  5
177
330
113
100
AcDbEntity
  8
D000123
  6
Continuous
 62
     7
100
AcDbLine
 10
136.6913585657
 20
169.5387180649
 30
0.0
 11
135.8565907906
 21
170.2391713972
 31
0.0
  0
ARC
  5
178
330
113
100
AcDbEntity
  8
D000123
  6
Continuous
 62
     7
100
AcDbCircle
 10
136.3056859999
 20
169.0790913991
 30
0.0
 40
0.6000000000000001
100
AcDbArc
 50
333.6165986229
 51
50.0
  0
ARC
  5
179
330
113
100
AcDbEntity
  8
D000123
  6
Continuous
 62
     7
100
AcDbCircle
 10
136.8073738936
 20
161.1381141258
 30
0.0
 40
0.6000001269666436
100
AcDbArc
 50
180.0
 51
0.0
  0
LINE
  5
17A
330
113
100
AcDbEntity
  8
D000123
  6
Continuous
 62
     7
100
AcDbLine
 10
136.2073737667
 20
161.1381141258
 30
0.0
 11
136.2073737667
 21
164.9317789636
 31
0.0
  0
LINE
  5
17B
330
113
100
AcDbEntity
  8
D000123
  6
Continuous
 62
     7
100
AcDbLine
 10
135.6784477839
 20
170.493585977
 30
0.0
 11
134.7678055025
 21
172.9955550825
 31
0.0
  0
ARC
  5
17C
330
113
100
AcDbEntity
  8
D000123
  6
Continuous
 62
     7
100
AcDbCircle
 10
136.2422633564
 20
170.698798063
 30
0.0
 40
0.6000000000000005
100
AcDbArc
 50
200.0
 51
230.0
  0
ARC
  5
17D
330
113
100
AcDbEntity
  8
D000123
  6
Continuous
 62
     7
100
AcDbCircle
 10
130.7073737667
 20
168.0381145291
 30
0.0
 40
6.499999999999999
100
AcDbArc
 50
53.6549404883
 51
126.3450595117
  0
ARC
  5
17E
330
113
100
AcDbEntity
  8
D000123
  6
Continuous
 62
     7
100
AcDbCircle
 10
134.20398993
 20
172.7903429965
 30
0.0
 40
0.6000000000000005
100
AcDbArc
 50
20.0
 51
53.6549404883
  0
LINE
  5
17F
330
113
100
AcDbEntity
  8
D000123
  6
Continuous
 62
     7
100
AcDbLine
 10
125.119505801
 20
166.9316675113
 30
0.0
 11
124.5087951229
 21
166.3209568332
 31
0.0
  0
ARC
  5
180
330
113
100
AcDbEntity
  8
D000123
  6
Continuous
 62
     7
100
AcDbCircle
 10
124.9073737667
 20
167.1437995457
 30
0.0
 40
0.3000000000000004
100
AcDbArc
 50
315.0
 51
360.0
  0
ARC
  5
181
330
113
100
AcDbEntity
  8
D000123
  6
Continuous
 62
     7
100
AcDbCircle
 10
130.7073737667
 20
168.0381145291
 30
0.0
 40
7.500000000000001
100
AcDbArc
 50
333.8230499425
 51
206.1769500575
  0
ARC
  5
182
330
113
100
AcDbEntity
  8
D000123
  6
Continuous
 62
     7
100
AcDbCircle
 10
123.7073736397
 20
164.5971846806
 30
0.0
 40
0.2999999999999995
100
AcDbArc
 50
0.0
 51
26.1769500575
  0
LINE
  5
183
330
113
100
AcDbEntity
  8
D000123
  6
Continuous
 62
     7
100
AcDbLine
 10
125.2073737667
 20
164.9324286958
 30
0.0
 11
125.2073737667
 21
161.1381141258
 31
0.0
  0
ARC
  5
184
330
113
100
AcDbEntity
  8
D000123
  6
Continuous
 62
     7
100
AcDbCircle
 10
124.9073737667
 20
164.9324286958
 30
0.0
 40
0.2999999999999999
100
AcDbArc
 50
0.0
 51
45.0
  0
LINE
  5
185
330
113
100
AcDbEntity
  8
D000123
  6
Continuous
 62
     7
100
AcDbLine
 10
125.2073737667
 20
167.461100318
 30
0.0
 11
125.2073737667
 21
167.1437995457
 31
0.0
  0
ARC
  5
186
330
113
100
AcDbEntity
  8
D000123
  6
Continuous
 62
     7
100
AcDbCircle
 10
124.9073737667
 20
167.461100318
 30
0.0
 40
0.2999999999999999
100
AcDbArc
 50
0.0
 51
26.3919178685
  0
LINE
  5
187
330
113
100
AcDbEntity
  8
D000123
  6
Continuous
 62
     7
100
AcDbLine
 10
124.5716929534
 20
168.8124667434
 30
0.0
 11
125.1761061081
 21
167.5944529657
 31
0.0
  0
ARC
  5
188
330
113
100
AcDbEntity
  8
D000123
  6
Continuous
 62
     7
100
AcDbCircle
 10
125.1091576363
 20
169.0791720389
 30
0.0
 40
0.6000000000000004
100
AcDbArc
 50
130.0
 51
206.3919178685
  0
LINE
  5
189
330
113
100
AcDbEntity
  8
D000123
  6
Continuous
 62
     7
100
AcDbLine
 10
124.0073736397
 20
161.1381141258
 30
0.0
 11
124.0073736397
 21
164.5971846806
 31
0.0
  0
ARC
  5
18A
330
113
100
AcDbEntity
  8
D000123
  6
Continuous
 62
     7
100
AcDbCircle
 10
124.6073736397
 20
161.1381141258
 30
0.0
 40
0.5999999999999999
100
AcDbArc
 50
180.0
 51
0.0
  0
LINE
  5
18B
330
113
100
AcDbEntity
  8
D000123
  6
Continuous
 62
     7
100
AcDbLine
 10
125.5581567428
 20
170.2391713972
 30
0.0
 11
124.7234850705
 21
169.5387987048
 31
0.0
  0
ARC
  5
18C
330
113
100
AcDbEntity
  8
D000123
  6
Continuous
 62
     7
100
AcDbCircle
 10
125.1724841769
 20
170.698798063
 30
0.0
 40
0.6000000000000001
100
AcDbArc
 50
310.0
 51
340.0
  0
LINE
  5
18D
330
113
100
AcDbEntity
  8
D000123
  6
Continuous
 62
     7
100
AcDbLine
 10
126.6469420308
 20
172.9955550825
 30
0.0
 11
125.7362997494
 21
170.493585977
 31
0.0
  0
ARC
  5
18E
330
113
100
AcDbEntity
  8
D000123
  6
Continuous
 62
     7
100
AcDbCircle
 10
127.2107576033
 20
172.7903429965
 30
0.0
 40
0.599999999999999
100
AcDbArc
 50
126.3450595117
 51
160.0
  0
LINE
  5
190
330
113
100
AcDbEntity
  8
DV2_Standard
  6
CENTER2
 62
     7
100
AcDbLine
 10
130.7073737667
 20
157.0381141258
 30
0.0
 11
130.7073737667
 21
167.0381141258
 31
0.0
  0
ENDBLK
  5
192
330
113
100
AcDbEntity
  8
0
100
AcDbBlockEnd
  0
ENDSEC
  0
SECTION
  2
ENTITIES
  0
INSERT
  5
60
330
1F
100
AcDbEntity
  8
Standard
100
AcDbBlockReference
  2
SE
 10
0.0
 20
0.0
 30
0.0
  0
DIMENSION
  5
F5
330
1F
100
AcDbEntity
  8
Standard
  6
Continuous
 62
     7
100
AcDbDimension
  2
DMBLK394
 10
66.7144752437
 20
152.0763128785
 30
0.0
 11
73.4144755038
 21
152.0763128785
 31
0.0
 70
   161
  1
\A1;<>
 71
     5
 42
-1.0
 73
     0
 74
     0
 75
     0
  3
E-Katalog
100
AcDbAlignedDimension
 13
66.7144752437
 23
161.1381141258
 33
0.0
 14
80.1144754977
 24
161.1381141258
 34
0.0
  0
DIMENSION
  5
FF
330
1F
100
AcDbEntity
  8
Standard
  6
Continuous
 62
     7
100
AcDbDimension
  2
DMBLK395
 10
73.4144753707
 20
168.0381145291
 30
0.0
 11
83.0162161941
 21
173.8517587582
 31
0.0
 70
   164
  1
\A1;<>
 71
     5
 42
-1.0
 73
     0
 74
     0
 75
     0
  3
E-Katalog
100
AcDbRadialDimension
 15
79.8301148883
 25
171.9226440476
 35
0.0
 40
0.0
1001
ACAD
1000
DSTYLE
1002
{
1070
   271
1070
     2
1070
   283
1070
     1
1070
     0
1002
}
  0
DIMENSION
  5
107
330
1F
100
AcDbEntity
  8
Standard
  6
Continuous
 62
     7
100
AcDbDimension
  2
DMBLK396
 10
60.81660551
 20
175.5381145291
 30
0.0
 11
60.81660551
 21
168.0381144238
 31
0.0
 70
   160
  1
\A1;<>{\H0.7x; \S+4^ 0;}
 71
     5
 42
-1.0
 73
     0
 74
     0
 75
     0
  3
E-Katalog
100
AcDbAlignedDimension
 13
67.3144752437
 23
160.5381141258
 33
0.0
 14
73.4144753707
 24
175.5381145291
 34
0.0
 50
90.0
100
AcDbRotatedDimension
1001
ACAD
1000
DSTYLE
1002
{
1070
   271
1070
     2
1070
     0
1002
}
  0
INSERT
  5
114
330
1F
100
AcDbEntity
  8
Standard
100
AcDbBlockReference
  2
SE1
 10
0.0
 20
0.0
 30
0.0
  0
MTEXT
  5
194
330
1F
100
AcDbEntity
  8
Default
100
AcDbMText
 10
139.6221177889
 20
28.161474171
 30
0.0
 40
2.5
 41
60.0887616677
 46
5.4782708696
 71
     4
 72
     1
  1
{\fSolid Edge ISO|b0||i0||c0|p34;\C7;\H2.5;\W1.;BU-16K+}
 73
     1
 44
1.0
1001
ACAD
1000
ACAD_MTEXT_DEFINED_HEIGHT_BEGIN
1070
    46
1040
5.4782708696
1000
ACAD_MTEXT_DEFINED_HEIGHT_END
  0
LINE
  5
195
330
1F
100
AcDbEntity
  8
Default
  6
Continuous
 62
     7
100
AcDbLine
 10
138.2000000051
 20
9.9999999541
 30
0.0
 11
138.2000000051
 21
34.3502211504
 31
0.0
  0
MTEXT
  5
196
330
1F
100
AcDbEntity
  8
Default
100
AcDbMText
 10
122.5168744495
 20
17.5485405285
 30
0.0
 40
2.2
 41
15.7520375387
 46
4.0615484615
 71
     1
 72
     1
  1
{\fCiutadella Regular|b0||i0||c0|p34;\C7;\H2.2;\W0.5776;Maßst.}{\fCiutadella Regular|b0||i0||c0|p34;\C7;\H1.5;\W0.5776;/ scale}
 73
     1
 44
1.0
1001
ACAD
1000
ACAD_MTEXT_DEFINED_HEIGHT_BEGIN
1070
    46
1040
4.0615484615
1000
ACAD_MTEXT_DEFINED_HEIGHT_END
  0
MTEXT
  5
197
330
1F
100
AcDbEntity
  8
Default
100
AcDbMText
 10
148.2238718478
 20
15.907103298
 30
0.0
 40
2.2
 41
18.1206027323
 46
4.0615484615
 71
     5
 72
     1
  1
{\fCiutadella Regular|b0||i0||c0|p34;\C7;\H2.2;\W0.5776;Art. Nr.}{\fCiutadella Regular|b0||i0||c0|p34;\C7;\H1.5;\W0.5776;/ art. no.}
 73
     1
 44
1.0
1001
ACAD
1000
ACAD_MTEXT_DEFINED_HEIGHT_BEGIN
1070
    46
1040
4.0615484615
1000
ACAD_MTEXT_DEFINED_HEIGHT_END
  0
MTEXT
  5
198
330
1F
100
AcDbEntity
  8
Default
100
AcDbMText
 10
139.5512791446
 20
32.9682471949
 30
0.0
 40
2.2
 41
21.7100432289
 46
4.0615484615
 71
     1
 72
     1
  1
{\fCiutadella Regular|b0||i0||c0|p34;\C7;\H2.2;\W0.82;Benennung}{\fCiutadella Regular|b0||i0||c0|p34;\C7;\H1.5;\W0.82;/ title}
 73
     1
 44
1.0
1001
ACAD
1000
ACAD_MTEXT_DEFINED_HEIGHT_BEGIN
1070
    46
1040
4.0615484615
1000
ACAD_MTEXT_DEFINED_HEIGHT_END
  0
LINE
  5
199
330
1F
100
AcDbEntity
  8
Default
  6
Continuous
 62
     7
100
AcDbLine
 10
9.9999999859
 20
25.9987912971
 30
0.0
 11
199.9999999859
 21
25.9987912971
 31
0.0
  0
LINE
  5
19A
330
1F
100
AcDbEntity
  8
Default
  6
Continuous
 62
     7
100
AcDbLine
 10
138.2000000051
 20
34.3502211504
 30
0.0
 11
199.9999999859
 21
34.3502211504
 31
0.0
  0
MTEXT
  5
19B
330
1F
100
AcDbEntity
  8
Default
100
AcDbMText
 10
139.7786414766
 20
12.1030055624
 30
0.0
 40
3.0
 41
18.7991063348
 46
5.0845858028
 71
     4
 72
     1
  1
{\fSolid Edge ISO|b0||i0||c0|p34;\C7;\H3.;\W1.;5-310}
 73
     1
 44
1.0
1001
ACAD
1000
ACAD_MTEXT_DEFINED_HEIGHT_BEGIN
1070
    46
1040
5.0845858028
1000
ACAD_MTEXT_DEFINED_HEIGHT_END
  0
MTEXT
  5
19C
330
1F
100
AcDbEntity
  8
Standard
100
AcDbMText
 10
128.2243715112
 20
21.9523050455
 30
0.0
 40
2.5
 41
4.125011
 46
4.0909190909
 71
     1
 72
     1
  1
{\fSolid Edge ISO|b0||i0||c0|p34;\C7;\H2.5;\W1.;mm}
 73
     1
 44
1.0
1001
ACAD
1000
ACAD_MTEXT_DEFINED_HEIGHT_BEGIN
1070
    46
1040
4.0909190909
1000
ACAD_MTEXT_DEFINED_HEIGHT_END
  0
LINE
  5
19D
330
1F
100
AcDbEntity
  8
Standard
  6
Continuous
 62
     7
100
AcDbLine
 10
138.2000000051
 20
18.2287912793
 30
0.0
 11
106.3095894048
 21
18.2287912793
 31
0.0
  0
LINE
  5
19E
330
1F
100
AcDbEntity
  8
Standard
  6
Continuous
 62
     7
100
AcDbLine
 10
106.3095894048
 20
25.9987912971
 30
0.0
 11
106.3095894048
 21
9.9999999541
 31
0.0
  0
MTEXT
  5
19F
330
1F
100
AcDbEntity
  8
Standard
100
AcDbMText
 10
106.9145404388
 20
25.2290846617
 30
0.0
 40
2.2
 41
14.4015494615
 46
4.0615484615
 71
     1
 72
     1
  1
{\fCiutadella Regular|b0||i0||c0|p34;\C7;\H2.2;\W0.5776;freig.}{\fCiutadella Regular|b0||i0||c0|p34;\C7;\H1.5;\W0.5776;/ appr.}
 73
     1
 44
1.0
1001
ACAD
1000
ACAD_MTEXT_DEFINED_HEIGHT_BEGIN
1070
    46
1040
4.0615484615
1000
ACAD_MTEXT_DEFINED_HEIGHT_END
  0
MTEXT
  5
1A0
330
1F
100
AcDbEntity
  8
Default
100
AcDbMText
 10
107.6188207159
 20
17.6037681847
 30
0.0
 40
2.2
 41
13.1956831311
 46
4.0615484615
 71
     1
 72
     1
  1
{\fCiutadella Regular|b0||i0||c0|p34;\C7;\H2.2;\W0.5776;Blatt}{\fCiutadella Regular|b0||i0||c0|p34;\C7;\H1.5;\W0.5776;/ sheet}
 73
     1
 44
1.0
1001
ACAD
1000
ACAD_MTEXT_DEFINED_HEIGHT_BEGIN
1070
    46
1040
4.0615484615
1000
ACAD_MTEXT_DEFINED_HEIGHT_END
  0
MTEXT
  5
1A1
330
1F
100
AcDbEntity
  8
Standard
100
AcDbMText
 10
112.0531670475
 20
14.2192192227
 30
0.0
 40
3.0
 41
3.750011
 46
4.9091009091
 71
     1
 72
     1
  1
{\fSolid Edge ISO|b0||i0||c0|p34;\C7;\H3.;\W1.;A4}
 73
     1
 44
1.0
1001
ACAD
1000
ACAD_MTEXT_DEFINED_HEIGHT_BEGIN
1070
    46
1040
4.9091009091
1000
ACAD_MTEXT_DEFINED_HEIGHT_END
  0
MTEXT
  5
1A2
330
1F
100
AcDbEntity
  8
Default
100
AcDbMText
 10
107.1395513873
 20
20.4081738308
 30
0.0
 40
2.2
 41
14.7330465525
 46
3.6
 71
     4
 72
     1
  1
{\fSolid Edge ISO|b0||i0||c0|p34;\C7;\H2.2;\W1.;02.11.2023}
 73
     1
 44
1.0
1001
ACAD
1000
ACAD_MTEXT_DEFINED_HEIGHT_BEGIN
1070
    46
1040
3.6
1000
ACAD_MTEXT_DEFINED_HEIGHT_END
  0
MTEXT
  5
1A3
330
1F
100
AcDbEntity
  8
Standard
100
AcDbMText
 10
10.6587314417
 20
33.7981133176
 30
0.0
 40
1.2
 41
127.5412685634
 46
8.1685527897
 71
     1
 72
     1
  3
{\fCiutadella Regular|b0||i0||c0|p34;\C7;\H1.2;\W0.82;Weitergabe sowie Vervielfältigung dieser vertraulichen Unterlage(n), Verwertung und Mitteilung ihres Inhalts nicht ohne unsere vorherige schriftliche Genehmigung gestattet. \P}{\fCiutadella Regula
  3
r|b0||i0||c0|p34;\C7;\H1.2;\W0.82;Zuwiderhandlungen verpflichten zu Schadenersatz. Alle Rechte für den Fall der Patenterteilung oder Gebrauchsmuster-Eintragung vorbehalten.\P}{\fCiutadella Regular|b0||i0||c0|p34;\C7;\H1.;\W0.82;The copying, use, dist
  3
ribution or disclosure of the confidential and proprietary information contained in this document(s) is strictly prohibited without prior written consent. Any breach shall subject the \P}{\fCiutadella Regular|b0||i0||c0|p34;\C7;\H1.;\W0.82;infringing
  1
 party to remedies. The owner reserves all rights in the event of the grant of a patent or the registration of a utility model or design.}
 73
     1
 44
0.9
1001
ACAD
1000
ACAD_MTEXT_DEFINED_HEIGHT_BEGIN
1070
    46
1040
8.1685527897
1000
ACAD_MTEXT_DEFINED_HEIGHT_END
  0
MTEXT
  5
1A4
330
1F
100
AcDbEntity
  8
Default
100
AcDbMText
 10
139.5531289039
 20
20.5520608538
 30
0.0
 40
2.5
 41
59.872727305
 46
4.6153946154
 71
     4
 72
     1
  1
{\fSolid Edge ISO|b0||i0||c0|p34;\C7;\H2.5;\W1.;technische Zeichnung mkt}
 73
     1
 44
1.0
1001
ACAD
1000
ACAD_MTEXT_DEFINED_HEIGHT_BEGIN
1070
    46
1040
4.6153946154
1000
ACAD_MTEXT_DEFINED_HEIGHT_END
  0
MTEXT
  5
1A5
330
1F
100
AcDbEntity
  8
Default
100
AcDbMText
 10
139.645932934
 20
25.5772390452
 30
0.0
 40
2.2
 41
33.0612482929
 46
4.0615484615
 71
     1
 72
     1
  1
{\fCiutadella Regular|b0||i0||c0|p34;\C7;\H2.2;\W0.82;Zeichnungsart}{\fCiutadella Regular|b0||i0||c0|p34;\C7;\H1.5;\W0.82;/ drawing type}
 73
     1
 44
1.0
1001
ACAD
1000
ACAD_MTEXT_DEFINED_HEIGHT_BEGIN
1070
    46
1040
4.0615484615
1000
ACAD_MTEXT_DEFINED_HEIGHT_END
  0
MTEXT
  5
1A6
330
1F
100
AcDbEntity
  8
Standard
100
AcDbMText
 10
122.722860057
 20
25.1473558409
 30
0.0
 40
2.2
 41
15.8428315128
 46
4.0615484615
 71
     1
 72
     1
  1
{\fCiutadella Regular|b0||i0||c0|p34;\C7;\H2.2;\W0.5776;Einheit}{\fCiutadella Regular|b0||i0||c0|p34;\C7;\H1.5;\W0.5776;/ unit}
 73
     1
 44
1.0
1001
ACAD
1000
ACAD_MTEXT_DEFINED_HEIGHT_BEGIN
1070
    46
1040
4.0615484615
1000
ACAD_MTEXT_DEFINED_HEIGHT_END
  0
LINE
  5
1A7
330
1F
100
AcDbEntity
  8
Standard
  6
Continuous
 62
     7
100
AcDbLine
 10
122.1841943695
 20
25.9987912971
 30
0.0
 11
122.1841943695
 21
10.0
 31
0.0
  0
LINE
  5
1A8
330
1F
100
AcDbEntity
  8
Standard
  6
Continuous
 62
     7
100
AcDbLine
 10
138.2000000051
 20
18.2287912793
 30
0.0
 11
200.0
 21
18.2287912793
 31
0.0
  0
LINE
  5
1A9
330
1F
100
AcDbEntity
  8
Standard
  6
Continuous
 62
     7
100
AcDbLine
 10
138.2000000051
 20
34.3502211504
 30
0.0
 11
10.0
 21
34.3502211504
 31
0.0
  0
LINE
  5
1AB
330
1F
100
AcDbEntity
  8
Skizziergeometrie(DIN)
  6
Continuous
 62
     7
100
AcDbLine
 10
10.0
 20
287.0
 30
0.0
 11
200.0
 21
287.0
 31
0.0
  0
LINE
  5
1AC
330
1F
100
AcDbEntity
  8
Skizziergeometrie(DIN)
  6
Continuous
 62
     7
100
AcDbLine
 10
200.0
 20
287.0
 30
0.0
 11
200.0
 21
9.9999926436
 31
0.0
  0
LINE
  5
1AD
330
1F
100
AcDbEntity
  8
Skizziergeometrie(DIN)
  6
Continuous
 62
     7
100
AcDbLine
 10
200.0
 20
9.9999926436
 30
0.0
 11
10.0
 21
9.9999926436
 31
0.0
  0
LINE
  5
1AE
330
1F
100
AcDbEntity
  8
Skizziergeometrie(DIN)
  6
Continuous
 62
     7
100
AcDbLine
 10
10.0
 20
10.0
 30
0.0
 11
10.0
 21
287.0
 31
0.0
  0
MTEXT
  5
1AF
330
1F
100
AcDbEntity
  8
Standard
100
AcDbMText
 10
127.9789879242
 20
14.0371568264
 30
0.0
 40
3.0
 41
3.225011
 46
4.9091009091
 71
     1
 72
     1
  1
{\fSolid Edge ISO|b0||i0||c0|p34;\C7;\H3.;\W1.;1:1}
 73
     1
 44
1.0
1001
ACAD
1000
ACAD_MTEXT_DEFINED_HEIGHT_BEGIN
1070
    46
1040
4.9091009091
1000
ACAD_MTEXT_DEFINED_HEIGHT_END
  0
IMAGE
  5
1B3
330
1F
100
AcDbEntity
  8
0
 92
      140
310
8C000000010000008400000006000000050000000E64D78BE9972B40BC01B030F29425400000000000000000559114E8E5774740BC01B030F29425400000000000000000559114E8E5774740017F9619FA7E384000000000000000000E64D78BE9972B40017F9619FA7E384000000000000000000E64D78BE9972B40BC01B0
310
30F29425400000000000000000
100
AcDbRasterImage
 90
        0
 10
13.7967036915
 20
10.7909102645
 30
0.0
 11
0.07742990654205607
 21
0.0
 31
0.0
 12
0.0
 22
0.07742990654205609
 32
0.0
 13
428.0
 23
177.0
340
1B2
 70
     7
280
     0
281
    50
282
    50
283
     0
360
1B4
 71
     1
 91
        2
 14
-0.5
 24
-0.5
 14
427.5
 24
176.5
  0
ENDSEC
  0
SECTION
  2
OBJECTS
  0
DICTIONARY
  5
C
330
0
100
AcDbDictionary
281
     1
  3
ACAD_DETAILVIEWSTYLE
350
1F0
  3
ACAD_GROUP
350
D
  3
ACAD_IMAGE_DICT
350
1B1
  3
ACAD_IMAGE_VARS
350
1B0
  3
ACAD_LAYOUT
350
1A
  3
ACAD_MATERIAL
350
43
  3
ACAD_MLEADERSTYLE
350
5B
  3
ACAD_MLINESTYLE
350
17
  3
ACAD_PLOTSETTINGS
350
19
  3
ACAD_PLOTSTYLENAME
350
E
  3
ACAD_SCALELIST
350
47
  3
ACAD_SECTIONVIEWSTYLE
350
1F1
  3
ACAD_TABLESTYLE
350
59
  3
ACAD_VISUALSTYLE
350
2A
  3
ACDB_RECOMPOSE_DATA
350
1ED
  3
AcDbVariableDictionary
350
1B5
  0
SUN
  5
5D
330
29
100
AcDbSun
 90
        1
290
     0
 63
     7
421
 16777215
 40
1.0
291
     1
 91
  2455826
 92
 54000000
292
     0
 70
     2
 71
   256
280
     1
  0
IMAGEDEF_REACTOR
  5
1B4
330
1B3
100
AcDbRasterImageDefReactor
 90
        2
330
1B3
  0
DICTIONARY
  5
1F0
102
{ACAD_REACTORS
330
C
102
}
330
C
100
AcDbDictionary
281
     1
  0
DICTIONARY
  5
D
102
{ACAD_REACTORS
330
C
102
}
330
C
100
AcDbDictionary
281
     1
  0
DICTIONARY
  5
1B1
102
{ACAD_REACTORS
330
C
102
}
330
C
100
AcDbDictionary
281
     1
  3
BU-16K+-1x_1.bmp
350
1B2
  0
RASTERVARIABLES
  5
1B0
102
{ACAD_REACTORS
330
C
102
}
330
C
100
AcDbRasterVariables
 90
        0
 70
     1
 71
     1
 72
     1
  0
DICTIONARY
  5
1A
102
{ACAD_REACTORS
330
C
102
}
330
C
100
AcDbDictionary
281
     1
  3
Layout1
350
1E
  3
Model
350
22
  0
DICTIONARY
  5
43
102
{ACAD_REACTORS
330
C
102
}
330
C
100
AcDbDictionary
281
     1
  3
ByBlock
350
45
  3
ByLayer
350
44
  3
Global
350
46
  0
DICTIONARY
  5
5B
102
{ACAD_REACTORS
330
C
102
}
330
C
100
AcDbDictionary
281
     1
  3
Standard
350
5C
  0
DICTIONARY
  5
17
102
{ACAD_REACTORS
330
C
102
}
330
C
100
AcDbDictionary
281
     1
  3
Standard
350
18
  0
DICTIONARY
  5
19
102
{ACAD_REACTORS
330
C
102
}
330
C
100
AcDbDictionary
281
     1
  0
ACDBDICTIONARYWDFLT
  5
E
102
{ACAD_REACTORS
330
C
102
}
330
C
100
AcDbDictionary
281
     1
  3
Normal
350
F
100
AcDbDictionaryWithDefault
340
F
  0
DICTIONARY
  5
47
102
{ACAD_REACTORS
330
C
102
}
330
C
100
AcDbDictionary
281
     1
  3
A0
350
48
  3
A1
350
49
  3
A2
350
4A
  3
A3
350
4B
  3
A4
350
4C
  3
A5
350
4D
  3
A6
350
4E
  3
A7
350
4F
  3
A8
350
50
  3
A9
350
51
  3
B0
350
52
  3
B1
350
53
  3
B2
350
54
  3
B3
350
55
  3
B4
350
56
  3
B5
350
57
  3
B6
350
58
  0
DICTIONARY
  5
1F1
102
{ACAD_REACTORS
330
C
102
}
330
C
100
AcDbDictionary
281
     1
  0
DICTIONARY
  5
59
102
{ACAD_REACTORS
330
C
102
}
330
C
100
AcDbDictionary
281
     1
  3
Standard
350
5A
  0
DICTIONARY
  5
2A
102
{ACAD_REACTORS
330
C
102
}
330
C
100
AcDbDictionary
281
     1
  3
2dWireframe
350
2F
  3
Basic
350
32
  3
Brighten
350
36
  3
ColorChange
350
3A
  3
Conceptual
350
34
  3
Dim
350
35
  3
EdgeColorOff
350
3D
  3
Facepattern
350
39
  3
Flat
350
2B
  3
FlatWithEdges
350
2C
  3
Gouraud
350
2D
  3
GouraudWithEdges
350
2E
  3
Hidden
350
31
  3
JitterOff
350
3B
  3
Linepattern
350
38
  3
OverhangOff
350
3C
  3
Realistic
350
33
  3
Shaded
350
42
  3
Shaded with edges
350
41
  3
Shades of Gray
350
3E
  3
Sketchy
350
3F
  3
Thicken
350
37
  3
Wireframe
350
30
  3
X-Ray
350
40
  0
XRECORD
  5
1ED
102
{ACAD_REACTORS
330
C
102
}
330
C
100
AcDbXrecord
280
     1
 90
        1
330
5A
  0
DICTIONARY
  5
1B5
102
{ACAD_REACTORS
330
C
102
}
330
C
100
AcDbDictionary
281
     1
  3
CANNOSCALE
350
1B6
  3
CENTEREXE
350
1F2
  3
CENTERLTYPEFILE
350
1F3
  3
CMLEADERSTYLE
350
1EF
  3
CTABLESTYLE
350
1EE
  3
XCLIPFRAME
350
1B7
  0
IMAGEDEF
  5
1B2
102
{ACAD_REACTORS
330
1B1
330
1B4
102
}
330
1B1
100
AcDbRasterImageDef
 90
        0
  1
BU-16K+-1x_1.bmp
 10
428.0
 20
177.0
 11
0.002336448598130841
 21
0.002336448598130841
280
     1
281
     5
  0
LAYOUT
  5
1E
102
{ACAD_REACTORS
330
1A
102
}
330
1A
100
AcDbPlotSettings
  1

  2
none_device
  4

  6

 40
0.0
 41
0.0
 42
0.0
 43
0.0
 44
0.0
 45
0.0
 46
0.0
 47
0.0
 48
0.0
 49
0.0
140
0.0
141
0.0
142
1.0
143
1.0
 70
   688
 72
     1
 73
     0
 74
     5
  7

 75
    16
 76
     0
 77
     2
 78
   300
147
1.0
148
0.0
149
0.0
100
AcDbLayout
  1
Layout1
 70
     1
 71
     1
 10
0.0
 20
0.0
 11
210.0
 21
297.0
 12
0.0
 22
0.0
 32
0.0
 14
0.0
 24
0.0
 34
0.0
 15
210.0
 25
297.0
 35
0.0
146
0.0
 13
0.0
 23
0.0
 33
0.0
 16
1.0
 26
0.0
 36
0.0
 17
0.0
 27
1.0
 37
0.0
 76
     0
330
1B
  0
LAYOUT
  5
22
102
{ACAD_REACTORS
330
1A
102
}
330
1A
100
AcDbPlotSettings
  1

  2
none_device
  4
Letter_(8.50_x_11.00_Inches)
  6

 40
6.35
 41
6.35
 42
6.35000508
 43
6.35000508
 44
215.9
 45
279.4
 46
0.0
 47
0.0
 48
0.0
 49
0.0
140
0.0
141
0.0
142
1.0
143
1.0
 70
  1712
 72
     1
 73
     0
 74
     0
  7

 75
     0
 76
     0
 77
     2
 78
   300
147
1.0
148
0.0
149
0.0
100
AcDbLayout
  1
Model
 70
     1
 71
     0
 10
0.0
 20
0.0
 11
210.0
 21
297.0
 12
0.0
 22
0.0
 32
0.0
 14
0.0
 24
0.0
 34
0.0
 15
210.0
 25
297.0
 35
0.0
146
0.0
 13
0.0
 23
0.0
 33
0.0
 16
1.0
 26
0.0
 36
0.0
 17
0.0
 27
1.0
 37
0.0
 76
     0
330
1F
331
29
  0
MATERIAL
  5
45
102
{ACAD_REACTORS
330
43
102
}
330
43
100
AcDbMaterial
  1
ByBlock
 72
     1
 94
      127
  0
MATERIAL
  5
44
102
{ACAD_REACTORS
330
43
102
}
330
43
100
AcDbMaterial
  1
ByLayer
 72
     1
 94
      127
  0
MATERIAL
  5
46
102
{ACAD_REACTORS
330
43
102
}
330
43
100
AcDbMaterial
  1
Global
 72
     1
 94
      127
  0
MLEADERSTYLE
  5
5C
102
{ACAD_REACTORS
330
5B
102
}
102
{ACAD_XDICTIONARY
360
1EB
102
}
330
5B
100
AcDbMLeaderStyle
170
     2
171
     1
172
     0
 90
        2
 40
0.0
 41
0.0
173
     1
 91
-1056964608
340
14
 92
       -2
290
     1
 42
2.0
291
     1
 43
8.0
  3
Standard
341
0
 44
4.0
300

342
11
174
     1
178
     6
175
     1
176
     0
 93
-1056964608
 45
4.0
292
     0
297
     0
 46
4.0
343
0
 94
-1056964608
 47
1.0
 49
1.0
140
1.0
293
     1
141
0.0
294
     1
177
     0
142
1.0
295
     0
296
     0
143
3.75
1001
ACAD_MLEADERVER
1070
     2
  0
MLINESTYLE
  5
18
102
{ACAD_REACTORS
330
17
102
}
330
17
100
AcDbMlineStyle
  2
Standard
 70
     0
  3

 62
   256
 51
90.0
 52
90.0
 71
     2
 49
0.5
 62
   256
  6
BYLAYER
 49
-0.5
 62
   256
  6
BYLAYER
  0
ACDBPLACEHOLDER
  5
F
102
{ACAD_REACTORS
330
E
102
}
330
E
  0
SCALE
  5
48
102
{ACAD_REACTORS
330
47
102
}
330
47
100
AcDbScale
 70
     0
300
1:1
140
1.0
141
1.0
290
     1
  0
SCALE
  5
49
102
{ACAD_REACTORS
330
47
102
}
330
47
100
AcDbScale
 70
     0
300
1:2
140
1.0
141
2.0
290
     0
  0
SCALE
  5
4A
102
{ACAD_REACTORS
330
47
102
}
330
47
100
AcDbScale
 70
     0
300
1:4
140
1.0
141
4.0
290
     0
  0
SCALE
  5
4B
102
{ACAD_REACTORS
330
47
102
}
330
47
100
AcDbScale
 70
     0
300
1:5
140
1.0
141
5.0
290
     0
  0
SCALE
  5
4C
102
{ACAD_REACTORS
330
47
102
}
330
47
100
AcDbScale
 70
     0
300
1:8
140
1.0
141
8.0
290
     0
  0
SCALE
  5
4D
102
{ACAD_REACTORS
330
47
102
}
330
47
100
AcDbScale
 70
     0
300
1:10
140
1.0
141
10.0
290
     0
  0
SCALE
  5
4E
102
{ACAD_REACTORS
330
47
102
}
330
47
100
AcDbScale
 70
     0
300
1:16
140
1.0
141
16.0
290
     0
  0
SCALE
  5
4F
102
{ACAD_REACTORS
330
47
102
}
330
47
100
AcDbScale
 70
     0
300
1:20
140
1.0
141
20.0
290
     0
  0
SCALE
  5
50
102
{ACAD_REACTORS
330
47
102
}
330
47
100
AcDbScale
 70
     0
300
1:30
140
1.0
141
30.0
290
     0
  0
SCALE
  5
51
102
{ACAD_REACTORS
330
47
102
}
330
47
100
AcDbScale
 70
     0
300
1:40
140
1.0
141
40.0
290
     0
  0
SCALE
  5
52
102
{ACAD_REACTORS
330
47
102
}
330
47
100
AcDbScale
 70
     0
300
1:50
140
1.0
141
50.0
290
     0
  0
SCALE
  5
53
102
{ACAD_REACTORS
330
47
102
}
330
47
100
AcDbScale
 70
     0
300
1:100
140
1.0
141
100.0
290
     0
  0
SCALE
  5
54
102
{ACAD_REACTORS
330
47
102
}
330
47
100
AcDbScale
 70
     0
300
2:1
140
2.0
141
1.0
290
     0
  0
SCALE
  5
55
102
{ACAD_REACTORS
330
47
102
}
330
47
100
AcDbScale
 70
     0
300
4:1
140
4.0
141
1.0
290
     0
  0
SCALE
  5
56
102
{ACAD_REACTORS
330
47
102
}
330
47
100
AcDbScale
 70
     0
300
8:1
140
8.0
141
1.0
290
     0
  0
SCALE
  5
57
102
{ACAD_REACTORS
330
47
102
}
330
47
100
AcDbScale
 70
     0
300
10:1
140
10.0
141
1.0
290
     0
  0
SCALE
  5
58
102
{ACAD_REACTORS
330
47
102
}
330
47
100
AcDbScale
 70
     0
300
100:1
140
100.0
141
1.0
290
     0
  0
TABLESTYLE
  5
5A
102
{ACAD_REACTORS
330
59
102
}
102
{ACAD_XDICTIONARY
360
1E8
102
}
330
59
100
AcDbTableStyle
  3
Standard
 70
     0
 71
     0
 40
0.06
 41
0.06
280
     0
281
     0
  7
Standard
140
4.5
170
     2
 62
     0
 63
   257
283
     0
 90
        4
 91
        0
  1

274
    -2
284
     1
 64
     0
275
    -2
285
     1
 65
     0
276
    -2
286
     1
 66
     0
277
    -2
287
     1
 67
     0
278
    -2
288
     1
 68
     0
279
    -2
289
     1
 69
     0
  7
Standard
140
6.0
170
     5
 62
     0
 63
   257
283
     0
 90
        4
 91
        0
  1

274
    -2
284
     1
 64
     0
275
    -2
285
     1
 65
     0
276
    -2
286
     1
 66
     0
277
    -2
287
     1
 67
     0
278
    -2
288
     1
 68
     0
279
    -2
289
     1
 69
     0
  7
Standard
140
4.5
170
     5
 62
     0
 63
   257
283
     0
 90
        4
 91
        0
  1

274
    -2
284
     1
 64
     0
275
    -2
285
     1
 65
     0
276
    -2
286
     1
 66
     0
277
    -2
287
     1
 67
     0
278
    -2
288
     1
 68
     0
279
    -2
289
     1
 69
     0
  0
VISUALSTYLE
  5
2F
102
{ACAD_REACTORS
330
2A
102
}
102
{ACAD_XDICTIONARY
360
1C0
102
}
330
2A
100
AcDbVisualStyle
  2
2dWireframe
 70
     4
 71
     0
 72
     2
 73
     0
 90
        0
 40
0.6
 41
30.0
 62
     5
 63
     7
421
 16777215
 74
     1
 91
        4
 64
     7
 65
   257
 75
     1
175
     1
 42
1.0
 92
        0
 66
   257
 43
1.0
 76
     1
 77
     6
 78
     2
 67
     7
 79
     5
170
     0
171
     0
290
     0
174
     0
 93
        1
 44
0.0
173
     0
291
     0
 45
0.0
  0
VISUALSTYLE
  5
32
102
{ACAD_REACTORS
330
2A
102
}
102
{ACAD_XDICTIONARY
360
1C6
102
}
330
2A
100
AcDbVisualStyle
  2
Basic
 70
     7
 71
     1
 72
     0
 73
     1
 90
        0
 40
0.6
 41
30.0
 62
     5
 63
     7
421
 16777215
 74
     0
 91
        4
 64
     7
 65
   257
 75
     1
175
     1
 42
1.0
 92
        8
 66
     7
 43
1.0
 76
     1
 77
     6
 78
     2
 67
     7
 79
     5
170
     0
171
     0
290
     0
174
     0
 93
        1
 44
0.0
173
     0
291
     1
 45
0.0
  0
VISUALSTYLE
  5
36
102
{ACAD_REACTORS
330
2A
102
}
102
{ACAD_XDICTIONARY
360
1CE
102
}
330
2A
100
AcDbVisualStyle
  2
Brighten
 70
    12
 71
     2
 72
     2
 73
     0
 90
        0
 40
0.6
 41
30.0
 62
     5
 63
     7
421
 16777215
 74
     1
 91
        4
 64
     7
 65
   257
 75
     1
175
     1
 42
1.0
 92
        8
 66
     7
 43
1.0
 76
     1
 77
     6
 78
     2
 67
     7
 79
     5
170
     0
171
     0
290
     0
174
     0
 93
        1
 44
50.0
173
     0
291
     1
 45
0.0
  0
VISUALSTYLE
  5
3A
102
{ACAD_REACTORS
330
2A
102
}
102
{ACAD_XDICTIONARY
360
1D6
102
}
330
2A
100
AcDbVisualStyle
  2
ColorChange
 70
    16
 71
     2
 72
     2
 73
     3
 90
        0
 40
0.6
 41
30.0
 62
     5
 63
     8
421
  8421504
 74
     1
 91
        4
 64
     7
 65
   257
 75
     1
175
     1
 42
1.0
 92
        8
 66
     8
424
  8421504
 43
1.0
 76
     1
 77
     6
 78
     2
 67
     7
 79
     5
170
     0
171
     0
290
     0
174
     0
 93
        1
 44
0.0
173
     0
291
     1
 45
0.0
  0
VISUALSTYLE
  5
34
102
{ACAD_REACTORS
330
2A
102
}
102
{ACAD_XDICTIONARY
360
1CA
102
}
330
2A
100
AcDbVisualStyle
  2
Conceptual
 70
     9
 71
     3
 72
     2
 73
     0
 90
        0
 40
0.6
 41
30.0
 62
     5
 63
     7
421
 16777215
 74
     2
 91
        2
 64
     7
 65
   257
 75
     1
175
     1
 42
179.0
 92
        8
 66
     7
 43
1.0
 76
     1
 77
     6
 78
     2
 67
     7
 79
     3
170
     0
171
     0
290
     0
174
     0
 93
        1
 44
0.0
173
     0
291
     0
 45
0.0
  0
VISUALSTYLE
  5
35
102
{ACAD_REACTORS
330
2A
102
}
102
{ACAD_XDICTIONARY
360
1CC
102
}
330
2A
100
AcDbVisualStyle
  2
Dim
 70
    11
 71
     2
 72
     2
 73
     0
 90
        0
 40
0.6
 41
30.0
 62
     5
 63
     7
421
 16777215
 74
     1
 91
        4
 64
     7
 65
   257
 75
     1
175
     1
 42
1.0
 92
        8
 66
     7
 43
1.0
 76
     1
 77
     6
 78
     2
 67
     7
 79
     5
170
     0
171
     0
290
     0
174
     0
 93
        1
 44
-50.0
173
     0
291
     1
 45
0.0
  0
VISUALSTYLE
  5
3D
102
{ACAD_REACTORS
330
2A
102
}
102
{ACAD_XDICTIONARY
360
1DC
102
}
330
2A
100
AcDbVisualStyle
  2
EdgeColorOff
 70
    22
 71
     2
 72
     2
 73
     0
 90
        0
 40
0.6
 41
30.0
 62
     5
 63
     7
421
 16777215
 74
     1
 91
        4
 64
     7
 65
   257
 75
     1
175
     1
 42
1.0
 92
        8
 66
     7
 43
1.0
 76
     1
 77
     6
 78
     2
 67
     7
 79
     5
170
     0
171
     0
290
     0
174
     0
 93
        1
 44
0.0
173
     0
291
     1
 45
0.0
  0
VISUALSTYLE
  5
39
102
{ACAD_REACTORS
330
2A
102
}
102
{ACAD_XDICTIONARY
360
1D4
102
}
330
2A
100
AcDbVisualStyle
  2
Facepattern
 70
    15
 71
     2
 72
     2
 73
     0
 90
        0
 40
0.6
 41
30.0
 62
     5
 63
     7
421
 16777215
 74
     1
 91
        4
 64
     7
 65
   257
 75
     1
175
     1
 42
1.0
 92
        8
 66
     7
 43
1.0
 76
     1
 77
     6
 78
     2
 67
     7
 79
     5
170
     0
171
     0
290
     0
174
     0
 93
        1
 44
0.0
173
     0
291
     1
 45
0.0
  0
VISUALSTYLE
  5
2B
102
{ACAD_REACTORS
330
2A
102
}
102
{ACAD_XDICTIONARY
360
1B8
102
}
330
2A
100
AcDbVisualStyle
  2
Flat
 70
     0
 71
     2
 72
     1
 73
     1
 90
        2
 40
0.6
 41
30.0
 62
     5
 63
     7
421
 16777215
 74
     0
 91
        0
 64
     7
 65
   257
 75
     1
175
     1
 42
1.0
 92
        8
 66
     7
 43
1.0
 76
     1
 77
     6
 78
     2
 67
     7
 79
     5
170
     0
171
     0
290
     0
174
     0
 93
       13
 44
0.0
173
     0
291
     1
 45
0.0
  0
VISUALSTYLE
  5
2C
102
{ACAD_REACTORS
330
2A
102
}
102
{ACAD_XDICTIONARY
360
1BA
102
}
330
2A
100
AcDbVisualStyle
  2
FlatWithEdges
 70
     1
 71
     2
 72
     1
 73
     1
 90
        2
 40
0.6
 41
30.0
 62
     5
 63
     7
421
 16777215
 74
     1
 91
        0
 64
     7
 65
   257
 75
     1
175
     1
 42
1.0
 92
        0
 66
   257
 43
1.0
 76
     1
 77
     6
 78
     2
 67
     7
 79
     5
170
     0
171
     0
290
     0
174
     0
 93
       13
 44
0.0
173
     0
291
     1
 45
0.0
  0
VISUALSTYLE
  5
2D
102
{ACAD_REACTORS
330
2A
102
}
102
{ACAD_XDICTIONARY
360
1BC
102
}
330
2A
100
AcDbVisualStyle
  2
Gouraud
 70
     2
 71
     2
 72
     2
 73
     1
 90
        2
 40
0.6
 41
30.0
 62
     5
 63
     7
421
 16777215
 74
     0
 91
        0
 64
     7
 65
   257
 75
     1
175
     1
 42
1.0
 92
        0
 66
     7
 43
1.0
 76
     1
 77
     6
 78
     2
 67
     7
 79
     5
170
     0
171
     0
290
     0
174
     0
 93
       13
 44
0.0
173
     0
291
     1
 45
0.0
  0
VISUALSTYLE
  5
2E
102
{ACAD_REACTORS
330
2A
102
}
102
{ACAD_XDICTIONARY
360
1BE
102
}
330
2A
100
AcDbVisualStyle
  2
GouraudWithEdges
 70
     3
 71
     2
 72
     2
 73
     1
 90
        2
 40
0.6
 41
30.0
 62
     5
 63
     7
421
 16777215
 74
     1
 91
        0
 64
     7
 65
   257
 75
     1
175
     1
 42
1.0
 92
        0
 66
   257
 43
1.0
 76
     1
 77
     6
 78
     2
 67
     7
 79
     5
170
     0
171
     0
290
     0
174
     0
 93
       13
 44
0.0
173
     0
291
     1
 45
0.0
  0
VISUALSTYLE
  5
31
102
{ACAD_REACTORS
330
2A
102
}
102
{ACAD_XDICTIONARY
360
1C4
102
}
330
2A
100
AcDbVisualStyle
  2
Hidden
 70
     6
 71
     1
 72
     2
 73
     2
 90
        0
 40
0.6
 41
30.0
 62
     5
 63
     7
421
 16777215
 74
     2
 91
        2
 64
     7
 65
   257
 75
     2
175
     1
 42
40.0
 92
        0
 66
   257
 43
1.0
 76
     1
 77
     6
 78
     2
 67
     7
 79
     3
170
     0
171
     0
290
     0
174
     0
 93
        1
 44
0.0
173
     0
291
     0
 45
0.0
  0
VISUALSTYLE
  5
3B
102
{ACAD_REACTORS
330
2A
102
}
102
{ACAD_XDICTIONARY
360
1D8
102
}
330
2A
100
AcDbVisualStyle
  2
JitterOff
 70
    20
 71
     2
 72
     2
 73
     0
 90
        0
 40
0.6
 41
30.0
 62
     5
 63
     7
421
 16777215
 74
     1
 91
        4
 64
     7
 65
   257
 75
     1
175
     1
 42
1.0
 92
       10
 66
     7
 43
1.0
 76
     1
 77
     6
 78
     2
 67
     7
 79
     5
170
     0
171
     0
290
     0
174
     0
 93
        1
 44
0.0
173
     0
291
     1
 45
0.0
  0
VISUALSTYLE
  5
38
102
{ACAD_REACTORS
330
2A
102
}
102
{ACAD_XDICTIONARY
360
1D2
102
}
330
2A
100
AcDbVisualStyle
  2
Linepattern
 70
    14
 71
     2
 72
     2
 73
     0
 90
        0
 40
0.6
 41
30.0
 62
     5
 63
     7
421
 16777215
 74
     1
 91
        4
 64
     7
 65
   257
 75
     7
175
     7
 42
1.0
 92
        8
 66
     7
 43
1.0
 76
     1
 77
     6
 78
     2
 67
     7
 79
     5
170
     0
171
     0
290
     0
174
     0
 93
        1
 44
0.0
173
     0
291
     1
 45
0.0
  0
VISUALSTYLE
  5
3C
102
{ACAD_REACTORS
330
2A
102
}
102
{ACAD_XDICTIONARY
360
1DA
102
}
330
2A
100
AcDbVisualStyle
  2
OverhangOff
 70
    21
 71
     2
 72
     2
 73
     0
 90
        0
 40
0.6
 41
30.0
 62
     5
 63
     7
421
 16777215
 74
     1
 91
        4
 64
     7
 65
   257
 75
     1
175
     1
 42
1.0
 92
        9
 66
     7
 43
1.0
 76
     1
 77
     6
 78
     2
 67
     7
 79
     5
170
     0
171
     0
290
     0
174
     0
 93
        1
 44
0.0
173
     0
291
     1
 45
0.0
  0
VISUALSTYLE
  5
33
102
{ACAD_REACTORS
330
2A
102
}
102
{ACAD_XDICTIONARY
360
1C8
102
}
330
2A
100
AcDbVisualStyle
  2
Realistic
 70
     8
 71
     2
 72
     3
 73
     0
 90
        2
 40
0.6
 41
30.0
 62
     5
 63
     7
421
 16777215
 74
     0
 91
        0
 64
     7
 65
   257
 75
     1
175
     1
 42
1.0
 92
        8
 66
   257
 43
1.0
 76
     1
 77
     6
 78
     2
 67
     7
 79
     3
170
     0
171
     0
290
     0
174
     0
 93
       13
 44
0.0
173
     0
291
     0
 45
0.0
  0
VISUALSTYLE
  5
42
102
{ACAD_REACTORS
330
2A
102
}
102
{ACAD_XDICTIONARY
360
1E6
102
}
330
2A
100
AcDbVisualStyle
  2
Shaded
 70
    27
 71
     2
 72
     2
 73
     1
 90
        2
 40
0.6
 41
30.0
 62
     5
 63
     7
421
 16777215
 74
     0
 91
        4
 64
     7
 65
   257
 75
     1
175
     1
 42
1.0
 92
        8
 66
   257
 43
1.0
 76
     1
 77
     6
 78
     2
 67
     8
425
  7895160
 79
     3
170
     0
171
     0
290
     0
174
     0
 93
        5
 44
0.0
173
     0
291
     0
 45
0.0
  0
VISUALSTYLE
  5
41
102
{ACAD_REACTORS
330
2A
102
}
102
{ACAD_XDICTIONARY
360
1E4
102
}
330
2A
100
AcDbVisualStyle
  2
Shaded with edges
 70
    26
 71
     2
 72
     2
 73
     1
 90
        2
 40
0.6
 41
30.0
 62
     5
 63
     7
421
 16777215
 74
     1
 91
       10
 64
     7
 65
   257
 75
     2
175
     1
 42
1.0
 92
        8
 66
   257
 43
1.0
 76
     1
 77
     6
 78
     2
 67
     7
 79
     3
170
     0
171
     0
290
     0
174
     0
 93
        5
 44
0.0
173
     0
291
     0
 45
0.0
  0
VISUALSTYLE
  5
3E
102
{ACAD_REACTORS
330
2A
102
}
102
{ACAD_XDICTIONARY
360
1DE
102
}
330
2A
100
AcDbVisualStyle
  2
Shades of Gray
 70
    23
 71
     2
 72
     2
 73
     3
 90
        0
 40
0.6
 41
30.0
 62
     5
 63
     7
421
 16777215
 74
     2
 91
        2
 64
     7
 65
     7
 75
     1
175
     1
 42
40.0
 92
        8
 66
     7
 43
1.0
 76
     1
 77
     6
 78
     2
 67
     7
 79
     3
170
     0
171
     0
290
     0
174
     0
 93
        1
 44
0.0
173
     0
291
     0
 45
0.0
  0
VISUALSTYLE
  5
3F
102
{ACAD_REACTORS
330
2A
102
}
102
{ACAD_XDICTIONARY
360
1E0
102
}
330
2A
100
AcDbVisualStyle
  2
Sketchy
 70
    24
 71
     1
 72
     2
 73
     2
 90
        0
 40
0.6
 41
30.0
 62
     5
 63
     7
421
 16777215
 74
     2
 91
        2
 64
     7
 65
     7
 75
     1
175
     1
 42
40.0
 92
       11
 66
     7
 43
1.0
 76
     1
 77
     6
 78
     2
 67
     7
 79
     6
170
     0
171
     0
290
     0
174
     0
 93
        1
 44
0.0
173
     0
291
     0
 45
0.0
  0
VISUALSTYLE
  5
37
102
{ACAD_REACTORS
330
2A
102
}
102
{ACAD_XDICTIONARY
360
1D0
102
}
330
2A
100
AcDbVisualStyle
  2
Thicken
 70
    13
 71
     2
 72
     2
 73
     0
 90
        0
 40
0.6
 41
30.0
 62
     5
 63
     7
421
 16777215
 74
     1
 91
        4
 64
     7
 65
   257
 75
     1
175
     1
 42
1.0
 92
       12
 66
     7
 43
1.0
 76
     1
 77
     6
 78
     2
 67
     7
 79
     5
170
     0
171
     0
290
     0
174
     0
 93
        1
 44
0.0
173
     0
291
     1
 45
0.0
  0
VISUALSTYLE
  5
30
102
{ACAD_REACTORS
330
2A
102
}
102
{ACAD_XDICTIONARY
360
1C2
102
}
330
2A
100
AcDbVisualStyle
  2
Wireframe
 70
     5
 71
     0
 72
     2
 73
     0
 90
        0
 40
0.6
 41
30.0
 62
     5
 63
     7
421
 16777215
 74
     1
 91
        4
 64
     7
 65
   257
 75
     1
175
     1
 42
1.0
 92
        0
 66
   257
 43
1.0
 76
     1
 77
     6
 78
     2
 67
     7
 79
     3
170
     0
171
     0
290
     0
174
     0
 93
        1
 44
0.0
173
     0
291
     0
 45
0.0
  0
VISUALSTYLE
  5
40
102
{ACAD_REACTORS
330
2A
102
}
102
{ACAD_XDICTIONARY
360
1E2
102
}
330
2A
100
AcDbVisualStyle
  2
X-Ray
 70
    25
 71
     2
 72
     2
 73
     1
 90
        1
 40
0.5
 41
30.0
 62
     5
 63
     7
421
 16777215
 74
     1
 91
        0
 64
     7
 65
   257
 75
     1
175
     1
 42
1.0
 92
        8
 66
     7
 43
1.0
 76
     1
 77
     6
 78
     2
 67
     7
 79
     3
170
     0
171
     0
290
     0
174
     0
 93
       13
 44
0.0
173
     0
291
     0
 45
0.0
  0
DICTIONARYVAR
  5
1B6
102
{ACAD_REACTORS
330
1B5
102
}
330
1B5
100
DictionaryVariables
280
     0
  1
1:1
  0
DICTIONARYVAR
  5
1F2
102
{ACAD_REACTORS
330
1B5
102
}
330
1B5
100
DictionaryVariables
280
     0
  1
3.500000
  0
DICTIONARYVAR
  5
1F3
102
{ACAD_REACTORS
330
1B5
102
}
330
1B5
100
DictionaryVariables
280
     0
  1
acadiso.lin
  0
DICTIONARYVAR
  5
1EF
102
{ACAD_REACTORS
330
1B5
102
}
330
1B5
100
DictionaryVariables
280
     0
  1
Standard
  0
DICTIONARYVAR
  5
1EE
102
{ACAD_REACTORS
330
1B5
102
}
330
1B5
100
DictionaryVariables
280
     0
  1
Standard
  0
DICTIONARYVAR
  5
1B7
102
{ACAD_REACTORS
330
1B5
102
}
330
1B5
100
DictionaryVariables
280
     0
  1
2
  0
DICTIONARY
  5
1EB
330
5C
100
AcDbDictionary
280
     1
281
     1
  3
ACAD_XREC_ROUNDTRIP
360
1EC
  0
DICTIONARY
  5
1E8
330
5A
100
AcDbDictionary
280
     1
281
     1
  3
ACAD_ROUNDTRIP_2008_TABLESTYLE_CELLSTYLEMAP
360
1E9
  0
DICTIONARY
  5
1C0
330
2F
100
AcDbDictionary
280
     1
281
     1
  3
ACAD_XREC_ROUNDTRIP
360
1C1
  0
DICTIONARY
  5
1C6
330
32
100
AcDbDictionary
280
     1
281
     1
  3
ACAD_XREC_ROUNDTRIP
360
1C7
  0
DICTIONARY
  5
1CE
330
36
100
AcDbDictionary
280
     1
281
     1
  3
ACAD_XREC_ROUNDTRIP
360
1CF
  0
DICTIONARY
  5
1D6
330
3A
100
AcDbDictionary
280
     1
281
     1
  3
ACAD_XREC_ROUNDTRIP
360
1D7
  0
DICTIONARY
  5
1CA
330
34
100
AcDbDictionary
280
     1
281
     1
  3
ACAD_XREC_ROUNDTRIP
360
1CB
  0
DICTIONARY
  5
1CC
330
35
100
AcDbDictionary
280
     1
281
     1
  3
ACAD_XREC_ROUNDTRIP
360
1CD
  0
DICTIONARY
  5
1DC
330
3D
100
AcDbDictionary
280
     1
281
     1
  3
ACAD_XREC_ROUNDTRIP
360
1DD
  0
DICTIONARY
  5
1D4
330
39
100
AcDbDictionary
280
     1
281
     1
  3
ACAD_XREC_ROUNDTRIP
360
1D5
  0
DICTIONARY
  5
1B8
330
2B
100
AcDbDictionary
280
     1
281
     1
  3
ACAD_XREC_ROUNDTRIP
360
1B9
  0
DICTIONARY
  5
1BA
330
2C
100
AcDbDictionary
280
     1
281
     1
  3
ACAD_XREC_ROUNDTRIP
360
1BB
  0
DICTIONARY
  5
1BC
330
2D
100
AcDbDictionary
280
     1
281
     1
  3
ACAD_XREC_ROUNDTRIP
360
1BD
  0
DICTIONARY
  5
1BE
330
2E
100
AcDbDictionary
280
     1
281
     1
  3
ACAD_XREC_ROUNDTRIP
360
1BF
  0
DICTIONARY
  5
1C4
330
31
100
AcDbDictionary
280
     1
281
     1
  3
ACAD_XREC_ROUNDTRIP
360
1C5
  0
DICTIONARY
  5
1D8
330
3B
100
AcDbDictionary
280
     1
281
     1
  3
ACAD_XREC_ROUNDTRIP
360
1D9
  0
DICTIONARY
  5
1D2
330
38
100
AcDbDictionary
280
     1
281
     1
  3
ACAD_XREC_ROUNDTRIP
360
1D3
  0
DICTIONARY
  5
1DA
330
3C
100
AcDbDictionary
280
     1
281
     1
  3
ACAD_XREC_ROUNDTRIP
360
1DB
  0
DICTIONARY
  5
1C8
330
33
100
AcDbDictionary
280
     1
281
     1
  3
ACAD_XREC_ROUNDTRIP
360
1C9
  0
DICTIONARY
  5
1E6
330
42
100
AcDbDictionary
280
     1
281
     1
  3
ACAD_XREC_ROUNDTRIP
360
1E7
  0
DICTIONARY
  5
1E4
330
41
100
AcDbDictionary
280
     1
281
     1
  3
ACAD_XREC_ROUNDTRIP
360
1E5
  0
DICTIONARY
  5
1DE
330
3E
100
AcDbDictionary
280
     1
281
     1
  3
ACAD_XREC_ROUNDTRIP
360
1DF
  0
DICTIONARY
  5
1E0
330
3F
100
AcDbDictionary
280
     1
281
     1
  3
ACAD_XREC_ROUNDTRIP
360
1E1
  0
DICTIONARY
  5
1D0
330
37
100
AcDbDictionary
280
     1
281
     1
  3
ACAD_XREC_ROUNDTRIP
360
1D1
  0
DICTIONARY
  5
1C2
330
30
100
AcDbDictionary
280
     1
281
     1
  3
ACAD_XREC_ROUNDTRIP
360
1C3
  0
DICTIONARY
  5
1E2
330
40
100
AcDbDictionary
280
     1
281
     1
  3
ACAD_XREC_ROUNDTRIP
360
1E3
  0
XRECORD
  5
1EC
102
{ACAD_REACTORS
330
1EB
102
}
330
1EB
100
AcDbXrecord
280
     1
102
ACAD_ROUNDTRIP_2010_MLEADER_STYLE
  0
CELLSTYLEMAP
  5
1E9
102
{ACAD_REACTORS
330
1E8
102
}
330
1E8
100
AcDbCellStyleMap
 90
        3
300
CELLSTYLE
  1
TABLEFORMAT_BEGIN
 90
        5
170
     1
 91
        0
 92
    32768
 62
   257
 93
        1
300
CONTENTFORMAT
  1
CONTENTFORMAT_BEGIN
 90
        0
 91
        0
 92
        4
 93
        0
300

 40
0.0
140
1.0
 94
        5
 62
     0
340
11
144
6.0
309
CONTENTFORMAT_END
171
     1
301
MARGIN
  1
CELLMARGIN_BEGIN
 40
1.5
 40
1.5
 40
1.5
 40
1.5
 40
1.5
 40
1.5
309
CELLMARGIN_END
 94
        6
 95
        1
302
GRIDFORMAT
  1
GRIDFORMAT_BEGIN
 90
        0
 91
        1
 62
     0
 92
       -2
340
14
 93
        0
 40
0.045
309
GRIDFORMAT_END
 95
        2
302
GRIDFORMAT
  1
GRIDFORMAT_BEGIN
 90
        0
 91
        1
 62
     0
 92
       -2
340
14
 93
        0
 40
0.045
309
GRIDFORMAT_END
 95
        4
302
GRIDFORMAT
  1
GRIDFORMAT_BEGIN
 90
        0
 91
        1
 62
     0
 92
       -2
340
14
 93
        0
 40
0.045
309
GRIDFORMAT_END
 95
        8
302
GRIDFORMAT
  1
GRIDFORMAT_BEGIN
 90
        0
 91
        1
 62
     0
 92
       -2
340
14
 93
        0
 40
0.045
309
GRIDFORMAT_END
 95
       16
302
GRIDFORMAT
  1
GRIDFORMAT_BEGIN
 90
        0
 91
        1
 62
     0
 92
       -2
340
14
 93
        0
 40
0.045
309
GRIDFORMAT_END
 95
       32
302
GRIDFORMAT
  1
GRIDFORMAT_BEGIN
 90
        0
 91
        1
 62
     0
 92
       -2
340
14
 93
        0
 40
0.045
309
GRIDFORMAT_END
309
TABLEFORMAT_END
  1
CELLSTYLE_BEGIN
 90
        1
 91
        1
300
_TITLE
309
CELLSTYLE_END
300
CELLSTYLE
  1
TABLEFORMAT_BEGIN
 90
        5
170
     1
 91
        0
 92
        0
 62
   257
 93
        1
300
CONTENTFORMAT
  1
CONTENTFORMAT_BEGIN
 90
        0
 91
        0
 92
        4
 93
        0
300

 40
0.0
140
1.0
 94
        5
 62
     0
340
11
144
4.5
309
CONTENTFORMAT_END
171
     1
301
MARGIN
  1
CELLMARGIN_BEGIN
 40
1.5
 40
1.5
 40
1.5
 40
1.5
 40
1.5
 40
1.5
309
CELLMARGIN_END
 94
        6
 95
        1
302
GRIDFORMAT
  1
GRIDFORMAT_BEGIN
 90
        0
 91
        1
 62
     0
 92
       -2
340
14
 93
        0
 40
0.045
309
GRIDFORMAT_END
 95
        2
302
GRIDFORMAT
  1
GRIDFORMAT_BEGIN
 90
        0
 91
        1
 62
     0
 92
       -2
340
14
 93
        0
 40
0.045
309
GRIDFORMAT_END
 95
        4
302
GRIDFORMAT
  1
GRIDFORMAT_BEGIN
 90
        0
 91
        1
 62
     0
 92
       -2
340
14
 93
        0
 40
0.045
309
GRIDFORMAT_END
 95
        8
302
GRIDFORMAT
  1
GRIDFORMAT_BEGIN
 90
        0
 91
        1
 62
     0
 92
       -2
340
14
 93
        0
 40
0.045
309
GRIDFORMAT_END
 95
       16
302
GRIDFORMAT
  1
GRIDFORMAT_BEGIN
 90
        0
 91
        1
 62
     0
 92
       -2
340
14
 93
        0
 40
0.045
309
GRIDFORMAT_END
 95
       32
302
GRIDFORMAT
  1
GRIDFORMAT_BEGIN
 90
        0
 91
        1
 62
     0
 92
       -2
340
14
 93
        0
 40
0.045
309
GRIDFORMAT_END
309
TABLEFORMAT_END
  1
CELLSTYLE_BEGIN
 90
        2
 91
        1
300
_HEADER
309
CELLSTYLE_END
300
CELLSTYLE
  1
TABLEFORMAT_BEGIN
 90
        5
170
     1
 91
        0
 92
        0
 62
   257
 93
        1
300
CONTENTFORMAT
  1
CONTENTFORMAT_BEGIN
 90
        0
 91
        0
 92
        4
 93
        0
300

 40
0.0
140
1.0
 94
        2
 62
     0
340
11
144
4.5
309
CONTENTFORMAT_END
171
     1
301
MARGIN
  1
CELLMARGIN_BEGIN
 40
1.5
 40
1.5
 40
1.5
 40
1.5
 40
1.5
 40
1.5
309
CELLMARGIN_END
 94
        6
 95
        1
302
GRIDFORMAT
  1
GRIDFORMAT_BEGIN
 90
        0
 91
        1
 62
     0
 92
       -2
340
14
 93
        0
 40
0.045
309
GRIDFORMAT_END
 95
        2
302
GRIDFORMAT
  1
GRIDFORMAT_BEGIN
 90
        0
 91
        1
 62
     0
 92
       -2
340
14
 93
        0
 40
0.045
309
GRIDFORMAT_END
 95
        4
302
GRIDFORMAT
  1
GRIDFORMAT_BEGIN
 90
        0
 91
        1
 62
     0
 92
       -2
340
14
 93
        0
 40
0.045
309
GRIDFORMAT_END
 95
        8
302
GRIDFORMAT
  1
GRIDFORMAT_BEGIN
 90
        0
 91
        1
 62
     0
 92
       -2
340
14
 93
        0
 40
0.045
309
GRIDFORMAT_END
 95
       16
302
GRIDFORMAT
  1
GRIDFORMAT_BEGIN
 90
        0
 91
        1
 62
     0
 92
       -2
340
14
 93
        0
 40
0.045
309
GRIDFORMAT_END
 95
       32
302
GRIDFORMAT
  1
GRIDFORMAT_BEGIN
 90
        0
 91
        1
 62
     0
 92
       -2
340
14
 93
        0
 40
0.045
309
GRIDFORMAT_END
309
TABLEFORMAT_END
  1
CELLSTYLE_BEGIN
 90
        3
 91
        2
300
_DATA
309
CELLSTYLE_END
  0
XRECORD
  5
1C1
102
{ACAD_REACTORS
330
1C0
102
}
330
1C0
100
AcDbXrecord
280
     1
102
RTVSPropertyOp0
 70
     1
102
RTVSPropertyOp1
 70
     1
102
RTVSPropertyOp2
 70
     1
102
RTVSPropertyOp3
 70
     1
102
RTVSPropertyOp4
 70
     1
102
RTVSPropertyOp5
 70
     1
102
RTVSPropertyOp6
 70
     1
102
RTVSPropertyOp7
 70
     1
102
RTVSPropertyOp8
 70
     1
102
RTVSPropertyOp9
 70
     1
102
RTVSPropertyOp10
 70
     1
102
RTVSPropertyOp11
 70
     1
102
RTVSPropertyOp12
 70
     1
102
RTVSPropertyOp13
 70
     1
102
RTVSPropertyOp14
 70
     1
102
RTVSPropertyOp15
 70
     1
102
RTVSPropertyOp16
 70
     1
102
RTVSPropertyOp17
 70
     1
102
RTVSPropertyOp18
 70
     1
102
RTVSPropertyOp19
 70
     1
102
RTVSPropertyOp20
 70
     1
102
RTVSPropertyOp21
 70
     1
102
RTVSPropertyOp22
 70
     1
102
RTVSPropertyOp23
 70
     1
102
RTVSPropertyOp24
 70
     1
102
RTVSPropertyOp25
 70
     1
102
RTVSPropertyOp26
 70
     1
102
RTVSPropertyOp27
 70
     1
102
RTVSPropertyOp28
 70
     1
102
RTVSPropertyOp29
 70
     1
102
RTVSPropertyOp30
 70
     1
102
RTVSPropertyOp31
 70
     1
102
RTVSPropertyOp32
 70
     1
102
RTVSPropertyOp33
 70
     1
102
RTVSPropertyOp34
 70
     1
102
RTVSPropertyOp35
 70
     1
102
RTVSPropertyOp36
 70
     1
102
RTVSPropertyOp37
 70
     1
102
RTVSPropertyOp38
 70
     1
102
RTVSPropertyOp39
 70
     1
102
RTVSPropertyOp40
 70
     1
102
RTVSPropertyOp41
 70
     1
102
RTVSPropertyOp42
 70
     1
102
RTVSPropertyOp43
 70
     1
102
RTVSPropertyOp44
 70
     1
102
RTVSPropertyOp45
 70
     1
102
RTVSPropertyOp46
 70
     1
102
RTVSPropertyOp47
 70
     1
102
RTVSPropertyOp48
 70
     1
102
RTVSPropertyOp49
 70
     1
102
RTVSPropertyOp50
 70
     1
102
RTVSPropertyOp51
 70
     0
102
RTVSPropertyOp52
 70
     0
102
RTVSPropertyOp53
 70
     1
102
RTVSPropertyOp54
 70
     1
102
RTVSPropertyOp55
 70
     1
102
RTVSPropertyOp56
 70
     1
102
RTVSPropertyOp57
 70
     1
102
RTVSPost2010Prop28
280
     1
102
RTVSPost2010PropOp28
 70
     1
102
RTVSPost2010Prop29
280
     1
102
RTVSPost2010PropOp29
 70
     1
102
RTVSPost2010Prop30
280
     0
102
RTVSPost2010PropOp30
 70
     1
102
RTVSPost2010Prop31
280
     0
102
RTVSPost2010PropOp31
 70
     1
102
RTVSPost2010Prop32
280
     0
102
RTVSPost2010PropOp32
 70
     1
102
RTVSPost2010Prop33
280
     0
102
RTVSPost2010PropOp33
 70
     1
102
RTVSPost2010Prop34
280
     0
102
RTVSPost2010PropOp34
 70
     1
102
RTVSPost2010Prop35
280
     0
102
RTVSPost2010PropOp35
 70
     1
102
RTVSPost2010Prop36
280
     0
102
RTVSPost2010PropOp36
 70
     1
102
RTVSPost2010Prop37
 90
       50
102
RTVSPost2010PropOp37
 70
     1
102
RTVSPost2010Prop38
140
0.0
102
RTVSPost2010PropOp38
 70
     1
102
RTVSPost2010Prop39
140
1.0
102
RTVSPost2010PropOp39
 70
     1
102
RTVSPost2010Prop40
 90
        0
102
RTVSPost2010PropOp40
 70
     1
102
RTVSPost2010Prop41ColorIndex
 90
       18
102
RTVSPost2010Prop41ColorRGB
 90
        0
102
RTVSPost2010PropOp41
 70
     1
102
RTVSPost2010Prop42
 90
       50
102
RTVSPost2010PropOp42
 70
     1
102
RTVSPost2010Prop43
 90
        3
102
RTVSPost2010PropOp43
 70
     1
102
RTVSPost2010Prop44ColorIndex
 90
        5
102
RTVSPost2010Prop44ColorRGB
 90
      255
102
RTVSPost2010PropOp44
 70
     1
102
RTVSPost2010Prop45
280
     0
102
RTVSPost2010PropOp45
 70
     1
102
RTVSPost2010Prop46
 90
       50
102
RTVSPost2010PropOp46
 70
     1
102
RTVSPost2010Prop47
 90
       50
102
RTVSPost2010PropOp47
 70
     1
102
RTVSPost2010Prop48
 90
       50
102
RTVSPost2010PropOp48
 70
     1
102
RTVSPost2010Prop49
280
     0
102
RTVSPost2010PropOp49
 70
     1
102
RTVSPost2010Prop50
 90
       50
102
RTVSPost2010PropOp50
 70
     1
102
RTVSPost2010Prop51ColorIndex
 90
      256
102
RTVSPost2010Prop51ColorRGB
 90
-16777216
102
RTVSPost2010PropOp51
 70
     0
102
RTVSPost2010Prop52
140
1.0
102
RTVSPost2010PropOp52
 70
     0
102
RTVSPost2010Prop53
 90
        2
102
RTVSPost2010PropOp53
 70
     1
102
RTVSPost2010Prop54
  1
strokes_ogs.tif
102
RTVSPost2010PropOp54
 70
     1
102
RTVSPost2010Prop55
280
     0
102
RTVSPost2010PropOp55
 70
     1
102
RTVSPost2010Prop56
140
1.0
102
RTVSPost2010PropOp56
 70
     1
102
RTVSPost2010Prop57
140
1.0
102
RTVSPost2010PropOp57
 70
     1
  0
XRECORD
  5
1C7
102
{ACAD_REACTORS
330
1C6
102
}
330
1C6
100
AcDbXrecord
280
     1
102
RTVSPropertyOp0
 70
     1
102
RTVSPropertyOp1
 70
     1
102
RTVSPropertyOp2
 70
     1
102
RTVSPropertyOp3
 70
     1
102
RTVSPropertyOp4
 70
     1
102
RTVSPropertyOp5
 70
     1
102
RTVSPropertyOp6
 70
     1
102
RTVSPropertyOp7
 70
     1
102
RTVSPropertyOp8
 70
     1
102
RTVSPropertyOp9
 70
     1
102
RTVSPropertyOp10
 70
     1
102
RTVSPropertyOp11
 70
     1
102
RTVSPropertyOp12
 70
     1
102
RTVSPropertyOp13
 70
     1
102
RTVSPropertyOp14
 70
     1
102
RTVSPropertyOp15
 70
     1
102
RTVSPropertyOp16
 70
     1
102
RTVSPropertyOp17
 70
     1
102
RTVSPropertyOp18
 70
     1
102
RTVSPropertyOp19
 70
     1
102
RTVSPropertyOp20
 70
     1
102
RTVSPropertyOp21
 70
     1
102
RTVSPropertyOp22
 70
     1
102
RTVSPropertyOp23
 70
     1
102
RTVSPropertyOp24
 70
     1
102
RTVSPropertyOp25
 70
     1
102
RTVSPropertyOp26
 70
     1
102
RTVSPropertyOp27
 70
     1
102
RTVSPropertyOp28
 70
     1
102
RTVSPropertyOp29
 70
     1
102
RTVSPropertyOp30
 70
     1
102
RTVSPropertyOp31
 70
     1
102
RTVSPropertyOp32
 70
     1
102
RTVSPropertyOp33
 70
     1
102
RTVSPropertyOp34
 70
     1
102
RTVSPropertyOp35
 70
     1
102
RTVSPropertyOp36
 70
     1
102
RTVSPropertyOp37
 70
     1
102
RTVSPropertyOp38
 70
     1
102
RTVSPropertyOp39
 70
     1
102
RTVSPropertyOp40
 70
     1
102
RTVSPropertyOp41
 70
     1
102
RTVSPropertyOp42
 70
     1
102
RTVSPropertyOp43
 70
     1
102
RTVSPropertyOp44
 70
     1
102
RTVSPropertyOp45
 70
     1
102
RTVSPropertyOp46
 70
     1
102
RTVSPropertyOp47
 70
     1
102
RTVSPropertyOp48
 70
     1
102
RTVSPropertyOp49
 70
     1
102
RTVSPropertyOp50
 70
     1
102
RTVSPropertyOp51
 70
     0
102
RTVSPropertyOp52
 70
     0
102
RTVSPropertyOp53
 70
     1
102
RTVSPropertyOp54
 70
     1
102
RTVSPropertyOp55
 70
     1
102
RTVSPropertyOp56
 70
     1
102
RTVSPropertyOp57
 70
     1
102
RTVSPost2010Prop28
280
     0
102
RTVSPost2010PropOp28
 70
     1
102
RTVSPost2010Prop29
280
     1
102
RTVSPost2010PropOp29
 70
     1
102
RTVSPost2010Prop30
280
     1
102
RTVSPost2010PropOp30
 70
     1
102
RTVSPost2010Prop31
280
     0
102
RTVSPost2010PropOp31
 70
     1
102
RTVSPost2010Prop32
280
     0
102
RTVSPost2010PropOp32
 70
     1
102
RTVSPost2010Prop33
280
     0
102
RTVSPost2010PropOp33
 70
     1
102
RTVSPost2010Prop34
280
     0
102
RTVSPost2010PropOp34
 70
     1
102
RTVSPost2010Prop35
280
     0
102
RTVSPost2010PropOp35
 70
     1
102
RTVSPost2010Prop36
280
     0
102
RTVSPost2010PropOp36
 70
     1
102
RTVSPost2010Prop37
 90
       50
102
RTVSPost2010PropOp37
 70
     1
102
RTVSPost2010Prop38
140
0.0
102
RTVSPost2010PropOp38
 70
     1
102
RTVSPost2010Prop39
140
1.0
102
RTVSPost2010PropOp39
 70
     1
102
RTVSPost2010Prop40
 90
        0
102
RTVSPost2010PropOp40
 70
     1
102
RTVSPost2010Prop41ColorIndex
 90
       18
102
RTVSPost2010Prop41ColorRGB
 90
        0
102
RTVSPost2010PropOp41
 70
     1
102
RTVSPost2010Prop42
 90
       50
102
RTVSPost2010PropOp42
 70
     1
102
RTVSPost2010Prop43
 90
        3
102
RTVSPost2010PropOp43
 70
     1
102
RTVSPost2010Prop44ColorIndex
 90
        5
102
RTVSPost2010Prop44ColorRGB
 90
      255
102
RTVSPost2010PropOp44
 70
     1
102
RTVSPost2010Prop45
280
     0
102
RTVSPost2010PropOp45
 70
     1
102
RTVSPost2010Prop46
 90
       50
102
RTVSPost2010PropOp46
 70
     1
102
RTVSPost2010Prop47
 90
       50
102
RTVSPost2010PropOp47
 70
     1
102
RTVSPost2010Prop48
 90
       50
102
RTVSPost2010PropOp48
 70
     1
102
RTVSPost2010Prop49
280
     0
102
RTVSPost2010PropOp49
 70
     1
102
RTVSPost2010Prop50
 90
       50
102
RTVSPost2010PropOp50
 70
     1
102
RTVSPost2010Prop51ColorIndex
 90
      256
102
RTVSPost2010Prop51ColorRGB
 90
-16777216
102
RTVSPost2010PropOp51
 70
     0
102
RTVSPost2010Prop52
140
1.0
102
RTVSPost2010PropOp52
 70
     0
102
RTVSPost2010Prop53
 90
        2
102
RTVSPost2010PropOp53
 70
     1
102
RTVSPost2010Prop54
  1
strokes_ogs.tif
102
RTVSPost2010PropOp54
 70
     1
102
RTVSPost2010Prop55
280
     0
102
RTVSPost2010PropOp55
 70
     1
102
RTVSPost2010Prop56
140
1.0
102
RTVSPost2010PropOp56
 70
     1
102
RTVSPost2010Prop57
140
1.0
102
RTVSPost2010PropOp57
 70
     1
  0
XRECORD
  5
1CF
102
{ACAD_REACTORS
330
1CE
102
}
330
1CE
100
AcDbXrecord
280
     1
102
RTVSPropertyOp0
 70
     1
102
RTVSPropertyOp1
 70
     1
102
RTVSPropertyOp2
 70
     1
102
RTVSPropertyOp3
 70
     1
102
RTVSPropertyOp4
 70
     1
102
RTVSPropertyOp5
 70
     1
102
RTVSPropertyOp6
 70
     1
102
RTVSPropertyOp7
 70
     1
102
RTVSPropertyOp8
 70
     1
102
RTVSPropertyOp9
 70
     1
102
RTVSPropertyOp10
 70
     1
102
RTVSPropertyOp11
 70
     1
102
RTVSPropertyOp12
 70
     1
102
RTVSPropertyOp13
 70
     1
102
RTVSPropertyOp14
 70
     1
102
RTVSPropertyOp15
 70
     1
102
RTVSPropertyOp16
 70
     1
102
RTVSPropertyOp17
 70
     1
102
RTVSPropertyOp18
 70
     1
102
RTVSPropertyOp19
 70
     1
102
RTVSPropertyOp20
 70
     1
102
RTVSPropertyOp21
 70
     1
102
RTVSPropertyOp22
 70
     1
102
RTVSPropertyOp23
 70
     1
102
RTVSPropertyOp24
 70
     1
102
RTVSPropertyOp25
 70
     1
102
RTVSPropertyOp26
 70
     1
102
RTVSPropertyOp27
 70
     1
102
RTVSPropertyOp28
 70
     1
102
RTVSPropertyOp29
 70
     1
102
RTVSPropertyOp30
 70
     1
102
RTVSPropertyOp31
 70
     1
102
RTVSPropertyOp32
 70
     1
102
RTVSPropertyOp33
 70
     1
102
RTVSPropertyOp34
 70
     1
102
RTVSPropertyOp35
 70
     1
102
RTVSPropertyOp36
 70
     1
102
RTVSPropertyOp37
 70
     1
102
RTVSPropertyOp38
 70
     1
102
RTVSPropertyOp39
 70
     1
102
RTVSPropertyOp40
 70
     1
102
RTVSPropertyOp41
 70
     1
102
RTVSPropertyOp42
 70
     1
102
RTVSPropertyOp43
 70
     1
102
RTVSPropertyOp44
 70
     1
102
RTVSPropertyOp45
 70
     1
102
RTVSPropertyOp46
 70
     1
102
RTVSPropertyOp47
 70
     1
102
RTVSPropertyOp48
 70
     1
102
RTVSPropertyOp49
 70
     1
102
RTVSPropertyOp50
 70
     1
102
RTVSPropertyOp51
 70
     0
102
RTVSPropertyOp52
 70
     0
102
RTVSPropertyOp53
 70
     1
102
RTVSPropertyOp54
 70
     1
102
RTVSPropertyOp55
 70
     1
102
RTVSPropertyOp56
 70
     1
102
RTVSPropertyOp57
 70
     1
102
RTVSPost2010Prop28
280
     0
102
RTVSPost2010PropOp28
 70
     1
102
RTVSPost2010Prop29
280
     1
102
RTVSPost2010PropOp29
 70
     1
102
RTVSPost2010Prop30
280
     1
102
RTVSPost2010PropOp30
 70
     1
102
RTVSPost2010Prop31
280
     0
102
RTVSPost2010PropOp31
 70
     1
102
RTVSPost2010Prop32
280
     0
102
RTVSPost2010PropOp32
 70
     1
102
RTVSPost2010Prop33
280
     0
102
RTVSPost2010PropOp33
 70
     1
102
RTVSPost2010Prop34
280
     0
102
RTVSPost2010PropOp34
 70
     1
102
RTVSPost2010Prop35
280
     0
102
RTVSPost2010PropOp35
 70
     1
102
RTVSPost2010Prop36
280
     0
102
RTVSPost2010PropOp36
 70
     1
102
RTVSPost2010Prop37
 90
       50
102
RTVSPost2010PropOp37
 70
     1
102
RTVSPost2010Prop38
140
0.0
102
RTVSPost2010PropOp38
 70
     1
102
RTVSPost2010Prop39
140
1.0
102
RTVSPost2010PropOp39
 70
     1
102
RTVSPost2010Prop40
 90
        0
102
RTVSPost2010PropOp40
 70
     1
102
RTVSPost2010Prop41ColorIndex
 90
       18
102
RTVSPost2010Prop41ColorRGB
 90
        0
102
RTVSPost2010PropOp41
 70
     1
102
RTVSPost2010Prop42
 90
       50
102
RTVSPost2010PropOp42
 70
     1
102
RTVSPost2010Prop43
 90
        3
102
RTVSPost2010PropOp43
 70
     1
102
RTVSPost2010Prop44ColorIndex
 90
        5
102
RTVSPost2010Prop44ColorRGB
 90
      255
102
RTVSPost2010PropOp44
 70
     1
102
RTVSPost2010Prop45
280
     0
102
RTVSPost2010PropOp45
 70
     1
102
RTVSPost2010Prop46
 90
       50
102
RTVSPost2010PropOp46
 70
     1
102
RTVSPost2010Prop47
 90
       50
102
RTVSPost2010PropOp47
 70
     1
102
RTVSPost2010Prop48
 90
       50
102
RTVSPost2010PropOp48
 70
     1
102
RTVSPost2010Prop49
280
     0
102
RTVSPost2010PropOp49
 70
     1
102
RTVSPost2010Prop50
 90
       50
102
RTVSPost2010PropOp50
 70
     1
102
RTVSPost2010Prop51ColorIndex
 90
      256
102
RTVSPost2010Prop51ColorRGB
 90
-16777216
102
RTVSPost2010PropOp51
 70
     0
102
RTVSPost2010Prop52
140
1.0
102
RTVSPost2010PropOp52
 70
     0
102
RTVSPost2010Prop53
 90
        2
102
RTVSPost2010PropOp53
 70
     1
102
RTVSPost2010Prop54
  1
strokes_ogs.tif
102
RTVSPost2010PropOp54
 70
     1
102
RTVSPost2010Prop55
280
     0
102
RTVSPost2010PropOp55
 70
     1
102
RTVSPost2010Prop56
140
1.0
102
RTVSPost2010PropOp56
 70
     1
102
RTVSPost2010Prop57
140
1.0
102
RTVSPost2010PropOp57
 70
     1
  0
XRECORD
  5
1D7
102
{ACAD_REACTORS
330
1D6
102
}
330
1D6
100
AcDbXrecord
280
     1
102
RTVSPropertyOp0
 70
     1
102
RTVSPropertyOp1
 70
     1
102
RTVSPropertyOp2
 70
     1
102
RTVSPropertyOp3
 70
     1
102
RTVSPropertyOp4
 70
     1
102
RTVSPropertyOp5
 70
     1
102
RTVSPropertyOp6
 70
     1
102
RTVSPropertyOp7
 70
     1
102
RTVSPropertyOp8
 70
     1
102
RTVSPropertyOp9
 70
     1
102
RTVSPropertyOp10
 70
     1
102
RTVSPropertyOp11
 70
     1
102
RTVSPropertyOp12
 70
     1
102
RTVSPropertyOp13
 70
     1
102
RTVSPropertyOp14
 70
     1
102
RTVSPropertyOp15
 70
     1
102
RTVSPropertyOp16
 70
     1
102
RTVSPropertyOp17
 70
     1
102
RTVSPropertyOp18
 70
     1
102
RTVSPropertyOp19
 70
     1
102
RTVSPropertyOp20
 70
     1
102
RTVSPropertyOp21
 70
     1
102
RTVSPropertyOp22
 70
     1
102
RTVSPropertyOp23
 70
     1
102
RTVSPropertyOp24
 70
     1
102
RTVSPropertyOp25
 70
     1
102
RTVSPropertyOp26
 70
     1
102
RTVSPropertyOp27
 70
     1
102
RTVSPropertyOp28
 70
     1
102
RTVSPropertyOp29
 70
     1
102
RTVSPropertyOp30
 70
     1
102
RTVSPropertyOp31
 70
     1
102
RTVSPropertyOp32
 70
     1
102
RTVSPropertyOp33
 70
     1
102
RTVSPropertyOp34
 70
     1
102
RTVSPropertyOp35
 70
     1
102
RTVSPropertyOp36
 70
     1
102
RTVSPropertyOp37
 70
     1
102
RTVSPropertyOp38
 70
     1
102
RTVSPropertyOp39
 70
     1
102
RTVSPropertyOp40
 70
     1
102
RTVSPropertyOp41
 70
     1
102
RTVSPropertyOp42
 70
     1
102
RTVSPropertyOp43
 70
     1
102
RTVSPropertyOp44
 70
     1
102
RTVSPropertyOp45
 70
     1
102
RTVSPropertyOp46
 70
     1
102
RTVSPropertyOp47
 70
     1
102
RTVSPropertyOp48
 70
     1
102
RTVSPropertyOp49
 70
     1
102
RTVSPropertyOp50
 70
     1
102
RTVSPropertyOp51
 70
     0
102
RTVSPropertyOp52
 70
     0
102
RTVSPropertyOp53
 70
     1
102
RTVSPropertyOp54
 70
     1
102
RTVSPropertyOp55
 70
     1
102
RTVSPropertyOp56
 70
     1
102
RTVSPropertyOp57
 70
     1
102
RTVSPost2010Prop28
280
     0
102
RTVSPost2010PropOp28
 70
     1
102
RTVSPost2010Prop29
280
     1
102
RTVSPost2010PropOp29
 70
     1
102
RTVSPost2010Prop30
280
     1
102
RTVSPost2010PropOp30
 70
     1
102
RTVSPost2010Prop31
280
     0
102
RTVSPost2010PropOp31
 70
     1
102
RTVSPost2010Prop32
280
     0
102
RTVSPost2010PropOp32
 70
     1
102
RTVSPost2010Prop33
280
     0
102
RTVSPost2010PropOp33
 70
     1
102
RTVSPost2010Prop34
280
     0
102
RTVSPost2010PropOp34
 70
     1
102
RTVSPost2010Prop35
280
     0
102
RTVSPost2010PropOp35
 70
     1
102
RTVSPost2010Prop36
280
     0
102
RTVSPost2010PropOp36
 70
     1
102
RTVSPost2010Prop37
 90
       50
102
RTVSPost2010PropOp37
 70
     1
102
RTVSPost2010Prop38
140
0.0
102
RTVSPost2010PropOp38
 70
     1
102
RTVSPost2010Prop39
140
1.0
102
RTVSPost2010PropOp39
 70
     1
102
RTVSPost2010Prop40
 90
        0
102
RTVSPost2010PropOp40
 70
     1
102
RTVSPost2010Prop41ColorIndex
 90
       18
102
RTVSPost2010Prop41ColorRGB
 90
        0
102
RTVSPost2010PropOp41
 70
     1
102
RTVSPost2010Prop42
 90
       50
102
RTVSPost2010PropOp42
 70
     1
102
RTVSPost2010Prop43
 90
        3
102
RTVSPost2010PropOp43
 70
     1
102
RTVSPost2010Prop44ColorIndex
 90
        5
102
RTVSPost2010Prop44ColorRGB
 90
      255
102
RTVSPost2010PropOp44
 70
     1
102
RTVSPost2010Prop45
280
     0
102
RTVSPost2010PropOp45
 70
     1
102
RTVSPost2010Prop46
 90
       50
102
RTVSPost2010PropOp46
 70
     1
102
RTVSPost2010Prop47
 90
       50
102
RTVSPost2010PropOp47
 70
     1
102
RTVSPost2010Prop48
 90
       50
102
RTVSPost2010PropOp48
 70
     1
102
RTVSPost2010Prop49
280
     0
102
RTVSPost2010PropOp49
 70
     1
102
RTVSPost2010Prop50
 90
       50
102
RTVSPost2010PropOp50
 70
     1
102
RTVSPost2010Prop51ColorIndex
 90
      256
102
RTVSPost2010Prop51ColorRGB
 90
-16777216
102
RTVSPost2010PropOp51
 70
     0
102
RTVSPost2010Prop52
140
1.0
102
RTVSPost2010PropOp52
 70
     0
102
RTVSPost2010Prop53
 90
        2
102
RTVSPost2010PropOp53
 70
     1
102
RTVSPost2010Prop54
  1
strokes_ogs.tif
102
RTVSPost2010PropOp54
 70
     1
102
RTVSPost2010Prop55
280
     0
102
RTVSPost2010PropOp55
 70
     1
102
RTVSPost2010Prop56
140
1.0
102
RTVSPost2010PropOp56
 70
     1
102
RTVSPost2010Prop57
140
1.0
102
RTVSPost2010PropOp57
 70
     1
  0
XRECORD
  5
1CB
102
{ACAD_REACTORS
330
1CA
102
}
330
1CA
100
AcDbXrecord
280
     1
102
RTVSPropertyOp0
 70
     1
102
RTVSPropertyOp1
 70
     1
102
RTVSPropertyOp2
 70
     1
102
RTVSPropertyOp3
 70
     1
102
RTVSPropertyOp4
 70
     1
102
RTVSPropertyOp5
 70
     1
102
RTVSPropertyOp6
 70
     1
102
RTVSPropertyOp7
 70
     1
102
RTVSPropertyOp8
 70
     1
102
RTVSPropertyOp9
 70
     1
102
RTVSPropertyOp10
 70
     1
102
RTVSPropertyOp11
 70
     1
102
RTVSPropertyOp12
 70
     1
102
RTVSPropertyOp13
 70
     1
102
RTVSPropertyOp14
 70
     1
102
RTVSPropertyOp15
 70
     1
102
RTVSPropertyOp16
 70
     1
102
RTVSPropertyOp17
 70
     1
102
RTVSPropertyOp18
 70
     1
102
RTVSPropertyOp19
 70
     1
102
RTVSPropertyOp20
 70
     1
102
RTVSPropertyOp21
 70
     1
102
RTVSPropertyOp22
 70
     1
102
RTVSPropertyOp23
 70
     1
102
RTVSPropertyOp24
 70
     1
102
RTVSPropertyOp25
 70
     1
102
RTVSPropertyOp26
 70
     1
102
RTVSPropertyOp27
 70
     1
102
RTVSPropertyOp28
 70
     1
102
RTVSPropertyOp29
 70
     1
102
RTVSPropertyOp30
 70
     1
102
RTVSPropertyOp31
 70
     1
102
RTVSPropertyOp32
 70
     1
102
RTVSPropertyOp33
 70
     1
102
RTVSPropertyOp34
 70
     1
102
RTVSPropertyOp35
 70
     1
102
RTVSPropertyOp36
 70
     1
102
RTVSPropertyOp37
 70
     1
102
RTVSPropertyOp38
 70
     1
102
RTVSPropertyOp39
 70
     1
102
RTVSPropertyOp40
 70
     1
102
RTVSPropertyOp41
 70
     1
102
RTVSPropertyOp42
 70
     1
102
RTVSPropertyOp43
 70
     1
102
RTVSPropertyOp44
 70
     1
102
RTVSPropertyOp45
 70
     1
102
RTVSPropertyOp46
 70
     1
102
RTVSPropertyOp47
 70
     1
102
RTVSPropertyOp48
 70
     1
102
RTVSPropertyOp49
 70
     1
102
RTVSPropertyOp50
 70
     1
102
RTVSPropertyOp51
 70
     0
102
RTVSPropertyOp52
 70
     0
102
RTVSPropertyOp53
 70
     1
102
RTVSPropertyOp54
 70
     1
102
RTVSPropertyOp55
 70
     1
102
RTVSPropertyOp56
 70
     1
102
RTVSPropertyOp57
 70
     1
102
RTVSPost2010Prop28
280
     0
102
RTVSPost2010PropOp28
 70
     1
102
RTVSPost2010Prop29
280
     1
102
RTVSPost2010PropOp29
 70
     1
102
RTVSPost2010Prop30
280
     1
102
RTVSPost2010PropOp30
 70
     1
102
RTVSPost2010Prop31
280
     0
102
RTVSPost2010PropOp31
 70
     1
102
RTVSPost2010Prop32
280
     0
102
RTVSPost2010PropOp32
 70
     1
102
RTVSPost2010Prop33
280
     0
102
RTVSPost2010PropOp33
 70
     1
102
RTVSPost2010Prop34
280
     0
102
RTVSPost2010PropOp34
 70
     1
102
RTVSPost2010Prop35
280
     0
102
RTVSPost2010PropOp35
 70
     1
102
RTVSPost2010Prop36
280
     0
102
RTVSPost2010PropOp36
 70
     1
102
RTVSPost2010Prop37
 90
       50
102
RTVSPost2010PropOp37
 70
     1
102
RTVSPost2010Prop38
140
0.0
102
RTVSPost2010PropOp38
 70
     1
102
RTVSPost2010Prop39
140
1.0
102
RTVSPost2010PropOp39
 70
     1
102
RTVSPost2010Prop40
 90
        0
102
RTVSPost2010PropOp40
 70
     1
102
RTVSPost2010Prop41ColorIndex
 90
       18
102
RTVSPost2010Prop41ColorRGB
 90
        0
102
RTVSPost2010PropOp41
 70
     1
102
RTVSPost2010Prop42
 90
       50
102
RTVSPost2010PropOp42
 70
     1
102
RTVSPost2010Prop43
 90
        3
102
RTVSPost2010PropOp43
 70
     1
102
RTVSPost2010Prop44ColorIndex
 90
        5
102
RTVSPost2010Prop44ColorRGB
 90
      255
102
RTVSPost2010PropOp44
 70
     1
102
RTVSPost2010Prop45
280
     0
102
RTVSPost2010PropOp45
 70
     1
102
RTVSPost2010Prop46
 90
       50
102
RTVSPost2010PropOp46
 70
     1
102
RTVSPost2010Prop47
 90
       50
102
RTVSPost2010PropOp47
 70
     1
102
RTVSPost2010Prop48
 90
       50
102
RTVSPost2010PropOp48
 70
     1
102
RTVSPost2010Prop49
280
     0
102
RTVSPost2010PropOp49
 70
     1
102
RTVSPost2010Prop50
 90
       50
102
RTVSPost2010PropOp50
 70
     1
102
RTVSPost2010Prop51ColorIndex
 90
      256
102
RTVSPost2010Prop51ColorRGB
 90
-16777216
102
RTVSPost2010PropOp51
 70
     0
102
RTVSPost2010Prop52
140
1.0
102
RTVSPost2010PropOp52
 70
     0
102
RTVSPost2010Prop53
 90
        2
102
RTVSPost2010PropOp53
 70
     1
102
RTVSPost2010Prop54
  1
strokes_ogs.tif
102
RTVSPost2010PropOp54
 70
     1
102
RTVSPost2010Prop55
280
     0
102
RTVSPost2010PropOp55
 70
     1
102
RTVSPost2010Prop56
140
1.0
102
RTVSPost2010PropOp56
 70
     1
102
RTVSPost2010Prop57
140
1.0
102
RTVSPost2010PropOp57
 70
     1
  0
XRECORD
  5
1CD
102
{ACAD_REACTORS
330
1CC
102
}
330
1CC
100
AcDbXrecord
280
     1
102
RTVSPropertyOp0
 70
     1
102
RTVSPropertyOp1
 70
     1
102
RTVSPropertyOp2
 70
     1
102
RTVSPropertyOp3
 70
     1
102
RTVSPropertyOp4
 70
     1
102
RTVSPropertyOp5
 70
     1
102
RTVSPropertyOp6
 70
     1
102
RTVSPropertyOp7
 70
     1
102
RTVSPropertyOp8
 70
     1
102
RTVSPropertyOp9
 70
     1
102
RTVSPropertyOp10
 70
     1
102
RTVSPropertyOp11
 70
     1
102
RTVSPropertyOp12
 70
     1
102
RTVSPropertyOp13
 70
     1
102
RTVSPropertyOp14
 70
     1
102
RTVSPropertyOp15
 70
     1
102
RTVSPropertyOp16
 70
     1
102
RTVSPropertyOp17
 70
     1
102
RTVSPropertyOp18
 70
     1
102
RTVSPropertyOp19
 70
     1
102
RTVSPropertyOp20
 70
     1
102
RTVSPropertyOp21
 70
     1
102
RTVSPropertyOp22
 70
     1
102
RTVSPropertyOp23
 70
     1
102
RTVSPropertyOp24
 70
     1
102
RTVSPropertyOp25
 70
     1
102
RTVSPropertyOp26
 70
     1
102
RTVSPropertyOp27
 70
     1
102
RTVSPropertyOp28
 70
     1
102
RTVSPropertyOp29
 70
     1
102
RTVSPropertyOp30
 70
     1
102
RTVSPropertyOp31
 70
     1
102
RTVSPropertyOp32
 70
     1
102
RTVSPropertyOp33
 70
     1
102
RTVSPropertyOp34
 70
     1
102
RTVSPropertyOp35
 70
     1
102
RTVSPropertyOp36
 70
     1
102
RTVSPropertyOp37
 70
     1
102
RTVSPropertyOp38
 70
     1
102
RTVSPropertyOp39
 70
     1
102
RTVSPropertyOp40
 70
     1
102
RTVSPropertyOp41
 70
     1
102
RTVSPropertyOp42
 70
     1
102
RTVSPropertyOp43
 70
     1
102
RTVSPropertyOp44
 70
     1
102
RTVSPropertyOp45
 70
     1
102
RTVSPropertyOp46
 70
     1
102
RTVSPropertyOp47
 70
     1
102
RTVSPropertyOp48
 70
     1
102
RTVSPropertyOp49
 70
     1
102
RTVSPropertyOp50
 70
     1
102
RTVSPropertyOp51
 70
     0
102
RTVSPropertyOp52
 70
     0
102
RTVSPropertyOp53
 70
     1
102
RTVSPropertyOp54
 70
     1
102
RTVSPropertyOp55
 70
     1
102
RTVSPropertyOp56
 70
     1
102
RTVSPropertyOp57
 70
     1
102
RTVSPost2010Prop28
280
     0
102
RTVSPost2010PropOp28
 70
     1
102
RTVSPost2010Prop29
280
     1
102
RTVSPost2010PropOp29
 70
     1
102
RTVSPost2010Prop30
280
     1
102
RTVSPost2010PropOp30
 70
     1
102
RTVSPost2010Prop31
280
     0
102
RTVSPost2010PropOp31
 70
     1
102
RTVSPost2010Prop32
280
     0
102
RTVSPost2010PropOp32
 70
     1
102
RTVSPost2010Prop33
280
     0
102
RTVSPost2010PropOp33
 70
     1
102
RTVSPost2010Prop34
280
     0
102
RTVSPost2010PropOp34
 70
     1
102
RTVSPost2010Prop35
280
     0
102
RTVSPost2010PropOp35
 70
     1
102
RTVSPost2010Prop36
280
     0
102
RTVSPost2010PropOp36
 70
     1
102
RTVSPost2010Prop37
 90
       50
102
RTVSPost2010PropOp37
 70
     1
102
RTVSPost2010Prop38
140
0.0
102
RTVSPost2010PropOp38
 70
     1
102
RTVSPost2010Prop39
140
1.0
102
RTVSPost2010PropOp39
 70
     1
102
RTVSPost2010Prop40
 90
        0
102
RTVSPost2010PropOp40
 70
     1
102
RTVSPost2010Prop41ColorIndex
 90
       18
102
RTVSPost2010Prop41ColorRGB
 90
        0
102
RTVSPost2010PropOp41
 70
     1
102
RTVSPost2010Prop42
 90
       50
102
RTVSPost2010PropOp42
 70
     1
102
RTVSPost2010Prop43
 90
        3
102
RTVSPost2010PropOp43
 70
     1
102
RTVSPost2010Prop44ColorIndex
 90
        5
102
RTVSPost2010Prop44ColorRGB
 90
      255
102
RTVSPost2010PropOp44
 70
     1
102
RTVSPost2010Prop45
280
     0
102
RTVSPost2010PropOp45
 70
     1
102
RTVSPost2010Prop46
 90
       50
102
RTVSPost2010PropOp46
 70
     1
102
RTVSPost2010Prop47
 90
       50
102
RTVSPost2010PropOp47
 70
     1
102
RTVSPost2010Prop48
 90
       50
102
RTVSPost2010PropOp48
 70
     1
102
RTVSPost2010Prop49
280
     0
102
RTVSPost2010PropOp49
 70
     1
102
RTVSPost2010Prop50
 90
       50
102
RTVSPost2010PropOp50
 70
     1
102
RTVSPost2010Prop51ColorIndex
 90
      256
102
RTVSPost2010Prop51ColorRGB
 90
-16777216
102
RTVSPost2010PropOp51
 70
     0
102
RTVSPost2010Prop52
140
1.0
102
RTVSPost2010PropOp52
 70
     0
102
RTVSPost2010Prop53
 90
        2
102
RTVSPost2010PropOp53
 70
     1
102
RTVSPost2010Prop54
  1
strokes_ogs.tif
102
RTVSPost2010PropOp54
 70
     1
102
RTVSPost2010Prop55
280
     0
102
RTVSPost2010PropOp55
 70
     1
102
RTVSPost2010Prop56
140
1.0
102
RTVSPost2010PropOp56
 70
     1
102
RTVSPost2010Prop57
140
1.0
102
RTVSPost2010PropOp57
 70
     1
  0
XRECORD
  5
1DD
102
{ACAD_REACTORS
330
1DC
102
}
330
1DC
100
AcDbXrecord
280
     1
102
RTVSPropertyOp0
 70
     0
102
RTVSPropertyOp1
 70
     0
102
RTVSPropertyOp2
 70
     0
102
RTVSPropertyOp3
 70
     0
102
RTVSPropertyOp4
 70
     0
102
RTVSPropertyOp5
 70
     0
102
RTVSPropertyOp6
 70
     0
102
RTVSPropertyOp7
 70
     0
102
RTVSPropertyOp8
 70
     0
102
RTVSPropertyOp9
 70
     0
102
RTVSPropertyOp10
 70
     0
102
RTVSPropertyOp11
 70
     0
102
RTVSPropertyOp12
 70
     0
102
RTVSPropertyOp13
 70
     0
102
RTVSPropertyOp14
 70
     2
102
RTVSPropertyOp15
 70
     0
102
RTVSPropertyOp16
 70
     0
102
RTVSPropertyOp17
 70
     0
102
RTVSPropertyOp18
 70
     0
102
RTVSPropertyOp19
 70
     0
102
RTVSPropertyOp20
 70
     0
102
RTVSPropertyOp21
 70
     0
102
RTVSPropertyOp22
 70
     0
102
RTVSPropertyOp23
 70
     0
102
RTVSPropertyOp24
 70
     0
102
RTVSPropertyOp25
 70
     0
102
RTVSPropertyOp26
 70
     0
102
RTVSPropertyOp27
 70
     0
102
RTVSPropertyOp28
 70
     0
102
RTVSPropertyOp29
 70
     0
102
RTVSPropertyOp30
 70
     0
102
RTVSPropertyOp31
 70
     0
102
RTVSPropertyOp32
 70
     0
102
RTVSPropertyOp33
 70
     0
102
RTVSPropertyOp34
 70
     0
102
RTVSPropertyOp35
 70
     0
102
RTVSPropertyOp36
 70
     0
102
RTVSPropertyOp37
 70
     0
102
RTVSPropertyOp38
 70
     0
102
RTVSPropertyOp39
 70
     0
102
RTVSPropertyOp40
 70
     0
102
RTVSPropertyOp41
 70
     0
102
RTVSPropertyOp42
 70
     0
102
RTVSPropertyOp43
 70
     0
102
RTVSPropertyOp44
 70
     0
102
RTVSPropertyOp45
 70
     0
102
RTVSPropertyOp46
 70
     0
102
RTVSPropertyOp47
 70
     0
102
RTVSPropertyOp48
 70
     0
102
RTVSPropertyOp49
 70
     0
102
RTVSPropertyOp50
 70
     0
102
RTVSPropertyOp51
 70
     0
102
RTVSPropertyOp52
 70
     0
102
RTVSPropertyOp53
 70
     0
102
RTVSPropertyOp54
 70
     0
102
RTVSPropertyOp55
 70
     0
102
RTVSPropertyOp56
 70
     0
102
RTVSPropertyOp57
 70
     0
102
RTVSPost2010Prop28
280
     0
102
RTVSPost2010PropOp28
 70
     0
102
RTVSPost2010Prop29
280
     1
102
RTVSPost2010PropOp29
 70
     0
102
RTVSPost2010Prop30
280
     1
102
RTVSPost2010PropOp30
 70
     0
102
RTVSPost2010Prop31
280
     0
102
RTVSPost2010PropOp31
 70
     0
102
RTVSPost2010Prop32
280
     0
102
RTVSPost2010PropOp32
 70
     0
102
RTVSPost2010Prop33
280
     0
102
RTVSPost2010PropOp33
 70
     0
102
RTVSPost2010Prop34
280
     0
102
RTVSPost2010PropOp34
 70
     0
102
RTVSPost2010Prop35
280
     0
102
RTVSPost2010PropOp35
 70
     0
102
RTVSPost2010Prop36
280
     0
102
RTVSPost2010PropOp36
 70
     0
102
RTVSPost2010Prop37
 90
       50
102
RTVSPost2010PropOp37
 70
     0
102
RTVSPost2010Prop38
140
0.0
102
RTVSPost2010PropOp38
 70
     0
102
RTVSPost2010Prop39
140
1.0
102
RTVSPost2010PropOp39
 70
     0
102
RTVSPost2010Prop40
 90
        0
102
RTVSPost2010PropOp40
 70
     0
102
RTVSPost2010Prop41ColorIndex
 90
       18
102
RTVSPost2010Prop41ColorRGB
 90
        0
102
RTVSPost2010PropOp41
 70
     0
102
RTVSPost2010Prop42
 90
       50
102
RTVSPost2010PropOp42
 70
     0
102
RTVSPost2010Prop43
 90
        3
102
RTVSPost2010PropOp43
 70
     0
102
RTVSPost2010Prop44ColorIndex
 90
        5
102
RTVSPost2010Prop44ColorRGB
 90
      255
102
RTVSPost2010PropOp44
 70
     0
102
RTVSPost2010Prop45
280
     0
102
RTVSPost2010PropOp45
 70
     0
102
RTVSPost2010Prop46
 90
       50
102
RTVSPost2010PropOp46
 70
     0
102
RTVSPost2010Prop47
 90
       50
102
RTVSPost2010PropOp47
 70
     0
102
RTVSPost2010Prop48
 90
       50
102
RTVSPost2010PropOp48
 70
     0
102
RTVSPost2010Prop49
280
     0
102
RTVSPost2010PropOp49
 70
     0
102
RTVSPost2010Prop50
 90
       50
102
RTVSPost2010PropOp50
 70
     0
102
RTVSPost2010Prop51ColorIndex
 90
      256
102
RTVSPost2010Prop51ColorRGB
 90
-16777216
102
RTVSPost2010PropOp51
 70
     0
102
RTVSPost2010Prop52
140
1.0
102
RTVSPost2010PropOp52
 70
     0
102
RTVSPost2010Prop53
 90
        2
102
RTVSPost2010PropOp53
 70
     0
102
RTVSPost2010Prop54
  1
strokes_ogs.tif
102
RTVSPost2010PropOp54
 70
     0
102
RTVSPost2010Prop55
280
     0
102
RTVSPost2010PropOp55
 70
     0
102
RTVSPost2010Prop56
140
1.0
102
RTVSPost2010PropOp56
 70
     0
102
RTVSPost2010Prop57
140
1.0
102
RTVSPost2010PropOp57
 70
     0
  0
XRECORD
  5
1D5
102
{ACAD_REACTORS
330
1D4
102
}
330
1D4
100
AcDbXrecord
280
     1
102
RTVSPropertyOp0
 70
     1
102
RTVSPropertyOp1
 70
     1
102
RTVSPropertyOp2
 70
     1
102
RTVSPropertyOp3
 70
     1
102
RTVSPropertyOp4
 70
     1
102
RTVSPropertyOp5
 70
     1
102
RTVSPropertyOp6
 70
     1
102
RTVSPropertyOp7
 70
     1
102
RTVSPropertyOp8
 70
     1
102
RTVSPropertyOp9
 70
     1
102
RTVSPropertyOp10
 70
     1
102
RTVSPropertyOp11
 70
     1
102
RTVSPropertyOp12
 70
     1
102
RTVSPropertyOp13
 70
     1
102
RTVSPropertyOp14
 70
     1
102
RTVSPropertyOp15
 70
     1
102
RTVSPropertyOp16
 70
     1
102
RTVSPropertyOp17
 70
     1
102
RTVSPropertyOp18
 70
     1
102
RTVSPropertyOp19
 70
     1
102
RTVSPropertyOp20
 70
     1
102
RTVSPropertyOp21
 70
     1
102
RTVSPropertyOp22
 70
     1
102
RTVSPropertyOp23
 70
     1
102
RTVSPropertyOp24
 70
     1
102
RTVSPropertyOp25
 70
     1
102
RTVSPropertyOp26
 70
     1
102
RTVSPropertyOp27
 70
     1
102
RTVSPropertyOp28
 70
     1
102
RTVSPropertyOp29
 70
     1
102
RTVSPropertyOp30
 70
     1
102
RTVSPropertyOp31
 70
     1
102
RTVSPropertyOp32
 70
     1
102
RTVSPropertyOp33
 70
     1
102
RTVSPropertyOp34
 70
     1
102
RTVSPropertyOp35
 70
     1
102
RTVSPropertyOp36
 70
     1
102
RTVSPropertyOp37
 70
     1
102
RTVSPropertyOp38
 70
     1
102
RTVSPropertyOp39
 70
     1
102
RTVSPropertyOp40
 70
     1
102
RTVSPropertyOp41
 70
     1
102
RTVSPropertyOp42
 70
     1
102
RTVSPropertyOp43
 70
     1
102
RTVSPropertyOp44
 70
     1
102
RTVSPropertyOp45
 70
     1
102
RTVSPropertyOp46
 70
     1
102
RTVSPropertyOp47
 70
     1
102
RTVSPropertyOp48
 70
     1
102
RTVSPropertyOp49
 70
     1
102
RTVSPropertyOp50
 70
     1
102
RTVSPropertyOp51
 70
     0
102
RTVSPropertyOp52
 70
     0
102
RTVSPropertyOp53
 70
     1
102
RTVSPropertyOp54
 70
     1
102
RTVSPropertyOp55
 70
     1
102
RTVSPropertyOp56
 70
     1
102
RTVSPropertyOp57
 70
     1
102
RTVSPost2010Prop28
280
     0
102
RTVSPost2010PropOp28
 70
     1
102
RTVSPost2010Prop29
280
     1
102
RTVSPost2010PropOp29
 70
     1
102
RTVSPost2010Prop30
280
     1
102
RTVSPost2010PropOp30
 70
     1
102
RTVSPost2010Prop31
280
     0
102
RTVSPost2010PropOp31
 70
     1
102
RTVSPost2010Prop32
280
     0
102
RTVSPost2010PropOp32
 70
     1
102
RTVSPost2010Prop33
280
     0
102
RTVSPost2010PropOp33
 70
     1
102
RTVSPost2010Prop34
280
     0
102
RTVSPost2010PropOp34
 70
     1
102
RTVSPost2010Prop35
280
     0
102
RTVSPost2010PropOp35
 70
     1
102
RTVSPost2010Prop36
280
     0
102
RTVSPost2010PropOp36
 70
     1
102
RTVSPost2010Prop37
 90
       50
102
RTVSPost2010PropOp37
 70
     1
102
RTVSPost2010Prop38
140
0.0
102
RTVSPost2010PropOp38
 70
     1
102
RTVSPost2010Prop39
140
1.0
102
RTVSPost2010PropOp39
 70
     1
102
RTVSPost2010Prop40
 90
        0
102
RTVSPost2010PropOp40
 70
     1
102
RTVSPost2010Prop41ColorIndex
 90
       18
102
RTVSPost2010Prop41ColorRGB
 90
        0
102
RTVSPost2010PropOp41
 70
     1
102
RTVSPost2010Prop42
 90
       50
102
RTVSPost2010PropOp42
 70
     1
102
RTVSPost2010Prop43
 90
        3
102
RTVSPost2010PropOp43
 70
     1
102
RTVSPost2010Prop44ColorIndex
 90
        5
102
RTVSPost2010Prop44ColorRGB
 90
      255
102
RTVSPost2010PropOp44
 70
     1
102
RTVSPost2010Prop45
280
     0
102
RTVSPost2010PropOp45
 70
     1
102
RTVSPost2010Prop46
 90
       50
102
RTVSPost2010PropOp46
 70
     1
102
RTVSPost2010Prop47
 90
       50
102
RTVSPost2010PropOp47
 70
     1
102
RTVSPost2010Prop48
 90
       50
102
RTVSPost2010PropOp48
 70
     1
102
RTVSPost2010Prop49
280
     0
102
RTVSPost2010PropOp49
 70
     1
102
RTVSPost2010Prop50
 90
       50
102
RTVSPost2010PropOp50
 70
     1
102
RTVSPost2010Prop51ColorIndex
 90
      256
102
RTVSPost2010Prop51ColorRGB
 90
-16777216
102
RTVSPost2010PropOp51
 70
     0
102
RTVSPost2010Prop52
140
1.0
102
RTVSPost2010PropOp52
 70
     0
102
RTVSPost2010Prop53
 90
        2
102
RTVSPost2010PropOp53
 70
     1
102
RTVSPost2010Prop54
  1
strokes_ogs.tif
102
RTVSPost2010PropOp54
 70
     1
102
RTVSPost2010Prop55
280
     0
102
RTVSPost2010PropOp55
 70
     1
102
RTVSPost2010Prop56
140
1.0
102
RTVSPost2010PropOp56
 70
     1
102
RTVSPost2010Prop57
140
1.0
102
RTVSPost2010PropOp57
 70
     1
  0
XRECORD
  5
1B9
102
{ACAD_REACTORS
330
1B8
102
}
330
1B8
100
AcDbXrecord
280
     1
102
RTVSPropertyOp0
 70
     1
102
RTVSPropertyOp1
 70
     1
102
RTVSPropertyOp2
 70
     1
102
RTVSPropertyOp3
 70
     1
102
RTVSPropertyOp4
 70
     1
102
RTVSPropertyOp5
 70
     1
102
RTVSPropertyOp6
 70
     1
102
RTVSPropertyOp7
 70
     1
102
RTVSPropertyOp8
 70
     1
102
RTVSPropertyOp9
 70
     1
102
RTVSPropertyOp10
 70
     1
102
RTVSPropertyOp11
 70
     1
102
RTVSPropertyOp12
 70
     1
102
RTVSPropertyOp13
 70
     1
102
RTVSPropertyOp14
 70
     1
102
RTVSPropertyOp15
 70
     1
102
RTVSPropertyOp16
 70
     1
102
RTVSPropertyOp17
 70
     1
102
RTVSPropertyOp18
 70
     1
102
RTVSPropertyOp19
 70
     1
102
RTVSPropertyOp20
 70
     1
102
RTVSPropertyOp21
 70
     1
102
RTVSPropertyOp22
 70
     1
102
RTVSPropertyOp23
 70
     1
102
RTVSPropertyOp24
 70
     1
102
RTVSPropertyOp25
 70
     1
102
RTVSPropertyOp26
 70
     1
102
RTVSPropertyOp27
 70
     1
102
RTVSPropertyOp28
 70
     1
102
RTVSPropertyOp29
 70
     1
102
RTVSPropertyOp30
 70
     1
102
RTVSPropertyOp31
 70
     1
102
RTVSPropertyOp32
 70
     1
102
RTVSPropertyOp33
 70
     1
102
RTVSPropertyOp34
 70
     1
102
RTVSPropertyOp35
 70
     1
102
RTVSPropertyOp36
 70
     1
102
RTVSPropertyOp37
 70
     1
102
RTVSPropertyOp38
 70
     1
102
RTVSPropertyOp39
 70
     1
102
RTVSPropertyOp40
 70
     1
102
RTVSPropertyOp41
 70
     1
102
RTVSPropertyOp42
 70
     1
102
RTVSPropertyOp43
 70
     1
102
RTVSPropertyOp44
 70
     1
102
RTVSPropertyOp45
 70
     1
102
RTVSPropertyOp46
 70
     1
102
RTVSPropertyOp47
 70
     1
102
RTVSPropertyOp48
 70
     1
102
RTVSPropertyOp49
 70
     1
102
RTVSPropertyOp50
 70
     1
102
RTVSPropertyOp51
 70
     0
102
RTVSPropertyOp52
 70
     0
102
RTVSPropertyOp53
 70
     1
102
RTVSPropertyOp54
 70
     1
102
RTVSPropertyOp55
 70
     1
102
RTVSPropertyOp56
 70
     1
102
RTVSPropertyOp57
 70
     1
102
RTVSPost2010Prop28
280
     0
102
RTVSPost2010PropOp28
 70
     1
102
RTVSPost2010Prop29
280
     1
102
RTVSPost2010PropOp29
 70
     1
102
RTVSPost2010Prop30
280
     1
102
RTVSPost2010PropOp30
 70
     1
102
RTVSPost2010Prop31
280
     0
102
RTVSPost2010PropOp31
 70
     1
102
RTVSPost2010Prop32
280
     0
102
RTVSPost2010PropOp32
 70
     1
102
RTVSPost2010Prop33
280
     0
102
RTVSPost2010PropOp33
 70
     1
102
RTVSPost2010Prop34
280
     0
102
RTVSPost2010PropOp34
 70
     1
102
RTVSPost2010Prop35
280
     0
102
RTVSPost2010PropOp35
 70
     1
102
RTVSPost2010Prop36
280
     0
102
RTVSPost2010PropOp36
 70
     1
102
RTVSPost2010Prop37
 90
       50
102
RTVSPost2010PropOp37
 70
     1
102
RTVSPost2010Prop38
140
0.0
102
RTVSPost2010PropOp38
 70
     1
102
RTVSPost2010Prop39
140
1.0
102
RTVSPost2010PropOp39
 70
     1
102
RTVSPost2010Prop40
 90
        0
102
RTVSPost2010PropOp40
 70
     1
102
RTVSPost2010Prop41ColorIndex
 90
       18
102
RTVSPost2010Prop41ColorRGB
 90
        0
102
RTVSPost2010PropOp41
 70
     1
102
RTVSPost2010Prop42
 90
       50
102
RTVSPost2010PropOp42
 70
     1
102
RTVSPost2010Prop43
 90
        3
102
RTVSPost2010PropOp43
 70
     1
102
RTVSPost2010Prop44ColorIndex
 90
        5
102
RTVSPost2010Prop44ColorRGB
 90
      255
102
RTVSPost2010PropOp44
 70
     1
102
RTVSPost2010Prop45
280
     0
102
RTVSPost2010PropOp45
 70
     1
102
RTVSPost2010Prop46
 90
       50
102
RTVSPost2010PropOp46
 70
     1
102
RTVSPost2010Prop47
 90
       50
102
RTVSPost2010PropOp47
 70
     1
102
RTVSPost2010Prop48
 90
       50
102
RTVSPost2010PropOp48
 70
     1
102
RTVSPost2010Prop49
280
     0
102
RTVSPost2010PropOp49
 70
     1
102
RTVSPost2010Prop50
 90
       50
102
RTVSPost2010PropOp50
 70
     1
102
RTVSPost2010Prop51ColorIndex
 90
      256
102
RTVSPost2010Prop51ColorRGB
 90
-16777216
102
RTVSPost2010PropOp51
 70
     0
102
RTVSPost2010Prop52
140
1.0
102
RTVSPost2010PropOp52
 70
     0
102
RTVSPost2010Prop53
 90
        2
102
RTVSPost2010PropOp53
 70
     1
102
RTVSPost2010Prop54
  1
strokes_ogs.tif
102
RTVSPost2010PropOp54
 70
     1
102
RTVSPost2010Prop55
280
     0
102
RTVSPost2010PropOp55
 70
     1
102
RTVSPost2010Prop56
140
1.0
102
RTVSPost2010PropOp56
 70
     1
102
RTVSPost2010Prop57
140
1.0
102
RTVSPost2010PropOp57
 70
     1
  0
XRECORD
  5
1BB
102
{ACAD_REACTORS
330
1BA
102
}
330
1BA
100
AcDbXrecord
280
     1
102
RTVSPropertyOp0
 70
     1
102
RTVSPropertyOp1
 70
     1
102
RTVSPropertyOp2
 70
     1
102
RTVSPropertyOp3
 70
     1
102
RTVSPropertyOp4
 70
     1
102
RTVSPropertyOp5
 70
     1
102
RTVSPropertyOp6
 70
     1
102
RTVSPropertyOp7
 70
     1
102
RTVSPropertyOp8
 70
     1
102
RTVSPropertyOp9
 70
     1
102
RTVSPropertyOp10
 70
     1
102
RTVSPropertyOp11
 70
     1
102
RTVSPropertyOp12
 70
     1
102
RTVSPropertyOp13
 70
     1
102
RTVSPropertyOp14
 70
     1
102
RTVSPropertyOp15
 70
     1
102
RTVSPropertyOp16
 70
     1
102
RTVSPropertyOp17
 70
     1
102
RTVSPropertyOp18
 70
     1
102
RTVSPropertyOp19
 70
     1
102
RTVSPropertyOp20
 70
     1
102
RTVSPropertyOp21
 70
     1
102
RTVSPropertyOp22
 70
     1
102
RTVSPropertyOp23
 70
     1
102
RTVSPropertyOp24
 70
     1
102
RTVSPropertyOp25
 70
     1
102
RTVSPropertyOp26
 70
     1
102
RTVSPropertyOp27
 70
     1
102
RTVSPropertyOp28
 70
     1
102
RTVSPropertyOp29
 70
     1
102
RTVSPropertyOp30
 70
     1
102
RTVSPropertyOp31
 70
     1
102
RTVSPropertyOp32
 70
     1
102
RTVSPropertyOp33
 70
     1
102
RTVSPropertyOp34
 70
     1
102
RTVSPropertyOp35
 70
     1
102
RTVSPropertyOp36
 70
     1
102
RTVSPropertyOp37
 70
     1
102
RTVSPropertyOp38
 70
     1
102
RTVSPropertyOp39
 70
     1
102
RTVSPropertyOp40
 70
     1
102
RTVSPropertyOp41
 70
     1
102
RTVSPropertyOp42
 70
     1
102
RTVSPropertyOp43
 70
     1
102
RTVSPropertyOp44
 70
     1
102
RTVSPropertyOp45
 70
     1
102
RTVSPropertyOp46
 70
     1
102
RTVSPropertyOp47
 70
     1
102
RTVSPropertyOp48
 70
     1
102
RTVSPropertyOp49
 70
     1
102
RTVSPropertyOp50
 70
     1
102
RTVSPropertyOp51
 70
     0
102
RTVSPropertyOp52
 70
     0
102
RTVSPropertyOp53
 70
     1
102
RTVSPropertyOp54
 70
     1
102
RTVSPropertyOp55
 70
     1
102
RTVSPropertyOp56
 70
     1
102
RTVSPropertyOp57
 70
     1
102
RTVSPost2010Prop28
280
     0
102
RTVSPost2010PropOp28
 70
     1
102
RTVSPost2010Prop29
280
     1
102
RTVSPost2010PropOp29
 70
     1
102
RTVSPost2010Prop30
280
     1
102
RTVSPost2010PropOp30
 70
     1
102
RTVSPost2010Prop31
280
     0
102
RTVSPost2010PropOp31
 70
     1
102
RTVSPost2010Prop32
280
     0
102
RTVSPost2010PropOp32
 70
     1
102
RTVSPost2010Prop33
280
     0
102
RTVSPost2010PropOp33
 70
     1
102
RTVSPost2010Prop34
280
     0
102
RTVSPost2010PropOp34
 70
     1
102
RTVSPost2010Prop35
280
     0
102
RTVSPost2010PropOp35
 70
     1
102
RTVSPost2010Prop36
280
     0
102
RTVSPost2010PropOp36
 70
     1
102
RTVSPost2010Prop37
 90
       50
102
RTVSPost2010PropOp37
 70
     1
102
RTVSPost2010Prop38
140
0.0
102
RTVSPost2010PropOp38
 70
     1
102
RTVSPost2010Prop39
140
1.0
102
RTVSPost2010PropOp39
 70
     1
102
RTVSPost2010Prop40
 90
        0
102
RTVSPost2010PropOp40
 70
     1
102
RTVSPost2010Prop41ColorIndex
 90
       18
102
RTVSPost2010Prop41ColorRGB
 90
        0
102
RTVSPost2010PropOp41
 70
     1
102
RTVSPost2010Prop42
 90
       50
102
RTVSPost2010PropOp42
 70
     1
102
RTVSPost2010Prop43
 90
        3
102
RTVSPost2010PropOp43
 70
     1
102
RTVSPost2010Prop44ColorIndex
 90
        5
102
RTVSPost2010Prop44ColorRGB
 90
      255
102
RTVSPost2010PropOp44
 70
     1
102
RTVSPost2010Prop45
280
     0
102
RTVSPost2010PropOp45
 70
     1
102
RTVSPost2010Prop46
 90
       50
102
RTVSPost2010PropOp46
 70
     1
102
RTVSPost2010Prop47
 90
       50
102
RTVSPost2010PropOp47
 70
     1
102
RTVSPost2010Prop48
 90
       50
102
RTVSPost2010PropOp48
 70
     1
102
RTVSPost2010Prop49
280
     0
102
RTVSPost2010PropOp49
 70
     1
102
RTVSPost2010Prop50
 90
       50
102
RTVSPost2010PropOp50
 70
     1
102
RTVSPost2010Prop51ColorIndex
 90
      256
102
RTVSPost2010Prop51ColorRGB
 90
-16777216
102
RTVSPost2010PropOp51
 70
     0
102
RTVSPost2010Prop52
140
1.0
102
RTVSPost2010PropOp52
 70
     0
102
RTVSPost2010Prop53
 90
        2
102
RTVSPost2010PropOp53
 70
     1
102
RTVSPost2010Prop54
  1
strokes_ogs.tif
102
RTVSPost2010PropOp54
 70
     1
102
RTVSPost2010Prop55
280
     0
102
RTVSPost2010PropOp55
 70
     1
102
RTVSPost2010Prop56
140
1.0
102
RTVSPost2010PropOp56
 70
     1
102
RTVSPost2010Prop57
140
1.0
102
RTVSPost2010PropOp57
 70
     1
  0
XRECORD
  5
1BD
102
{ACAD_REACTORS
330
1BC
102
}
330
1BC
100
AcDbXrecord
280
     1
102
RTVSPropertyOp0
 70
     1
102
RTVSPropertyOp1
 70
     1
102
RTVSPropertyOp2
 70
     1
102
RTVSPropertyOp3
 70
     1
102
RTVSPropertyOp4
 70
     1
102
RTVSPropertyOp5
 70
     1
102
RTVSPropertyOp6
 70
     1
102
RTVSPropertyOp7
 70
     1
102
RTVSPropertyOp8
 70
     1
102
RTVSPropertyOp9
 70
     1
102
RTVSPropertyOp10
 70
     1
102
RTVSPropertyOp11
 70
     1
102
RTVSPropertyOp12
 70
     1
102
RTVSPropertyOp13
 70
     1
102
RTVSPropertyOp14
 70
     1
102
RTVSPropertyOp15
 70
     1
102
RTVSPropertyOp16
 70
     1
102
RTVSPropertyOp17
 70
     1
102
RTVSPropertyOp18
 70
     1
102
RTVSPropertyOp19
 70
     1
102
RTVSPropertyOp20
 70
     1
102
RTVSPropertyOp21
 70
     1
102
RTVSPropertyOp22
 70
     1
102
RTVSPropertyOp23
 70
     1
102
RTVSPropertyOp24
 70
     1
102
RTVSPropertyOp25
 70
     1
102
RTVSPropertyOp26
 70
     1
102
RTVSPropertyOp27
 70
     1
102
RTVSPropertyOp28
 70
     1
102
RTVSPropertyOp29
 70
     1
102
RTVSPropertyOp30
 70
     1
102
RTVSPropertyOp31
 70
     1
102
RTVSPropertyOp32
 70
     1
102
RTVSPropertyOp33
 70
     1
102
RTVSPropertyOp34
 70
     1
102
RTVSPropertyOp35
 70
     1
102
RTVSPropertyOp36
 70
     1
102
RTVSPropertyOp37
 70
     1
102
RTVSPropertyOp38
 70
     1
102
RTVSPropertyOp39
 70
     1
102
RTVSPropertyOp40
 70
     1
102
RTVSPropertyOp41
 70
     1
102
RTVSPropertyOp42
 70
     1
102
RTVSPropertyOp43
 70
     1
102
RTVSPropertyOp44
 70
     1
102
RTVSPropertyOp45
 70
     1
102
RTVSPropertyOp46
 70
     1
102
RTVSPropertyOp47
 70
     1
102
RTVSPropertyOp48
 70
     1
102
RTVSPropertyOp49
 70
     1
102
RTVSPropertyOp50
 70
     1
102
RTVSPropertyOp51
 70
     0
102
RTVSPropertyOp52
 70
     0
102
RTVSPropertyOp53
 70
     1
102
RTVSPropertyOp54
 70
     1
102
RTVSPropertyOp55
 70
     1
102
RTVSPropertyOp56
 70
     1
102
RTVSPropertyOp57
 70
     1
102
RTVSPost2010Prop28
280
     0
102
RTVSPost2010PropOp28
 70
     1
102
RTVSPost2010Prop29
280
     1
102
RTVSPost2010PropOp29
 70
     1
102
RTVSPost2010Prop30
280
     1
102
RTVSPost2010PropOp30
 70
     1
102
RTVSPost2010Prop31
280
     0
102
RTVSPost2010PropOp31
 70
     1
102
RTVSPost2010Prop32
280
     0
102
RTVSPost2010PropOp32
 70
     1
102
RTVSPost2010Prop33
280
     0
102
RTVSPost2010PropOp33
 70
     1
102
RTVSPost2010Prop34
280
     0
102
RTVSPost2010PropOp34
 70
     1
102
RTVSPost2010Prop35
280
     0
102
RTVSPost2010PropOp35
 70
     1
102
RTVSPost2010Prop36
280
     0
102
RTVSPost2010PropOp36
 70
     1
102
RTVSPost2010Prop37
 90
       50
102
RTVSPost2010PropOp37
 70
     1
102
RTVSPost2010Prop38
140
0.0
102
RTVSPost2010PropOp38
 70
     1
102
RTVSPost2010Prop39
140
1.0
102
RTVSPost2010PropOp39
 70
     1
102
RTVSPost2010Prop40
 90
        0
102
RTVSPost2010PropOp40
 70
     1
102
RTVSPost2010Prop41ColorIndex
 90
       18
102
RTVSPost2010Prop41ColorRGB
 90
        0
102
RTVSPost2010PropOp41
 70
     1
102
RTVSPost2010Prop42
 90
       50
102
RTVSPost2010PropOp42
 70
     1
102
RTVSPost2010Prop43
 90
        3
102
RTVSPost2010PropOp43
 70
     1
102
RTVSPost2010Prop44ColorIndex
 90
        5
102
RTVSPost2010Prop44ColorRGB
 90
      255
102
RTVSPost2010PropOp44
 70
     1
102
RTVSPost2010Prop45
280
     0
102
RTVSPost2010PropOp45
 70
     1
102
RTVSPost2010Prop46
 90
       50
102
RTVSPost2010PropOp46
 70
     1
102
RTVSPost2010Prop47
 90
       50
102
RTVSPost2010PropOp47
 70
     1
102
RTVSPost2010Prop48
 90
       50
102
RTVSPost2010PropOp48
 70
     1
102
RTVSPost2010Prop49
280
     0
102
RTVSPost2010PropOp49
 70
     1
102
RTVSPost2010Prop50
 90
       50
102
RTVSPost2010PropOp50
 70
     1
102
RTVSPost2010Prop51ColorIndex
 90
      256
102
RTVSPost2010Prop51ColorRGB
 90
-16777216
102
RTVSPost2010PropOp51
 70
     0
102
RTVSPost2010Prop52
140
1.0
102
RTVSPost2010PropOp52
 70
     0
102
RTVSPost2010Prop53
 90
        2
102
RTVSPost2010PropOp53
 70
     1
102
RTVSPost2010Prop54
  1
strokes_ogs.tif
102
RTVSPost2010PropOp54
 70
     1
102
RTVSPost2010Prop55
280
     0
102
RTVSPost2010PropOp55
 70
     1
102
RTVSPost2010Prop56
140
1.0
102
RTVSPost2010PropOp56
 70
     1
102
RTVSPost2010Prop57
140
1.0
102
RTVSPost2010PropOp57
 70
     1
  0
XRECORD
  5
1BF
102
{ACAD_REACTORS
330
1BE
102
}
330
1BE
100
AcDbXrecord
280
     1
102
RTVSPropertyOp0
 70
     1
102
RTVSPropertyOp1
 70
     1
102
RTVSPropertyOp2
 70
     1
102
RTVSPropertyOp3
 70
     1
102
RTVSPropertyOp4
 70
     1
102
RTVSPropertyOp5
 70
     1
102
RTVSPropertyOp6
 70
     1
102
RTVSPropertyOp7
 70
     1
102
RTVSPropertyOp8
 70
     1
102
RTVSPropertyOp9
 70
     1
102
RTVSPropertyOp10
 70
     1
102
RTVSPropertyOp11
 70
     1
102
RTVSPropertyOp12
 70
     1
102
RTVSPropertyOp13
 70
     1
102
RTVSPropertyOp14
 70
     1
102
RTVSPropertyOp15
 70
     1
102
RTVSPropertyOp16
 70
     1
102
RTVSPropertyOp17
 70
     1
102
RTVSPropertyOp18
 70
     1
102
RTVSPropertyOp19
 70
     1
102
RTVSPropertyOp20
 70
     1
102
RTVSPropertyOp21
 70
     1
102
RTVSPropertyOp22
 70
     1
102
RTVSPropertyOp23
 70
     1
102
RTVSPropertyOp24
 70
     1
102
RTVSPropertyOp25
 70
     1
102
RTVSPropertyOp26
 70
     1
102
RTVSPropertyOp27
 70
     1
102
RTVSPropertyOp28
 70
     1
102
RTVSPropertyOp29
 70
     1
102
RTVSPropertyOp30
 70
     1
102
RTVSPropertyOp31
 70
     1
102
RTVSPropertyOp32
 70
     1
102
RTVSPropertyOp33
 70
     1
102
RTVSPropertyOp34
 70
     1
102
RTVSPropertyOp35
 70
     1
102
RTVSPropertyOp36
 70
     1
102
RTVSPropertyOp37
 70
     1
102
RTVSPropertyOp38
 70
     1
102
RTVSPropertyOp39
 70
     1
102
RTVSPropertyOp40
 70
     1
102
RTVSPropertyOp41
 70
     1
102
RTVSPropertyOp42
 70
     1
102
RTVSPropertyOp43
 70
     1
102
RTVSPropertyOp44
 70
     1
102
RTVSPropertyOp45
 70
     1
102
RTVSPropertyOp46
 70
     1
102
RTVSPropertyOp47
 70
     1
102
RTVSPropertyOp48
 70
     1
102
RTVSPropertyOp49
 70
     1
102
RTVSPropertyOp50
 70
     1
102
RTVSPropertyOp51
 70
     0
102
RTVSPropertyOp52
 70
     0
102
RTVSPropertyOp53
 70
     1
102
RTVSPropertyOp54
 70
     1
102
RTVSPropertyOp55
 70
     1
102
RTVSPropertyOp56
 70
     1
102
RTVSPropertyOp57
 70
     1
102
RTVSPost2010Prop28
280
     0
102
RTVSPost2010PropOp28
 70
     1
102
RTVSPost2010Prop29
280
     1
102
RTVSPost2010PropOp29
 70
     1
102
RTVSPost2010Prop30
280
     1
102
RTVSPost2010PropOp30
 70
     1
102
RTVSPost2010Prop31
280
     0
102
RTVSPost2010PropOp31
 70
     1
102
RTVSPost2010Prop32
280
     0
102
RTVSPost2010PropOp32
 70
     1
102
RTVSPost2010Prop33
280
     0
102
RTVSPost2010PropOp33
 70
     1
102
RTVSPost2010Prop34
280
     0
102
RTVSPost2010PropOp34
 70
     1
102
RTVSPost2010Prop35
280
     0
102
RTVSPost2010PropOp35
 70
     1
102
RTVSPost2010Prop36
280
     0
102
RTVSPost2010PropOp36
 70
     1
102
RTVSPost2010Prop37
 90
       50
102
RTVSPost2010PropOp37
 70
     1
102
RTVSPost2010Prop38
140
0.0
102
RTVSPost2010PropOp38
 70
     1
102
RTVSPost2010Prop39
140
1.0
102
RTVSPost2010PropOp39
 70
     1
102
RTVSPost2010Prop40
 90
        0
102
RTVSPost2010PropOp40
 70
     1
102
RTVSPost2010Prop41ColorIndex
 90
       18
102
RTVSPost2010Prop41ColorRGB
 90
        0
102
RTVSPost2010PropOp41
 70
     1
102
RTVSPost2010Prop42
 90
       50
102
RTVSPost2010PropOp42
 70
     1
102
RTVSPost2010Prop43
 90
        3
102
RTVSPost2010PropOp43
 70
     1
102
RTVSPost2010Prop44ColorIndex
 90
        5
102
RTVSPost2010Prop44ColorRGB
 90
      255
102
RTVSPost2010PropOp44
 70
     1
102
RTVSPost2010Prop45
280
     0
102
RTVSPost2010PropOp45
 70
     1
102
RTVSPost2010Prop46
 90
       50
102
RTVSPost2010PropOp46
 70
     1
102
RTVSPost2010Prop47
 90
       50
102
RTVSPost2010PropOp47
 70
     1
102
RTVSPost2010Prop48
 90
       50
102
RTVSPost2010PropOp48
 70
     1
102
RTVSPost2010Prop49
280
     0
102
RTVSPost2010PropOp49
 70
     1
102
RTVSPost2010Prop50
 90
       50
102
RTVSPost2010PropOp50
 70
     1
102
RTVSPost2010Prop51ColorIndex
 90
      256
102
RTVSPost2010Prop51ColorRGB
 90
-16777216
102
RTVSPost2010PropOp51
 70
     0
102
RTVSPost2010Prop52
140
1.0
102
RTVSPost2010PropOp52
 70
     0
102
RTVSPost2010Prop53
 90
        2
102
RTVSPost2010PropOp53
 70
     1
102
RTVSPost2010Prop54
  1
strokes_ogs.tif
102
RTVSPost2010PropOp54
 70
     1
102
RTVSPost2010Prop55
280
     0
102
RTVSPost2010PropOp55
 70
     1
102
RTVSPost2010Prop56
140
1.0
102
RTVSPost2010PropOp56
 70
     1
102
RTVSPost2010Prop57
140
1.0
102
RTVSPost2010PropOp57
 70
     1
  0
XRECORD
  5
1C5
102
{ACAD_REACTORS
330
1C4
102
}
330
1C4
100
AcDbXrecord
280
     1
102
RTVSPropertyOp0
 70
     1
102
RTVSPropertyOp1
 70
     1
102
RTVSPropertyOp2
 70
     1
102
RTVSPropertyOp3
 70
     1
102
RTVSPropertyOp4
 70
     1
102
RTVSPropertyOp5
 70
     1
102
RTVSPropertyOp6
 70
     1
102
RTVSPropertyOp7
 70
     1
102
RTVSPropertyOp8
 70
     1
102
RTVSPropertyOp9
 70
     1
102
RTVSPropertyOp10
 70
     1
102
RTVSPropertyOp11
 70
     1
102
RTVSPropertyOp12
 70
     1
102
RTVSPropertyOp13
 70
     1
102
RTVSPropertyOp14
 70
     1
102
RTVSPropertyOp15
 70
     1
102
RTVSPropertyOp16
 70
     1
102
RTVSPropertyOp17
 70
     1
102
RTVSPropertyOp18
 70
     1
102
RTVSPropertyOp19
 70
     1
102
RTVSPropertyOp20
 70
     1
102
RTVSPropertyOp21
 70
     1
102
RTVSPropertyOp22
 70
     1
102
RTVSPropertyOp23
 70
     1
102
RTVSPropertyOp24
 70
     1
102
RTVSPropertyOp25
 70
     1
102
RTVSPropertyOp26
 70
     1
102
RTVSPropertyOp27
 70
     1
102
RTVSPropertyOp28
 70
     1
102
RTVSPropertyOp29
 70
     1
102
RTVSPropertyOp30
 70
     1
102
RTVSPropertyOp31
 70
     1
102
RTVSPropertyOp32
 70
     1
102
RTVSPropertyOp33
 70
     1
102
RTVSPropertyOp34
 70
     1
102
RTVSPropertyOp35
 70
     1
102
RTVSPropertyOp36
 70
     1
102
RTVSPropertyOp37
 70
     1
102
RTVSPropertyOp38
 70
     1
102
RTVSPropertyOp39
 70
     1
102
RTVSPropertyOp40
 70
     1
102
RTVSPropertyOp41
 70
     1
102
RTVSPropertyOp42
 70
     1
102
RTVSPropertyOp43
 70
     1
102
RTVSPropertyOp44
 70
     1
102
RTVSPropertyOp45
 70
     1
102
RTVSPropertyOp46
 70
     1
102
RTVSPropertyOp47
 70
     1
102
RTVSPropertyOp48
 70
     1
102
RTVSPropertyOp49
 70
     1
102
RTVSPropertyOp50
 70
     1
102
RTVSPropertyOp51
 70
     0
102
RTVSPropertyOp52
 70
     0
102
RTVSPropertyOp53
 70
     1
102
RTVSPropertyOp54
 70
     1
102
RTVSPropertyOp55
 70
     1
102
RTVSPropertyOp56
 70
     1
102
RTVSPropertyOp57
 70
     1
102
RTVSPost2010Prop28
280
     0
102
RTVSPost2010PropOp28
 70
     1
102
RTVSPost2010Prop29
280
     1
102
RTVSPost2010PropOp29
 70
     1
102
RTVSPost2010Prop30
280
     1
102
RTVSPost2010PropOp30
 70
     1
102
RTVSPost2010Prop31
280
     0
102
RTVSPost2010PropOp31
 70
     1
102
RTVSPost2010Prop32
280
     0
102
RTVSPost2010PropOp32
 70
     1
102
RTVSPost2010Prop33
280
     0
102
RTVSPost2010PropOp33
 70
     1
102
RTVSPost2010Prop34
280
     0
102
RTVSPost2010PropOp34
 70
     1
102
RTVSPost2010Prop35
280
     0
102
RTVSPost2010PropOp35
 70
     1
102
RTVSPost2010Prop36
280
     0
102
RTVSPost2010PropOp36
 70
     1
102
RTVSPost2010Prop37
 90
       50
102
RTVSPost2010PropOp37
 70
     1
102
RTVSPost2010Prop38
140
0.0
102
RTVSPost2010PropOp38
 70
     1
102
RTVSPost2010Prop39
140
1.0
102
RTVSPost2010PropOp39
 70
     1
102
RTVSPost2010Prop40
 90
        0
102
RTVSPost2010PropOp40
 70
     1
102
RTVSPost2010Prop41ColorIndex
 90
       18
102
RTVSPost2010Prop41ColorRGB
 90
        0
102
RTVSPost2010PropOp41
 70
     1
102
RTVSPost2010Prop42
 90
       50
102
RTVSPost2010PropOp42
 70
     1
102
RTVSPost2010Prop43
 90
        3
102
RTVSPost2010PropOp43
 70
     1
102
RTVSPost2010Prop44ColorIndex
 90
        5
102
RTVSPost2010Prop44ColorRGB
 90
      255
102
RTVSPost2010PropOp44
 70
     1
102
RTVSPost2010Prop45
280
     0
102
RTVSPost2010PropOp45
 70
     1
102
RTVSPost2010Prop46
 90
       50
102
RTVSPost2010PropOp46
 70
     1
102
RTVSPost2010Prop47
 90
       50
102
RTVSPost2010PropOp47
 70
     1
102
RTVSPost2010Prop48
 90
       50
102
RTVSPost2010PropOp48
 70
     1
102
RTVSPost2010Prop49
280
     0
102
RTVSPost2010PropOp49
 70
     1
102
RTVSPost2010Prop50
 90
       50
102
RTVSPost2010PropOp50
 70
     1
102
RTVSPost2010Prop51ColorIndex
 90
      256
102
RTVSPost2010Prop51ColorRGB
 90
-16777216
102
RTVSPost2010PropOp51
 70
     0
102
RTVSPost2010Prop52
140
1.0
102
RTVSPost2010PropOp52
 70
     0
102
RTVSPost2010Prop53
 90
        2
102
RTVSPost2010PropOp53
 70
     1
102
RTVSPost2010Prop54
  1
strokes_ogs.tif
102
RTVSPost2010PropOp54
 70
     1
102
RTVSPost2010Prop55
280
     0
102
RTVSPost2010PropOp55
 70
     1
102
RTVSPost2010Prop56
140
1.0
102
RTVSPost2010PropOp56
 70
     1
102
RTVSPost2010Prop57
140
1.0
102
RTVSPost2010PropOp57
 70
     1
  0
XRECORD
  5
1D9
102
{ACAD_REACTORS
330
1D8
102
}
330
1D8
100
AcDbXrecord
280
     1
102
RTVSPropertyOp0
 70
     0
102
RTVSPropertyOp1
 70
     0
102
RTVSPropertyOp2
 70
     0
102
RTVSPropertyOp3
 70
     0
102
RTVSPropertyOp4
 70
     0
102
RTVSPropertyOp5
 70
     0
102
RTVSPropertyOp6
 70
     0
102
RTVSPropertyOp7
 70
     0
102
RTVSPropertyOp8
 70
     0
102
RTVSPropertyOp9
 70
     0
102
RTVSPropertyOp10
 70
     0
102
RTVSPropertyOp11
 70
     0
102
RTVSPropertyOp12
 70
     0
102
RTVSPropertyOp13
 70
     0
102
RTVSPropertyOp14
 70
     2
102
RTVSPropertyOp15
 70
     0
102
RTVSPropertyOp16
 70
     0
102
RTVSPropertyOp17
 70
     0
102
RTVSPropertyOp18
 70
     0
102
RTVSPropertyOp19
 70
     0
102
RTVSPropertyOp20
 70
     0
102
RTVSPropertyOp21
 70
     0
102
RTVSPropertyOp22
 70
     0
102
RTVSPropertyOp23
 70
     0
102
RTVSPropertyOp24
 70
     0
102
RTVSPropertyOp25
 70
     0
102
RTVSPropertyOp26
 70
     0
102
RTVSPropertyOp27
 70
     0
102
RTVSPropertyOp28
 70
     0
102
RTVSPropertyOp29
 70
     0
102
RTVSPropertyOp30
 70
     0
102
RTVSPropertyOp31
 70
     0
102
RTVSPropertyOp32
 70
     0
102
RTVSPropertyOp33
 70
     0
102
RTVSPropertyOp34
 70
     0
102
RTVSPropertyOp35
 70
     0
102
RTVSPropertyOp36
 70
     0
102
RTVSPropertyOp37
 70
     0
102
RTVSPropertyOp38
 70
     0
102
RTVSPropertyOp39
 70
     0
102
RTVSPropertyOp40
 70
     0
102
RTVSPropertyOp41
 70
     0
102
RTVSPropertyOp42
 70
     0
102
RTVSPropertyOp43
 70
     0
102
RTVSPropertyOp44
 70
     0
102
RTVSPropertyOp45
 70
     0
102
RTVSPropertyOp46
 70
     0
102
RTVSPropertyOp47
 70
     0
102
RTVSPropertyOp48
 70
     0
102
RTVSPropertyOp49
 70
     0
102
RTVSPropertyOp50
 70
     0
102
RTVSPropertyOp51
 70
     0
102
RTVSPropertyOp52
 70
     0
102
RTVSPropertyOp53
 70
     0
102
RTVSPropertyOp54
 70
     0
102
RTVSPropertyOp55
 70
     0
102
RTVSPropertyOp56
 70
     0
102
RTVSPropertyOp57
 70
     0
102
RTVSPost2010Prop28
280
     0
102
RTVSPost2010PropOp28
 70
     0
102
RTVSPost2010Prop29
280
     1
102
RTVSPost2010PropOp29
 70
     0
102
RTVSPost2010Prop30
280
     1
102
RTVSPost2010PropOp30
 70
     0
102
RTVSPost2010Prop31
280
     0
102
RTVSPost2010PropOp31
 70
     0
102
RTVSPost2010Prop32
280
     0
102
RTVSPost2010PropOp32
 70
     0
102
RTVSPost2010Prop33
280
     0
102
RTVSPost2010PropOp33
 70
     0
102
RTVSPost2010Prop34
280
     0
102
RTVSPost2010PropOp34
 70
     0
102
RTVSPost2010Prop35
280
     0
102
RTVSPost2010PropOp35
 70
     0
102
RTVSPost2010Prop36
280
     0
102
RTVSPost2010PropOp36
 70
     0
102
RTVSPost2010Prop37
 90
       50
102
RTVSPost2010PropOp37
 70
     0
102
RTVSPost2010Prop38
140
0.0
102
RTVSPost2010PropOp38
 70
     0
102
RTVSPost2010Prop39
140
1.0
102
RTVSPost2010PropOp39
 70
     0
102
RTVSPost2010Prop40
 90
        0
102
RTVSPost2010PropOp40
 70
     0
102
RTVSPost2010Prop41ColorIndex
 90
       18
102
RTVSPost2010Prop41ColorRGB
 90
        0
102
RTVSPost2010PropOp41
 70
     0
102
RTVSPost2010Prop42
 90
       50
102
RTVSPost2010PropOp42
 70
     0
102
RTVSPost2010Prop43
 90
        3
102
RTVSPost2010PropOp43
 70
     0
102
RTVSPost2010Prop44ColorIndex
 90
        5
102
RTVSPost2010Prop44ColorRGB
 90
      255
102
RTVSPost2010PropOp44
 70
     0
102
RTVSPost2010Prop45
280
     0
102
RTVSPost2010PropOp45
 70
     0
102
RTVSPost2010Prop46
 90
       50
102
RTVSPost2010PropOp46
 70
     0
102
RTVSPost2010Prop47
 90
       50
102
RTVSPost2010PropOp47
 70
     0
102
RTVSPost2010Prop48
 90
       50
102
RTVSPost2010PropOp48
 70
     0
102
RTVSPost2010Prop49
280
     0
102
RTVSPost2010PropOp49
 70
     0
102
RTVSPost2010Prop50
 90
       50
102
RTVSPost2010PropOp50
 70
     0
102
RTVSPost2010Prop51ColorIndex
 90
      256
102
RTVSPost2010Prop51ColorRGB
 90
-16777216
102
RTVSPost2010PropOp51
 70
     0
102
RTVSPost2010Prop52
140
1.0
102
RTVSPost2010PropOp52
 70
     0
102
RTVSPost2010Prop53
 90
        2
102
RTVSPost2010PropOp53
 70
     0
102
RTVSPost2010Prop54
  1
strokes_ogs.tif
102
RTVSPost2010PropOp54
 70
     0
102
RTVSPost2010Prop55
280
     0
102
RTVSPost2010PropOp55
 70
     0
102
RTVSPost2010Prop56
140
1.0
102
RTVSPost2010PropOp56
 70
     0
102
RTVSPost2010Prop57
140
1.0
102
RTVSPost2010PropOp57
 70
     0
  0
XRECORD
  5
1D3
102
{ACAD_REACTORS
330
1D2
102
}
330
1D2
100
AcDbXrecord
280
     1
102
RTVSPropertyOp0
 70
     1
102
RTVSPropertyOp1
 70
     1
102
RTVSPropertyOp2
 70
     1
102
RTVSPropertyOp3
 70
     1
102
RTVSPropertyOp4
 70
     1
102
RTVSPropertyOp5
 70
     1
102
RTVSPropertyOp6
 70
     1
102
RTVSPropertyOp7
 70
     1
102
RTVSPropertyOp8
 70
     1
102
RTVSPropertyOp9
 70
     1
102
RTVSPropertyOp10
 70
     1
102
RTVSPropertyOp11
 70
     1
102
RTVSPropertyOp12
 70
     1
102
RTVSPropertyOp13
 70
     1
102
RTVSPropertyOp14
 70
     1
102
RTVSPropertyOp15
 70
     1
102
RTVSPropertyOp16
 70
     1
102
RTVSPropertyOp17
 70
     1
102
RTVSPropertyOp18
 70
     1
102
RTVSPropertyOp19
 70
     1
102
RTVSPropertyOp20
 70
     1
102
RTVSPropertyOp21
 70
     1
102
RTVSPropertyOp22
 70
     1
102
RTVSPropertyOp23
 70
     1
102
RTVSPropertyOp24
 70
     1
102
RTVSPropertyOp25
 70
     1
102
RTVSPropertyOp26
 70
     1
102
RTVSPropertyOp27
 70
     1
102
RTVSPropertyOp28
 70
     1
102
RTVSPropertyOp29
 70
     1
102
RTVSPropertyOp30
 70
     1
102
RTVSPropertyOp31
 70
     1
102
RTVSPropertyOp32
 70
     1
102
RTVSPropertyOp33
 70
     1
102
RTVSPropertyOp34
 70
     1
102
RTVSPropertyOp35
 70
     1
102
RTVSPropertyOp36
 70
     1
102
RTVSPropertyOp37
 70
     1
102
RTVSPropertyOp38
 70
     1
102
RTVSPropertyOp39
 70
     1
102
RTVSPropertyOp40
 70
     1
102
RTVSPropertyOp41
 70
     1
102
RTVSPropertyOp42
 70
     1
102
RTVSPropertyOp43
 70
     1
102
RTVSPropertyOp44
 70
     1
102
RTVSPropertyOp45
 70
     1
102
RTVSPropertyOp46
 70
     1
102
RTVSPropertyOp47
 70
     1
102
RTVSPropertyOp48
 70
     1
102
RTVSPropertyOp49
 70
     1
102
RTVSPropertyOp50
 70
     1
102
RTVSPropertyOp51
 70
     0
102
RTVSPropertyOp52
 70
     0
102
RTVSPropertyOp53
 70
     1
102
RTVSPropertyOp54
 70
     1
102
RTVSPropertyOp55
 70
     1
102
RTVSPropertyOp56
 70
     1
102
RTVSPropertyOp57
 70
     1
102
RTVSPost2010Prop28
280
     0
102
RTVSPost2010PropOp28
 70
     1
102
RTVSPost2010Prop29
280
     1
102
RTVSPost2010PropOp29
 70
     1
102
RTVSPost2010Prop30
280
     1
102
RTVSPost2010PropOp30
 70
     1
102
RTVSPost2010Prop31
280
     0
102
RTVSPost2010PropOp31
 70
     1
102
RTVSPost2010Prop32
280
     0
102
RTVSPost2010PropOp32
 70
     1
102
RTVSPost2010Prop33
280
     0
102
RTVSPost2010PropOp33
 70
     1
102
RTVSPost2010Prop34
280
     0
102
RTVSPost2010PropOp34
 70
     1
102
RTVSPost2010Prop35
280
     0
102
RTVSPost2010PropOp35
 70
     1
102
RTVSPost2010Prop36
280
     0
102
RTVSPost2010PropOp36
 70
     1
102
RTVSPost2010Prop37
 90
       50
102
RTVSPost2010PropOp37
 70
     1
102
RTVSPost2010Prop38
140
0.0
102
RTVSPost2010PropOp38
 70
     1
102
RTVSPost2010Prop39
140
1.0
102
RTVSPost2010PropOp39
 70
     1
102
RTVSPost2010Prop40
 90
        0
102
RTVSPost2010PropOp40
 70
     1
102
RTVSPost2010Prop41ColorIndex
 90
       18
102
RTVSPost2010Prop41ColorRGB
 90
        0
102
RTVSPost2010PropOp41
 70
     1
102
RTVSPost2010Prop42
 90
       50
102
RTVSPost2010PropOp42
 70
     1
102
RTVSPost2010Prop43
 90
        3
102
RTVSPost2010PropOp43
 70
     1
102
RTVSPost2010Prop44ColorIndex
 90
        5
102
RTVSPost2010Prop44ColorRGB
 90
      255
102
RTVSPost2010PropOp44
 70
     1
102
RTVSPost2010Prop45
280
     0
102
RTVSPost2010PropOp45
 70
     1
102
RTVSPost2010Prop46
 90
       50
102
RTVSPost2010PropOp46
 70
     1
102
RTVSPost2010Prop47
 90
       50
102
RTVSPost2010PropOp47
 70
     1
102
RTVSPost2010Prop48
 90
       50
102
RTVSPost2010PropOp48
 70
     1
102
RTVSPost2010Prop49
280
     0
102
RTVSPost2010PropOp49
 70
     1
102
RTVSPost2010Prop50
 90
       50
102
RTVSPost2010PropOp50
 70
     1
102
RTVSPost2010Prop51ColorIndex
 90
      256
102
RTVSPost2010Prop51ColorRGB
 90
-16777216
102
RTVSPost2010PropOp51
 70
     0
102
RTVSPost2010Prop52
140
1.0
102
RTVSPost2010PropOp52
 70
     0
102
RTVSPost2010Prop53
 90
        2
102
RTVSPost2010PropOp53
 70
     1
102
RTVSPost2010Prop54
  1
strokes_ogs.tif
102
RTVSPost2010PropOp54
 70
     1
102
RTVSPost2010Prop55
280
     0
102
RTVSPost2010PropOp55
 70
     1
102
RTVSPost2010Prop56
140
1.0
102
RTVSPost2010PropOp56
 70
     1
102
RTVSPost2010Prop57
140
1.0
102
RTVSPost2010PropOp57
 70
     1
  0
XRECORD
  5
1DB
102
{ACAD_REACTORS
330
1DA
102
}
330
1DA
100
AcDbXrecord
280
     1
102
RTVSPropertyOp0
 70
     0
102
RTVSPropertyOp1
 70
     0
102
RTVSPropertyOp2
 70
     0
102
RTVSPropertyOp3
 70
     0
102
RTVSPropertyOp4
 70
     0
102
RTVSPropertyOp5
 70
     0
102
RTVSPropertyOp6
 70
     0
102
RTVSPropertyOp7
 70
     0
102
RTVSPropertyOp8
 70
     0
102
RTVSPropertyOp9
 70
     0
102
RTVSPropertyOp10
 70
     0
102
RTVSPropertyOp11
 70
     0
102
RTVSPropertyOp12
 70
     0
102
RTVSPropertyOp13
 70
     0
102
RTVSPropertyOp14
 70
     2
102
RTVSPropertyOp15
 70
     0
102
RTVSPropertyOp16
 70
     0
102
RTVSPropertyOp17
 70
     0
102
RTVSPropertyOp18
 70
     0
102
RTVSPropertyOp19
 70
     0
102
RTVSPropertyOp20
 70
     0
102
RTVSPropertyOp21
 70
     0
102
RTVSPropertyOp22
 70
     0
102
RTVSPropertyOp23
 70
     0
102
RTVSPropertyOp24
 70
     0
102
RTVSPropertyOp25
 70
     0
102
RTVSPropertyOp26
 70
     0
102
RTVSPropertyOp27
 70
     0
102
RTVSPropertyOp28
 70
     0
102
RTVSPropertyOp29
 70
     0
102
RTVSPropertyOp30
 70
     0
102
RTVSPropertyOp31
 70
     0
102
RTVSPropertyOp32
 70
     0
102
RTVSPropertyOp33
 70
     0
102
RTVSPropertyOp34
 70
     0
102
RTVSPropertyOp35
 70
     0
102
RTVSPropertyOp36
 70
     0
102
RTVSPropertyOp37
 70
     0
102
RTVSPropertyOp38
 70
     0
102
RTVSPropertyOp39
 70
     0
102
RTVSPropertyOp40
 70
     0
102
RTVSPropertyOp41
 70
     0
102
RTVSPropertyOp42
 70
     0
102
RTVSPropertyOp43
 70
     0
102
RTVSPropertyOp44
 70
     0
102
RTVSPropertyOp45
 70
     0
102
RTVSPropertyOp46
 70
     0
102
RTVSPropertyOp47
 70
     0
102
RTVSPropertyOp48
 70
     0
102
RTVSPropertyOp49
 70
     0
102
RTVSPropertyOp50
 70
     0
102
RTVSPropertyOp51
 70
     0
102
RTVSPropertyOp52
 70
     0
102
RTVSPropertyOp53
 70
     0
102
RTVSPropertyOp54
 70
     0
102
RTVSPropertyOp55
 70
     0
102
RTVSPropertyOp56
 70
     0
102
RTVSPropertyOp57
 70
     0
102
RTVSPost2010Prop28
280
     0
102
RTVSPost2010PropOp28
 70
     0
102
RTVSPost2010Prop29
280
     1
102
RTVSPost2010PropOp29
 70
     0
102
RTVSPost2010Prop30
280
     1
102
RTVSPost2010PropOp30
 70
     0
102
RTVSPost2010Prop31
280
     0
102
RTVSPost2010PropOp31
 70
     0
102
RTVSPost2010Prop32
280
     0
102
RTVSPost2010PropOp32
 70
     0
102
RTVSPost2010Prop33
280
     0
102
RTVSPost2010PropOp33
 70
     0
102
RTVSPost2010Prop34
280
     0
102
RTVSPost2010PropOp34
 70
     0
102
RTVSPost2010Prop35
280
     0
102
RTVSPost2010PropOp35
 70
     0
102
RTVSPost2010Prop36
280
     0
102
RTVSPost2010PropOp36
 70
     0
102
RTVSPost2010Prop37
 90
       50
102
RTVSPost2010PropOp37
 70
     0
102
RTVSPost2010Prop38
140
0.0
102
RTVSPost2010PropOp38
 70
     0
102
RTVSPost2010Prop39
140
1.0
102
RTVSPost2010PropOp39
 70
     0
102
RTVSPost2010Prop40
 90
        0
102
RTVSPost2010PropOp40
 70
     0
102
RTVSPost2010Prop41ColorIndex
 90
       18
102
RTVSPost2010Prop41ColorRGB
 90
        0
102
RTVSPost2010PropOp41
 70
     0
102
RTVSPost2010Prop42
 90
       50
102
RTVSPost2010PropOp42
 70
     0
102
RTVSPost2010Prop43
 90
        3
102
RTVSPost2010PropOp43
 70
     0
102
RTVSPost2010Prop44ColorIndex
 90
        5
102
RTVSPost2010Prop44ColorRGB
 90
      255
102
RTVSPost2010PropOp44
 70
     0
102
RTVSPost2010Prop45
280
     0
102
RTVSPost2010PropOp45
 70
     0
102
RTVSPost2010Prop46
 90
       50
102
RTVSPost2010PropOp46
 70
     0
102
RTVSPost2010Prop47
 90
       50
102
RTVSPost2010PropOp47
 70
     0
102
RTVSPost2010Prop48
 90
       50
102
RTVSPost2010PropOp48
 70
     0
102
RTVSPost2010Prop49
280
     0
102
RTVSPost2010PropOp49
 70
     0
102
RTVSPost2010Prop50
 90
       50
102
RTVSPost2010PropOp50
 70
     0
102
RTVSPost2010Prop51ColorIndex
 90
      256
102
RTVSPost2010Prop51ColorRGB
 90
-16777216
102
RTVSPost2010PropOp51
 70
     0
102
RTVSPost2010Prop52
140
1.0
102
RTVSPost2010PropOp52
 70
     0
102
RTVSPost2010Prop53
 90
        2
102
RTVSPost2010PropOp53
 70
     0
102
RTVSPost2010Prop54
  1
strokes_ogs.tif
102
RTVSPost2010PropOp54
 70
     0
102
RTVSPost2010Prop55
280
     0
102
RTVSPost2010PropOp55
 70
     0
102
RTVSPost2010Prop56
140
1.0
102
RTVSPost2010PropOp56
 70
     0
102
RTVSPost2010Prop57
140
1.0
102
RTVSPost2010PropOp57
 70
     0
  0
XRECORD
  5
1C9
102
{ACAD_REACTORS
330
1C8
102
}
330
1C8
100
AcDbXrecord
280
     1
102
RTVSPropertyOp0
 70
     1
102
RTVSPropertyOp1
 70
     1
102
RTVSPropertyOp2
 70
     1
102
RTVSPropertyOp3
 70
     1
102
RTVSPropertyOp4
 70
     1
102
RTVSPropertyOp5
 70
     1
102
RTVSPropertyOp6
 70
     1
102
RTVSPropertyOp7
 70
     1
102
RTVSPropertyOp8
 70
     1
102
RTVSPropertyOp9
 70
     1
102
RTVSPropertyOp10
 70
     1
102
RTVSPropertyOp11
 70
     1
102
RTVSPropertyOp12
 70
     1
102
RTVSPropertyOp13
 70
     1
102
RTVSPropertyOp14
 70
     1
102
RTVSPropertyOp15
 70
     1
102
RTVSPropertyOp16
 70
     1
102
RTVSPropertyOp17
 70
     1
102
RTVSPropertyOp18
 70
     1
102
RTVSPropertyOp19
 70
     1
102
RTVSPropertyOp20
 70
     1
102
RTVSPropertyOp21
 70
     1
102
RTVSPropertyOp22
 70
     1
102
RTVSPropertyOp23
 70
     1
102
RTVSPropertyOp24
 70
     1
102
RTVSPropertyOp25
 70
     1
102
RTVSPropertyOp26
 70
     1
102
RTVSPropertyOp27
 70
     1
102
RTVSPropertyOp28
 70
     1
102
RTVSPropertyOp29
 70
     1
102
RTVSPropertyOp30
 70
     1
102
RTVSPropertyOp31
 70
     1
102
RTVSPropertyOp32
 70
     1
102
RTVSPropertyOp33
 70
     1
102
RTVSPropertyOp34
 70
     1
102
RTVSPropertyOp35
 70
     1
102
RTVSPropertyOp36
 70
     1
102
RTVSPropertyOp37
 70
     1
102
RTVSPropertyOp38
 70
     1
102
RTVSPropertyOp39
 70
     1
102
RTVSPropertyOp40
 70
     1
102
RTVSPropertyOp41
 70
     1
102
RTVSPropertyOp42
 70
     1
102
RTVSPropertyOp43
 70
     1
102
RTVSPropertyOp44
 70
     1
102
RTVSPropertyOp45
 70
     1
102
RTVSPropertyOp46
 70
     1
102
RTVSPropertyOp47
 70
     1
102
RTVSPropertyOp48
 70
     1
102
RTVSPropertyOp49
 70
     1
102
RTVSPropertyOp50
 70
     1
102
RTVSPropertyOp51
 70
     0
102
RTVSPropertyOp52
 70
     0
102
RTVSPropertyOp53
 70
     1
102
RTVSPropertyOp54
 70
     1
102
RTVSPropertyOp55
 70
     1
102
RTVSPropertyOp56
 70
     1
102
RTVSPropertyOp57
 70
     1
102
RTVSPost2010Prop28
280
     0
102
RTVSPost2010PropOp28
 70
     1
102
RTVSPost2010Prop29
280
     1
102
RTVSPost2010PropOp29
 70
     1
102
RTVSPost2010Prop30
280
     1
102
RTVSPost2010PropOp30
 70
     1
102
RTVSPost2010Prop31
280
     0
102
RTVSPost2010PropOp31
 70
     1
102
RTVSPost2010Prop32
280
     0
102
RTVSPost2010PropOp32
 70
     1
102
RTVSPost2010Prop33
280
     0
102
RTVSPost2010PropOp33
 70
     1
102
RTVSPost2010Prop34
280
     0
102
RTVSPost2010PropOp34
 70
     1
102
RTVSPost2010Prop35
280
     0
102
RTVSPost2010PropOp35
 70
     1
102
RTVSPost2010Prop36
280
     0
102
RTVSPost2010PropOp36
 70
     1
102
RTVSPost2010Prop37
 90
       50
102
RTVSPost2010PropOp37
 70
     1
102
RTVSPost2010Prop38
140
0.0
102
RTVSPost2010PropOp38
 70
     1
102
RTVSPost2010Prop39
140
1.0
102
RTVSPost2010PropOp39
 70
     1
102
RTVSPost2010Prop40
 90
        0
102
RTVSPost2010PropOp40
 70
     1
102
RTVSPost2010Prop41ColorIndex
 90
       18
102
RTVSPost2010Prop41ColorRGB
 90
        0
102
RTVSPost2010PropOp41
 70
     1
102
RTVSPost2010Prop42
 90
       50
102
RTVSPost2010PropOp42
 70
     1
102
RTVSPost2010Prop43
 90
        3
102
RTVSPost2010PropOp43
 70
     1
102
RTVSPost2010Prop44ColorIndex
 90
        5
102
RTVSPost2010Prop44ColorRGB
 90
      255
102
RTVSPost2010PropOp44
 70
     1
102
RTVSPost2010Prop45
280
     0
102
RTVSPost2010PropOp45
 70
     1
102
RTVSPost2010Prop46
 90
       50
102
RTVSPost2010PropOp46
 70
     1
102
RTVSPost2010Prop47
 90
       50
102
RTVSPost2010PropOp47
 70
     1
102
RTVSPost2010Prop48
 90
       50
102
RTVSPost2010PropOp48
 70
     1
102
RTVSPost2010Prop49
280
     0
102
RTVSPost2010PropOp49
 70
     1
102
RTVSPost2010Prop50
 90
       50
102
RTVSPost2010PropOp50
 70
     1
102
RTVSPost2010Prop51ColorIndex
 90
      256
102
RTVSPost2010Prop51ColorRGB
 90
-16777216
102
RTVSPost2010PropOp51
 70
     0
102
RTVSPost2010Prop52
140
1.0
102
RTVSPost2010PropOp52
 70
     0
102
RTVSPost2010Prop53
 90
        2
102
RTVSPost2010PropOp53
 70
     1
102
RTVSPost2010Prop54
  1
strokes_ogs.tif
102
RTVSPost2010PropOp54
 70
     1
102
RTVSPost2010Prop55
280
     0
102
RTVSPost2010PropOp55
 70
     1
102
RTVSPost2010Prop56
140
1.0
102
RTVSPost2010PropOp56
 70
     1
102
RTVSPost2010Prop57
140
1.0
102
RTVSPost2010PropOp57
 70
     1
  0
XRECORD
  5
1E7
102
{ACAD_REACTORS
330
1E6
102
}
330
1E6
100
AcDbXrecord
280
     1
102
RTVSPropertyOp0
 70
     1
102
RTVSPropertyOp1
 70
     1
102
RTVSPropertyOp2
 70
     1
102
RTVSPropertyOp3
 70
     1
102
RTVSPropertyOp4
 70
     1
102
RTVSPropertyOp5
 70
     1
102
RTVSPropertyOp6
 70
     1
102
RTVSPropertyOp7
 70
     1
102
RTVSPropertyOp8
 70
     1
102
RTVSPropertyOp9
 70
     1
102
RTVSPropertyOp10
 70
     1
102
RTVSPropertyOp11
 70
     1
102
RTVSPropertyOp12
 70
     1
102
RTVSPropertyOp13
 70
     1
102
RTVSPropertyOp14
 70
     1
102
RTVSPropertyOp15
 70
     1
102
RTVSPropertyOp16
 70
     1
102
RTVSPropertyOp17
 70
     1
102
RTVSPropertyOp18
 70
     1
102
RTVSPropertyOp19
 70
     1
102
RTVSPropertyOp20
 70
     1
102
RTVSPropertyOp21
 70
     1
102
RTVSPropertyOp22
 70
     1
102
RTVSPropertyOp23
 70
     1
102
RTVSPropertyOp24
 70
     1
102
RTVSPropertyOp25
 70
     1
102
RTVSPropertyOp26
 70
     1
102
RTVSPropertyOp27
 70
     1
102
RTVSPropertyOp28
 70
     1
102
RTVSPropertyOp29
 70
     1
102
RTVSPropertyOp30
 70
     1
102
RTVSPropertyOp31
 70
     1
102
RTVSPropertyOp32
 70
     1
102
RTVSPropertyOp33
 70
     1
102
RTVSPropertyOp34
 70
     1
102
RTVSPropertyOp35
 70
     1
102
RTVSPropertyOp36
 70
     1
102
RTVSPropertyOp37
 70
     1
102
RTVSPropertyOp38
 70
     1
102
RTVSPropertyOp39
 70
     1
102
RTVSPropertyOp40
 70
     1
102
RTVSPropertyOp41
 70
     1
102
RTVSPropertyOp42
 70
     1
102
RTVSPropertyOp43
 70
     1
102
RTVSPropertyOp44
 70
     1
102
RTVSPropertyOp45
 70
     1
102
RTVSPropertyOp46
 70
     1
102
RTVSPropertyOp47
 70
     1
102
RTVSPropertyOp48
 70
     1
102
RTVSPropertyOp49
 70
     1
102
RTVSPropertyOp50
 70
     1
102
RTVSPropertyOp51
 70
     0
102
RTVSPropertyOp52
 70
     0
102
RTVSPropertyOp53
 70
     1
102
RTVSPropertyOp54
 70
     1
102
RTVSPropertyOp55
 70
     1
102
RTVSPropertyOp56
 70
     1
102
RTVSPropertyOp57
 70
     1
102
RTVSPost2010Prop28
280
     0
102
RTVSPost2010PropOp28
 70
     1
102
RTVSPost2010Prop29
280
     1
102
RTVSPost2010PropOp29
 70
     1
102
RTVSPost2010Prop30
280
     1
102
RTVSPost2010PropOp30
 70
     1
102
RTVSPost2010Prop31
280
     0
102
RTVSPost2010PropOp31
 70
     1
102
RTVSPost2010Prop32
280
     0
102
RTVSPost2010PropOp32
 70
     1
102
RTVSPost2010Prop33
280
     0
102
RTVSPost2010PropOp33
 70
     1
102
RTVSPost2010Prop34
280
     0
102
RTVSPost2010PropOp34
 70
     1
102
RTVSPost2010Prop35
280
     0
102
RTVSPost2010PropOp35
 70
     1
102
RTVSPost2010Prop36
280
     0
102
RTVSPost2010PropOp36
 70
     1
102
RTVSPost2010Prop37
 90
       50
102
RTVSPost2010PropOp37
 70
     1
102
RTVSPost2010Prop38
140
0.0
102
RTVSPost2010PropOp38
 70
     1
102
RTVSPost2010Prop39
140
1.0
102
RTVSPost2010PropOp39
 70
     1
102
RTVSPost2010Prop40
 90
        0
102
RTVSPost2010PropOp40
 70
     1
102
RTVSPost2010Prop41ColorIndex
 90
       18
102
RTVSPost2010Prop41ColorRGB
 90
        0
102
RTVSPost2010PropOp41
 70
     1
102
RTVSPost2010Prop42
 90
       50
102
RTVSPost2010PropOp42
 70
     1
102
RTVSPost2010Prop43
 90
        3
102
RTVSPost2010PropOp43
 70
     1
102
RTVSPost2010Prop44ColorIndex
 90
        5
102
RTVSPost2010Prop44ColorRGB
 90
      255
102
RTVSPost2010PropOp44
 70
     1
102
RTVSPost2010Prop45
280
     0
102
RTVSPost2010PropOp45
 70
     1
102
RTVSPost2010Prop46
 90
       50
102
RTVSPost2010PropOp46
 70
     1
102
RTVSPost2010Prop47
 90
       50
102
RTVSPost2010PropOp47
 70
     1
102
RTVSPost2010Prop48
 90
       50
102
RTVSPost2010PropOp48
 70
     1
102
RTVSPost2010Prop49
280
     0
102
RTVSPost2010PropOp49
 70
     1
102
RTVSPost2010Prop50
 90
       50
102
RTVSPost2010PropOp50
 70
     1
102
RTVSPost2010Prop51ColorIndex
 90
      256
102
RTVSPost2010Prop51ColorRGB
 90
-16777216
102
RTVSPost2010PropOp51
 70
     0
102
RTVSPost2010Prop52
140
1.0
102
RTVSPost2010PropOp52
 70
     0
102
RTVSPost2010Prop53
 90
        2
102
RTVSPost2010PropOp53
 70
     1
102
RTVSPost2010Prop54
  1
strokes_ogs.tif
102
RTVSPost2010PropOp54
 70
     1
102
RTVSPost2010Prop55
280
     0
102
RTVSPost2010PropOp55
 70
     1
102
RTVSPost2010Prop56
140
1.0
102
RTVSPost2010PropOp56
 70
     1
102
RTVSPost2010Prop57
140
1.0
102
RTVSPost2010PropOp57
 70
     1
  0
XRECORD
  5
1E5
102
{ACAD_REACTORS
330
1E4
102
}
330
1E4
100
AcDbXrecord
280
     1
102
RTVSPropertyOp0
 70
     1
102
RTVSPropertyOp1
 70
     1
102
RTVSPropertyOp2
 70
     1
102
RTVSPropertyOp3
 70
     1
102
RTVSPropertyOp4
 70
     1
102
RTVSPropertyOp5
 70
     1
102
RTVSPropertyOp6
 70
     1
102
RTVSPropertyOp7
 70
     1
102
RTVSPropertyOp8
 70
     1
102
RTVSPropertyOp9
 70
     1
102
RTVSPropertyOp10
 70
     1
102
RTVSPropertyOp11
 70
     1
102
RTVSPropertyOp12
 70
     1
102
RTVSPropertyOp13
 70
     1
102
RTVSPropertyOp14
 70
     1
102
RTVSPropertyOp15
 70
     1
102
RTVSPropertyOp16
 70
     1
102
RTVSPropertyOp17
 70
     1
102
RTVSPropertyOp18
 70
     1
102
RTVSPropertyOp19
 70
     1
102
RTVSPropertyOp20
 70
     1
102
RTVSPropertyOp21
 70
     1
102
RTVSPropertyOp22
 70
     1
102
RTVSPropertyOp23
 70
     1
102
RTVSPropertyOp24
 70
     1
102
RTVSPropertyOp25
 70
     1
102
RTVSPropertyOp26
 70
     1
102
RTVSPropertyOp27
 70
     1
102
RTVSPropertyOp28
 70
     1
102
RTVSPropertyOp29
 70
     1
102
RTVSPropertyOp30
 70
     1
102
RTVSPropertyOp31
 70
     1
102
RTVSPropertyOp32
 70
     1
102
RTVSPropertyOp33
 70
     1
102
RTVSPropertyOp34
 70
     1
102
RTVSPropertyOp35
 70
     1
102
RTVSPropertyOp36
 70
     1
102
RTVSPropertyOp37
 70
     1
102
RTVSPropertyOp38
 70
     1
102
RTVSPropertyOp39
 70
     1
102
RTVSPropertyOp40
 70
     1
102
RTVSPropertyOp41
 70
     1
102
RTVSPropertyOp42
 70
     1
102
RTVSPropertyOp43
 70
     1
102
RTVSPropertyOp44
 70
     1
102
RTVSPropertyOp45
 70
     1
102
RTVSPropertyOp46
 70
     1
102
RTVSPropertyOp47
 70
     1
102
RTVSPropertyOp48
 70
     1
102
RTVSPropertyOp49
 70
     1
102
RTVSPropertyOp50
 70
     1
102
RTVSPropertyOp51
 70
     0
102
RTVSPropertyOp52
 70
     0
102
RTVSPropertyOp53
 70
     1
102
RTVSPropertyOp54
 70
     1
102
RTVSPropertyOp55
 70
     1
102
RTVSPropertyOp56
 70
     1
102
RTVSPropertyOp57
 70
     1
102
RTVSPost2010Prop28
280
     0
102
RTVSPost2010PropOp28
 70
     1
102
RTVSPost2010Prop29
280
     1
102
RTVSPost2010PropOp29
 70
     1
102
RTVSPost2010Prop30
280
     1
102
RTVSPost2010PropOp30
 70
     1
102
RTVSPost2010Prop31
280
     0
102
RTVSPost2010PropOp31
 70
     1
102
RTVSPost2010Prop32
280
     0
102
RTVSPost2010PropOp32
 70
     1
102
RTVSPost2010Prop33
280
     0
102
RTVSPost2010PropOp33
 70
     1
102
RTVSPost2010Prop34
280
     0
102
RTVSPost2010PropOp34
 70
     1
102
RTVSPost2010Prop35
280
     0
102
RTVSPost2010PropOp35
 70
     1
102
RTVSPost2010Prop36
280
     0
102
RTVSPost2010PropOp36
 70
     1
102
RTVSPost2010Prop37
 90
       50
102
RTVSPost2010PropOp37
 70
     1
102
RTVSPost2010Prop38
140
0.0
102
RTVSPost2010PropOp38
 70
     1
102
RTVSPost2010Prop39
140
1.0
102
RTVSPost2010PropOp39
 70
     1
102
RTVSPost2010Prop40
 90
        0
102
RTVSPost2010PropOp40
 70
     1
102
RTVSPost2010Prop41ColorIndex
 90
       18
102
RTVSPost2010Prop41ColorRGB
 90
        0
102
RTVSPost2010PropOp41
 70
     1
102
RTVSPost2010Prop42
 90
       50
102
RTVSPost2010PropOp42
 70
     1
102
RTVSPost2010Prop43
 90
        3
102
RTVSPost2010PropOp43
 70
     1
102
RTVSPost2010Prop44ColorIndex
 90
        5
102
RTVSPost2010Prop44ColorRGB
 90
      255
102
RTVSPost2010PropOp44
 70
     1
102
RTVSPost2010Prop45
280
     0
102
RTVSPost2010PropOp45
 70
     1
102
RTVSPost2010Prop46
 90
       50
102
RTVSPost2010PropOp46
 70
     1
102
RTVSPost2010Prop47
 90
       50
102
RTVSPost2010PropOp47
 70
     1
102
RTVSPost2010Prop48
 90
       50
102
RTVSPost2010PropOp48
 70
     1
102
RTVSPost2010Prop49
280
     0
102
RTVSPost2010PropOp49
 70
     1
102
RTVSPost2010Prop50
 90
       50
102
RTVSPost2010PropOp50
 70
     1
102
RTVSPost2010Prop51ColorIndex
 90
      256
102
RTVSPost2010Prop51ColorRGB
 90
-16777216
102
RTVSPost2010PropOp51
 70
     0
102
RTVSPost2010Prop52
140
1.0
102
RTVSPost2010PropOp52
 70
     0
102
RTVSPost2010Prop53
 90
        2
102
RTVSPost2010PropOp53
 70
     1
102
RTVSPost2010Prop54
  1
strokes_ogs.tif
102
RTVSPost2010PropOp54
 70
     1
102
RTVSPost2010Prop55
280
     0
102
RTVSPost2010PropOp55
 70
     1
102
RTVSPost2010Prop56
140
1.0
102
RTVSPost2010PropOp56
 70
     1
102
RTVSPost2010Prop57
140
1.0
102
RTVSPost2010PropOp57
 70
     1
  0
XRECORD
  5
1DF
102
{ACAD_REACTORS
330
1DE
102
}
330
1DE
100
AcDbXrecord
280
     1
102
RTVSPropertyOp0
 70
     1
102
RTVSPropertyOp1
 70
     1
102
RTVSPropertyOp2
 70
     1
102
RTVSPropertyOp3
 70
     1
102
RTVSPropertyOp4
 70
     1
102
RTVSPropertyOp5
 70
     1
102
RTVSPropertyOp6
 70
     1
102
RTVSPropertyOp7
 70
     1
102
RTVSPropertyOp8
 70
     1
102
RTVSPropertyOp9
 70
     1
102
RTVSPropertyOp10
 70
     1
102
RTVSPropertyOp11
 70
     1
102
RTVSPropertyOp12
 70
     1
102
RTVSPropertyOp13
 70
     1
102
RTVSPropertyOp14
 70
     1
102
RTVSPropertyOp15
 70
     1
102
RTVSPropertyOp16
 70
     1
102
RTVSPropertyOp17
 70
     1
102
RTVSPropertyOp18
 70
     1
102
RTVSPropertyOp19
 70
     1
102
RTVSPropertyOp20
 70
     1
102
RTVSPropertyOp21
 70
     1
102
RTVSPropertyOp22
 70
     1
102
RTVSPropertyOp23
 70
     1
102
RTVSPropertyOp24
 70
     1
102
RTVSPropertyOp25
 70
     1
102
RTVSPropertyOp26
 70
     1
102
RTVSPropertyOp27
 70
     1
102
RTVSPropertyOp28
 70
     1
102
RTVSPropertyOp29
 70
     1
102
RTVSPropertyOp30
 70
     1
102
RTVSPropertyOp31
 70
     1
102
RTVSPropertyOp32
 70
     1
102
RTVSPropertyOp33
 70
     1
102
RTVSPropertyOp34
 70
     1
102
RTVSPropertyOp35
 70
     1
102
RTVSPropertyOp36
 70
     1
102
RTVSPropertyOp37
 70
     1
102
RTVSPropertyOp38
 70
     1
102
RTVSPropertyOp39
 70
     1
102
RTVSPropertyOp40
 70
     1
102
RTVSPropertyOp41
 70
     1
102
RTVSPropertyOp42
 70
     1
102
RTVSPropertyOp43
 70
     1
102
RTVSPropertyOp44
 70
     1
102
RTVSPropertyOp45
 70
     1
102
RTVSPropertyOp46
 70
     1
102
RTVSPropertyOp47
 70
     1
102
RTVSPropertyOp48
 70
     1
102
RTVSPropertyOp49
 70
     1
102
RTVSPropertyOp50
 70
     1
102
RTVSPropertyOp51
 70
     0
102
RTVSPropertyOp52
 70
     0
102
RTVSPropertyOp53
 70
     1
102
RTVSPropertyOp54
 70
     1
102
RTVSPropertyOp55
 70
     1
102
RTVSPropertyOp56
 70
     1
102
RTVSPropertyOp57
 70
     1
102
RTVSPost2010Prop28
280
     0
102
RTVSPost2010PropOp28
 70
     1
102
RTVSPost2010Prop29
280
     1
102
RTVSPost2010PropOp29
 70
     1
102
RTVSPost2010Prop30
280
     1
102
RTVSPost2010PropOp30
 70
     1
102
RTVSPost2010Prop31
280
     0
102
RTVSPost2010PropOp31
 70
     1
102
RTVSPost2010Prop32
280
     0
102
RTVSPost2010PropOp32
 70
     1
102
RTVSPost2010Prop33
280
     0
102
RTVSPost2010PropOp33
 70
     1
102
RTVSPost2010Prop34
280
     0
102
RTVSPost2010PropOp34
 70
     1
102
RTVSPost2010Prop35
280
     0
102
RTVSPost2010PropOp35
 70
     1
102
RTVSPost2010Prop36
280
     0
102
RTVSPost2010PropOp36
 70
     1
102
RTVSPost2010Prop37
 90
       50
102
RTVSPost2010PropOp37
 70
     1
102
RTVSPost2010Prop38
140
0.0
102
RTVSPost2010PropOp38
 70
     1
102
RTVSPost2010Prop39
140
1.0
102
RTVSPost2010PropOp39
 70
     1
102
RTVSPost2010Prop40
 90
        0
102
RTVSPost2010PropOp40
 70
     1
102
RTVSPost2010Prop41ColorIndex
 90
       18
102
RTVSPost2010Prop41ColorRGB
 90
        0
102
RTVSPost2010PropOp41
 70
     1
102
RTVSPost2010Prop42
 90
       50
102
RTVSPost2010PropOp42
 70
     1
102
RTVSPost2010Prop43
 90
        3
102
RTVSPost2010PropOp43
 70
     1
102
RTVSPost2010Prop44ColorIndex
 90
        5
102
RTVSPost2010Prop44ColorRGB
 90
      255
102
RTVSPost2010PropOp44
 70
     1
102
RTVSPost2010Prop45
280
     0
102
RTVSPost2010PropOp45
 70
     1
102
RTVSPost2010Prop46
 90
       50
102
RTVSPost2010PropOp46
 70
     1
102
RTVSPost2010Prop47
 90
       50
102
RTVSPost2010PropOp47
 70
     1
102
RTVSPost2010Prop48
 90
       50
102
RTVSPost2010PropOp48
 70
     1
102
RTVSPost2010Prop49
280
     0
102
RTVSPost2010PropOp49
 70
     1
102
RTVSPost2010Prop50
 90
       50
102
RTVSPost2010PropOp50
 70
     1
102
RTVSPost2010Prop51ColorIndex
 90
      256
102
RTVSPost2010Prop51ColorRGB
 90
-16777216
102
RTVSPost2010PropOp51
 70
     0
102
RTVSPost2010Prop52
140
1.0
102
RTVSPost2010PropOp52
 70
     0
102
RTVSPost2010Prop53
 90
        2
102
RTVSPost2010PropOp53
 70
     1
102
RTVSPost2010Prop54
  1
strokes_ogs.tif
102
RTVSPost2010PropOp54
 70
     1
102
RTVSPost2010Prop55
280
     0
102
RTVSPost2010PropOp55
 70
     1
102
RTVSPost2010Prop56
140
1.0
102
RTVSPost2010PropOp56
 70
     1
102
RTVSPost2010Prop57
140
1.0
102
RTVSPost2010PropOp57
 70
     1
  0
XRECORD
  5
1E1
102
{ACAD_REACTORS
330
1E0
102
}
330
1E0
100
AcDbXrecord
280
     1
102
RTVSPropertyOp0
 70
     1
102
RTVSPropertyOp1
 70
     1
102
RTVSPropertyOp2
 70
     1
102
RTVSPropertyOp3
 70
     1
102
RTVSPropertyOp4
 70
     1
102
RTVSPropertyOp5
 70
     1
102
RTVSPropertyOp6
 70
     1
102
RTVSPropertyOp7
 70
     1
102
RTVSPropertyOp8
 70
     1
102
RTVSPropertyOp9
 70
     1
102
RTVSPropertyOp10
 70
     1
102
RTVSPropertyOp11
 70
     1
102
RTVSPropertyOp12
 70
     1
102
RTVSPropertyOp13
 70
     1
102
RTVSPropertyOp14
 70
     1
102
RTVSPropertyOp15
 70
     1
102
RTVSPropertyOp16
 70
     1
102
RTVSPropertyOp17
 70
     1
102
RTVSPropertyOp18
 70
     1
102
RTVSPropertyOp19
 70
     1
102
RTVSPropertyOp20
 70
     1
102
RTVSPropertyOp21
 70
     1
102
RTVSPropertyOp22
 70
     1
102
RTVSPropertyOp23
 70
     1
102
RTVSPropertyOp24
 70
     1
102
RTVSPropertyOp25
 70
     1
102
RTVSPropertyOp26
 70
     1
102
RTVSPropertyOp27
 70
     1
102
RTVSPropertyOp28
 70
     1
102
RTVSPropertyOp29
 70
     1
102
RTVSPropertyOp30
 70
     1
102
RTVSPropertyOp31
 70
     1
102
RTVSPropertyOp32
 70
     1
102
RTVSPropertyOp33
 70
     1
102
RTVSPropertyOp34
 70
     1
102
RTVSPropertyOp35
 70
     1
102
RTVSPropertyOp36
 70
     1
102
RTVSPropertyOp37
 70
     1
102
RTVSPropertyOp38
 70
     1
102
RTVSPropertyOp39
 70
     1
102
RTVSPropertyOp40
 70
     1
102
RTVSPropertyOp41
 70
     1
102
RTVSPropertyOp42
 70
     1
102
RTVSPropertyOp43
 70
     1
102
RTVSPropertyOp44
 70
     1
102
RTVSPropertyOp45
 70
     1
102
RTVSPropertyOp46
 70
     1
102
RTVSPropertyOp47
 70
     1
102
RTVSPropertyOp48
 70
     1
102
RTVSPropertyOp49
 70
     1
102
RTVSPropertyOp50
 70
     1
102
RTVSPropertyOp51
 70
     0
102
RTVSPropertyOp52
 70
     0
102
RTVSPropertyOp53
 70
     1
102
RTVSPropertyOp54
 70
     1
102
RTVSPropertyOp55
 70
     1
102
RTVSPropertyOp56
 70
     1
102
RTVSPropertyOp57
 70
     1
102
RTVSPost2010Prop28
280
     0
102
RTVSPost2010PropOp28
 70
     1
102
RTVSPost2010Prop29
280
     1
102
RTVSPost2010PropOp29
 70
     1
102
RTVSPost2010Prop30
280
     1
102
RTVSPost2010PropOp30
 70
     1
102
RTVSPost2010Prop31
280
     0
102
RTVSPost2010PropOp31
 70
     1
102
RTVSPost2010Prop32
280
     0
102
RTVSPost2010PropOp32
 70
     1
102
RTVSPost2010Prop33
280
     0
102
RTVSPost2010PropOp33
 70
     1
102
RTVSPost2010Prop34
280
     0
102
RTVSPost2010PropOp34
 70
     1
102
RTVSPost2010Prop35
280
     0
102
RTVSPost2010PropOp35
 70
     1
102
RTVSPost2010Prop36
280
     0
102
RTVSPost2010PropOp36
 70
     1
102
RTVSPost2010Prop37
 90
       50
102
RTVSPost2010PropOp37
 70
     1
102
RTVSPost2010Prop38
140
0.0
102
RTVSPost2010PropOp38
 70
     1
102
RTVSPost2010Prop39
140
1.0
102
RTVSPost2010PropOp39
 70
     1
102
RTVSPost2010Prop40
 90
        0
102
RTVSPost2010PropOp40
 70
     1
102
RTVSPost2010Prop41ColorIndex
 90
       18
102
RTVSPost2010Prop41ColorRGB
 90
        0
102
RTVSPost2010PropOp41
 70
     1
102
RTVSPost2010Prop42
 90
       50
102
RTVSPost2010PropOp42
 70
     1
102
RTVSPost2010Prop43
 90
        3
102
RTVSPost2010PropOp43
 70
     1
102
RTVSPost2010Prop44ColorIndex
 90
        5
102
RTVSPost2010Prop44ColorRGB
 90
      255
102
RTVSPost2010PropOp44
 70
     1
102
RTVSPost2010Prop45
280
     0
102
RTVSPost2010PropOp45
 70
     1
102
RTVSPost2010Prop46
 90
       50
102
RTVSPost2010PropOp46
 70
     1
102
RTVSPost2010Prop47
 90
       50
102
RTVSPost2010PropOp47
 70
     1
102
RTVSPost2010Prop48
 90
       50
102
RTVSPost2010PropOp48
 70
     1
102
RTVSPost2010Prop49
280
     0
102
RTVSPost2010PropOp49
 70
     1
102
RTVSPost2010Prop50
 90
       50
102
RTVSPost2010PropOp50
 70
     1
102
RTVSPost2010Prop51ColorIndex
 90
      256
102
RTVSPost2010Prop51ColorRGB
 90
-16777216
102
RTVSPost2010PropOp51
 70
     0
102
RTVSPost2010Prop52
140
1.0
102
RTVSPost2010PropOp52
 70
     0
102
RTVSPost2010Prop53
 90
        2
102
RTVSPost2010PropOp53
 70
     1
102
RTVSPost2010Prop54
  1
strokes_ogs.tif
102
RTVSPost2010PropOp54
 70
     1
102
RTVSPost2010Prop55
280
     0
102
RTVSPost2010PropOp55
 70
     1
102
RTVSPost2010Prop56
140
1.0
102
RTVSPost2010PropOp56
 70
     1
102
RTVSPost2010Prop57
140
1.0
102
RTVSPost2010PropOp57
 70
     1
  0
XRECORD
  5
1D1
102
{ACAD_REACTORS
330
1D0
102
}
330
1D0
100
AcDbXrecord
280
     1
102
RTVSPropertyOp0
 70
     1
102
RTVSPropertyOp1
 70
     1
102
RTVSPropertyOp2
 70
     1
102
RTVSPropertyOp3
 70
     1
102
RTVSPropertyOp4
 70
     1
102
RTVSPropertyOp5
 70
     1
102
RTVSPropertyOp6
 70
     1
102
RTVSPropertyOp7
 70
     1
102
RTVSPropertyOp8
 70
     1
102
RTVSPropertyOp9
 70
     1
102
RTVSPropertyOp10
 70
     1
102
RTVSPropertyOp11
 70
     1
102
RTVSPropertyOp12
 70
     1
102
RTVSPropertyOp13
 70
     1
102
RTVSPropertyOp14
 70
     1
102
RTVSPropertyOp15
 70
     1
102
RTVSPropertyOp16
 70
     1
102
RTVSPropertyOp17
 70
     1
102
RTVSPropertyOp18
 70
     1
102
RTVSPropertyOp19
 70
     1
102
RTVSPropertyOp20
 70
     1
102
RTVSPropertyOp21
 70
     1
102
RTVSPropertyOp22
 70
     1
102
RTVSPropertyOp23
 70
     1
102
RTVSPropertyOp24
 70
     1
102
RTVSPropertyOp25
 70
     1
102
RTVSPropertyOp26
 70
     1
102
RTVSPropertyOp27
 70
     1
102
RTVSPropertyOp28
 70
     1
102
RTVSPropertyOp29
 70
     1
102
RTVSPropertyOp30
 70
     1
102
RTVSPropertyOp31
 70
     1
102
RTVSPropertyOp32
 70
     1
102
RTVSPropertyOp33
 70
     1
102
RTVSPropertyOp34
 70
     1
102
RTVSPropertyOp35
 70
     1
102
RTVSPropertyOp36
 70
     1
102
RTVSPropertyOp37
 70
     1
102
RTVSPropertyOp38
 70
     1
102
RTVSPropertyOp39
 70
     1
102
RTVSPropertyOp40
 70
     1
102
RTVSPropertyOp41
 70
     1
102
RTVSPropertyOp42
 70
     1
102
RTVSPropertyOp43
 70
     1
102
RTVSPropertyOp44
 70
     1
102
RTVSPropertyOp45
 70
     1
102
RTVSPropertyOp46
 70
     1
102
RTVSPropertyOp47
 70
     1
102
RTVSPropertyOp48
 70
     1
102
RTVSPropertyOp49
 70
     1
102
RTVSPropertyOp50
 70
     1
102
RTVSPropertyOp51
 70
     0
102
RTVSPropertyOp52
 70
     0
102
RTVSPropertyOp53
 70
     1
102
RTVSPropertyOp54
 70
     1
102
RTVSPropertyOp55
 70
     1
102
RTVSPropertyOp56
 70
     1
102
RTVSPropertyOp57
 70
     1
102
RTVSPost2010Prop28
280
     0
102
RTVSPost2010PropOp28
 70
     1
102
RTVSPost2010Prop29
280
     1
102
RTVSPost2010PropOp29
 70
     1
102
RTVSPost2010Prop30
280
     1
102
RTVSPost2010PropOp30
 70
     1
102
RTVSPost2010Prop31
280
     0
102
RTVSPost2010PropOp31
 70
     1
102
RTVSPost2010Prop32
280
     0
102
RTVSPost2010PropOp32
 70
     1
102
RTVSPost2010Prop33
280
     0
102
RTVSPost2010PropOp33
 70
     1
102
RTVSPost2010Prop34
280
     0
102
RTVSPost2010PropOp34
 70
     1
102
RTVSPost2010Prop35
280
     0
102
RTVSPost2010PropOp35
 70
     1
102
RTVSPost2010Prop36
280
     0
102
RTVSPost2010PropOp36
 70
     1
102
RTVSPost2010Prop37
 90
       50
102
RTVSPost2010PropOp37
 70
     1
102
RTVSPost2010Prop38
140
0.0
102
RTVSPost2010PropOp38
 70
     1
102
RTVSPost2010Prop39
140
1.0
102
RTVSPost2010PropOp39
 70
     1
102
RTVSPost2010Prop40
 90
        0
102
RTVSPost2010PropOp40
 70
     1
102
RTVSPost2010Prop41ColorIndex
 90
       18
102
RTVSPost2010Prop41ColorRGB
 90
        0
102
RTVSPost2010PropOp41
 70
     1
102
RTVSPost2010Prop42
 90
       50
102
RTVSPost2010PropOp42
 70
     1
102
RTVSPost2010Prop43
 90
        3
102
RTVSPost2010PropOp43
 70
     1
102
RTVSPost2010Prop44ColorIndex
 90
        5
102
RTVSPost2010Prop44ColorRGB
 90
      255
102
RTVSPost2010PropOp44
 70
     1
102
RTVSPost2010Prop45
280
     0
102
RTVSPost2010PropOp45
 70
     1
102
RTVSPost2010Prop46
 90
       50
102
RTVSPost2010PropOp46
 70
     1
102
RTVSPost2010Prop47
 90
       50
102
RTVSPost2010PropOp47
 70
     1
102
RTVSPost2010Prop48
 90
       50
102
RTVSPost2010PropOp48
 70
     1
102
RTVSPost2010Prop49
280
     0
102
RTVSPost2010PropOp49
 70
     1
102
RTVSPost2010Prop50
 90
       50
102
RTVSPost2010PropOp50
 70
     1
102
RTVSPost2010Prop51ColorIndex
 90
      256
102
RTVSPost2010Prop51ColorRGB
 90
-16777216
102
RTVSPost2010PropOp51
 70
     0
102
RTVSPost2010Prop52
140
1.0
102
RTVSPost2010PropOp52
 70
     0
102
RTVSPost2010Prop53
 90
        2
102
RTVSPost2010PropOp53
 70
     1
102
RTVSPost2010Prop54
  1
strokes_ogs.tif
102
RTVSPost2010PropOp54
 70
     1
102
RTVSPost2010Prop55
280
     0
102
RTVSPost2010PropOp55
 70
     1
102
RTVSPost2010Prop56
140
1.0
102
RTVSPost2010PropOp56
 70
     1
102
RTVSPost2010Prop57
140
1.0
102
RTVSPost2010PropOp57
 70
     1
  0
XRECORD
  5
1C3
102
{ACAD_REACTORS
330
1C2
102
}
330
1C2
100
AcDbXrecord
280
     1
102
RTVSPropertyOp0
 70
     1
102
RTVSPropertyOp1
 70
     1
102
RTVSPropertyOp2
 70
     1
102
RTVSPropertyOp3
 70
     1
102
RTVSPropertyOp4
 70
     1
102
RTVSPropertyOp5
 70
     1
102
RTVSPropertyOp6
 70
     1
102
RTVSPropertyOp7
 70
     1
102
RTVSPropertyOp8
 70
     1
102
RTVSPropertyOp9
 70
     1
102
RTVSPropertyOp10
 70
     1
102
RTVSPropertyOp11
 70
     1
102
RTVSPropertyOp12
 70
     1
102
RTVSPropertyOp13
 70
     1
102
RTVSPropertyOp14
 70
     1
102
RTVSPropertyOp15
 70
     1
102
RTVSPropertyOp16
 70
     1
102
RTVSPropertyOp17
 70
     1
102
RTVSPropertyOp18
 70
     1
102
RTVSPropertyOp19
 70
     1
102
RTVSPropertyOp20
 70
     1
102
RTVSPropertyOp21
 70
     1
102
RTVSPropertyOp22
 70
     1
102
RTVSPropertyOp23
 70
     1
102
RTVSPropertyOp24
 70
     1
102
RTVSPropertyOp25
 70
     1
102
RTVSPropertyOp26
 70
     1
102
RTVSPropertyOp27
 70
     1
102
RTVSPropertyOp28
 70
     1
102
RTVSPropertyOp29
 70
     1
102
RTVSPropertyOp30
 70
     1
102
RTVSPropertyOp31
 70
     1
102
RTVSPropertyOp32
 70
     1
102
RTVSPropertyOp33
 70
     1
102
RTVSPropertyOp34
 70
     1
102
RTVSPropertyOp35
 70
     1
102
RTVSPropertyOp36
 70
     1
102
RTVSPropertyOp37
 70
     1
102
RTVSPropertyOp38
 70
     1
102
RTVSPropertyOp39
 70
     1
102
RTVSPropertyOp40
 70
     1
102
RTVSPropertyOp41
 70
     1
102
RTVSPropertyOp42
 70
     1
102
RTVSPropertyOp43
 70
     1
102
RTVSPropertyOp44
 70
     1
102
RTVSPropertyOp45
 70
     1
102
RTVSPropertyOp46
 70
     1
102
RTVSPropertyOp47
 70
     1
102
RTVSPropertyOp48
 70
     1
102
RTVSPropertyOp49
 70
     1
102
RTVSPropertyOp50
 70
     1
102
RTVSPropertyOp51
 70
     0
102
RTVSPropertyOp52
 70
     0
102
RTVSPropertyOp53
 70
     1
102
RTVSPropertyOp54
 70
     1
102
RTVSPropertyOp55
 70
     1
102
RTVSPropertyOp56
 70
     1
102
RTVSPropertyOp57
 70
     1
102
RTVSPost2010Prop28
280
     0
102
RTVSPost2010PropOp28
 70
     1
102
RTVSPost2010Prop29
280
     1
102
RTVSPost2010PropOp29
 70
     1
102
RTVSPost2010Prop30
280
     1
102
RTVSPost2010PropOp30
 70
     1
102
RTVSPost2010Prop31
280
     0
102
RTVSPost2010PropOp31
 70
     1
102
RTVSPost2010Prop32
280
     0
102
RTVSPost2010PropOp32
 70
     1
102
RTVSPost2010Prop33
280
     0
102
RTVSPost2010PropOp33
 70
     1
102
RTVSPost2010Prop34
280
     0
102
RTVSPost2010PropOp34
 70
     1
102
RTVSPost2010Prop35
280
     0
102
RTVSPost2010PropOp35
 70
     1
102
RTVSPost2010Prop36
280
     0
102
RTVSPost2010PropOp36
 70
     1
102
RTVSPost2010Prop37
 90
       50
102
RTVSPost2010PropOp37
 70
     1
102
RTVSPost2010Prop38
140
0.0
102
RTVSPost2010PropOp38
 70
     1
102
RTVSPost2010Prop39
140
1.0
102
RTVSPost2010PropOp39
 70
     1
102
RTVSPost2010Prop40
 90
        0
102
RTVSPost2010PropOp40
 70
     1
102
RTVSPost2010Prop41ColorIndex
 90
       18
102
RTVSPost2010Prop41ColorRGB
 90
        0
102
RTVSPost2010PropOp41
 70
     1
102
RTVSPost2010Prop42
 90
       50
102
RTVSPost2010PropOp42
 70
     1
102
RTVSPost2010Prop43
 90
        3
102
RTVSPost2010PropOp43
 70
     1
102
RTVSPost2010Prop44ColorIndex
 90
        5
102
RTVSPost2010Prop44ColorRGB
 90
      255
102
RTVSPost2010PropOp44
 70
     1
102
RTVSPost2010Prop45
280
     0
102
RTVSPost2010PropOp45
 70
     1
102
RTVSPost2010Prop46
 90
       50
102
RTVSPost2010PropOp46
 70
     1
102
RTVSPost2010Prop47
 90
       50
102
RTVSPost2010PropOp47
 70
     1
102
RTVSPost2010Prop48
 90
       50
102
RTVSPost2010PropOp48
 70
     1
102
RTVSPost2010Prop49
280
     0
102
RTVSPost2010PropOp49
 70
     1
102
RTVSPost2010Prop50
 90
       50
102
RTVSPost2010PropOp50
 70
     1
102
RTVSPost2010Prop51ColorIndex
 90
      256
102
RTVSPost2010Prop51ColorRGB
 90
-16777216
102
RTVSPost2010PropOp51
 70
     0
102
RTVSPost2010Prop52
140
1.0
102
RTVSPost2010PropOp52
 70
     0
102
RTVSPost2010Prop53
 90
        2
102
RTVSPost2010PropOp53
 70
     1
102
RTVSPost2010Prop54
  1
strokes_ogs.tif
102
RTVSPost2010PropOp54
 70
     1
102
RTVSPost2010Prop55
280
     0
102
RTVSPost2010PropOp55
 70
     1
102
RTVSPost2010Prop56
140
1.0
102
RTVSPost2010PropOp56
 70
     1
102
RTVSPost2010Prop57
140
1.0
102
RTVSPost2010PropOp57
 70
     1
  0
XRECORD
  5
1E3
102
{ACAD_REACTORS
330
1E2
102
}
330
1E2
100
AcDbXrecord
280
     1
102
RTVSPropertyOp0
 70
     1
102
RTVSPropertyOp1
 70
     1
102
RTVSPropertyOp2
 70
     1
102
RTVSPropertyOp3
 70
     1
102
RTVSPropertyOp4
 70
     1
102
RTVSPropertyOp5
 70
     1
102
RTVSPropertyOp6
 70
     1
102
RTVSPropertyOp7
 70
     1
102
RTVSPropertyOp8
 70
     1
102
RTVSPropertyOp9
 70
     1
102
RTVSPropertyOp10
 70
     1
102
RTVSPropertyOp11
 70
     1
102
RTVSPropertyOp12
 70
     1
102
RTVSPropertyOp13
 70
     1
102
RTVSPropertyOp14
 70
     1
102
RTVSPropertyOp15
 70
     1
102
RTVSPropertyOp16
 70
     1
102
RTVSPropertyOp17
 70
     1
102
RTVSPropertyOp18
 70
     1
102
RTVSPropertyOp19
 70
     1
102
RTVSPropertyOp20
 70
     1
102
RTVSPropertyOp21
 70
     1
102
RTVSPropertyOp22
 70
     1
102
RTVSPropertyOp23
 70
     1
102
RTVSPropertyOp24
 70
     1
102
RTVSPropertyOp25
 70
     1
102
RTVSPropertyOp26
 70
     1
102
RTVSPropertyOp27
 70
     1
102
RTVSPropertyOp28
 70
     1
102
RTVSPropertyOp29
 70
     1
102
RTVSPropertyOp30
 70
     1
102
RTVSPropertyOp31
 70
     1
102
RTVSPropertyOp32
 70
     1
102
RTVSPropertyOp33
 70
     1
102
RTVSPropertyOp34
 70
     1
102
RTVSPropertyOp35
 70
     1
102
RTVSPropertyOp36
 70
     1
102
RTVSPropertyOp37
 70
     1
102
RTVSPropertyOp38
 70
     1
102
RTVSPropertyOp39
 70
     1
102
RTVSPropertyOp40
 70
     1
102
RTVSPropertyOp41
 70
     1
102
RTVSPropertyOp42
 70
     1
102
RTVSPropertyOp43
 70
     1
102
RTVSPropertyOp44
 70
     1
102
RTVSPropertyOp45
 70
     1
102
RTVSPropertyOp46
 70
     1
102
RTVSPropertyOp47
 70
     1
102
RTVSPropertyOp48
 70
     1
102
RTVSPropertyOp49
 70
     1
102
RTVSPropertyOp50
 70
     1
102
RTVSPropertyOp51
 70
     0
102
RTVSPropertyOp52
 70
     0
102
RTVSPropertyOp53
 70
     1
102
RTVSPropertyOp54
 70
     1
102
RTVSPropertyOp55
 70
     1
102
RTVSPropertyOp56
 70
     1
102
RTVSPropertyOp57
 70
     1
102
RTVSPost2010Prop28
280
     0
102
RTVSPost2010PropOp28
 70
     1
102
RTVSPost2010Prop29
280
     1
102
RTVSPost2010PropOp29
 70
     1
102
RTVSPost2010Prop30
280
     1
102
RTVSPost2010PropOp30
 70
     1
102
RTVSPost2010Prop31
280
     0
102
RTVSPost2010PropOp31
 70
     1
102
RTVSPost2010Prop32
280
     0
102
RTVSPost2010PropOp32
 70
     1
102
RTVSPost2010Prop33
280
     0
102
RTVSPost2010PropOp33
 70
     1
102
RTVSPost2010Prop34
280
     0
102
RTVSPost2010PropOp34
 70
     1
102
RTVSPost2010Prop35
280
     0
102
RTVSPost2010PropOp35
 70
     1
102
RTVSPost2010Prop36
280
     0
102
RTVSPost2010PropOp36
 70
     1
102
RTVSPost2010Prop37
 90
       50
102
RTVSPost2010PropOp37
 70
     1
102
RTVSPost2010Prop38
140
0.0
102
RTVSPost2010PropOp38
 70
     1
102
RTVSPost2010Prop39
140
1.0
102
RTVSPost2010PropOp39
 70
     1
102
RTVSPost2010Prop40
 90
        0
102
RTVSPost2010PropOp40
 70
     1
102
RTVSPost2010Prop41ColorIndex
 90
       18
102
RTVSPost2010Prop41ColorRGB
 90
        0
102
RTVSPost2010PropOp41
 70
     1
102
RTVSPost2010Prop42
 90
       50
102
RTVSPost2010PropOp42
 70
     1
102
RTVSPost2010Prop43
 90
        3
102
RTVSPost2010PropOp43
 70
     1
102
RTVSPost2010Prop44ColorIndex
 90
        5
102
RTVSPost2010Prop44ColorRGB
 90
      255
102
RTVSPost2010PropOp44
 70
     1
102
RTVSPost2010Prop45
280
     0
102
RTVSPost2010PropOp45
 70
     1
102
RTVSPost2010Prop46
 90
       50
102
RTVSPost2010PropOp46
 70
     1
102
RTVSPost2010Prop47
 90
       50
102
RTVSPost2010PropOp47
 70
     1
102
RTVSPost2010Prop48
 90
       50
102
RTVSPost2010PropOp48
 70
     1
102
RTVSPost2010Prop49
280
     0
102
RTVSPost2010PropOp49
 70
     1
102
RTVSPost2010Prop50
 90
       50
102
RTVSPost2010PropOp50
 70
     1
102
RTVSPost2010Prop51ColorIndex
 90
      256
102
RTVSPost2010Prop51ColorRGB
 90
-16777216
102
RTVSPost2010PropOp51
 70
     0
102
RTVSPost2010Prop52
140
1.0
102
RTVSPost2010PropOp52
 70
     0
102
RTVSPost2010Prop53
 90
        2
102
RTVSPost2010PropOp53
 70
     1
102
RTVSPost2010Prop54
  1
strokes_ogs.tif
102
RTVSPost2010PropOp54
 70
     1
102
RTVSPost2010Prop55
280
     0
102
RTVSPost2010PropOp55
 70
     1
102
RTVSPost2010Prop56
140
1.0
102
RTVSPost2010PropOp56
 70
     1
102
RTVSPost2010Prop57
140
1.0
102
RTVSPost2010PropOp57
 70
     1
  0
ENDSEC
  0
EOF
