  0
SECTION
  2
HEADER
  9
$ACADVER
  1
AC1021
  9
$ACADMAINTVER
 70
    25
  9
$DWGCODEPAGE
  3
ANSI_1252
  9
$INSBASE
 10
0.0
 20
0.0
 30
0.0
  9
$EXTMIN
 10
0.0
 20
0.0
 30
0.0
  9
$EXTMAX
 10
210.0
 20
297.0
 30
0.0
  9
$LIMMIN
 10
0.0
 20
0.0
  9
$LIMMAX
 10
210.0
 20
297.0
  9
$ORTHOMODE
 70
     0
  9
$REGENMODE
 70
     1
  9
$FILLMODE
 70
     1
  9
$QTEXTMODE
 70
     0
  9
$MIRRTEXT
 70
     1
  9
$LTSCALE
 40
1.0
  9
$ATTMODE
 70
     1
  9
$TEXTSIZE
 40
2.2
  9
$TRACEWID
 40
1.0
  9
$TEXTSTYLE
  7
Standard
  9
$CLAYER
  8
0
  9
$CELTYPE
  6
ByLayer
  9
$CECOLOR
 62
   256
  9
$CELTSCALE
 40
1.0
  9
$DISPSILH
 70
     0
  9
$DIMSCALE
 40
1.0
  9
$DIMASZ
 40
2.5
  9
$DIMEXO
 40
0.625
  9
$DIMDLI
 40
3.75
  9
$DIMRND
 40
0.0
  9
$DIMDLE
 40
0.0
  9
$DIMEXE
 40
1.25
  9
$DIMTP
 40
0.0
  9
$DIMTM
 40
0.0
  9
$DIMTXT
 40
2.5
  9
$DIMCEN
 40
2.5
  9
$DIMTSZ
 40
0.0
  9
$DIMTOL
 70
     0
  9
$DIMLIM
 70
     0
  9
$DIMTIH
 70
     0
  9
$DIMTOH
 70
     0
  9
$DIMSE1
 70
     0
  9
$DIMSE2
 70
     0
  9
$DIMTAD
 70
     1
  9
$DIMZIN
 70
     8
  9
$DIMBLK
  1

  9
$DIMASO
 70
     1
  9
$DIMSHO
 70
     1
  9
$DIMPOST
  1

  9
$DIMAPOST
  1

  9
$DIMALT
 70
     0
  9
$DIMALTD
 70
     3
  9
$DIMALTF
 40
0.0393700787
  9
$DIMLFAC
 40
1.0
  9
$DIMTOFL
 70
     1
  9
$DIMTVP
 40
0.0
  9
$DIMTIX
 70
     0
  9
$DIMSOXD
 70
     0
  9
$DIMSAH
 70
     0
  9
$DIMBLK1
  1

  9
$DIMBLK2
  1

  9
$DIMSTYLE
  2
ISO-25
  9
$DIMCLRD
 70
     0
  9
$DIMCLRE
 70
     0
  9
$DIMCLRT
 70
     0
  9
$DIMTFAC
 40
1.0
  9
$DIMGAP
 40
0.625
  9
$DIMJUST
 70
     0
  9
$DIMSD1
 70
     0
  9
$DIMSD2
 70
     0
  9
$DIMTOLJ
 70
     0
  9
$DIMTZIN
 70
     8
  9
$DIMALTZ
 70
     0
  9
$DIMALTTZ
 70
     0
  9
$DIMUPT
 70
     0
  9
$DIMDEC
 70
     2
  9
$DIMTDEC
 70
     2
  9
$DIMALTU
 70
     2
  9
$DIMALTTD
 70
     3
  9
$DIMTXSTY
  7
Standard
  9
$DIMAUNIT
 70
     0
  9
$DIMADEC
 70
     0
  9
$DIMALTRND
 40
0.0
  9
$DIMAZIN
 70
     0
  9
$DIMDSEP
 70
    44
  9
$DIMATFIT
 70
     3
  9
$DIMFRAC
 70
     0
  9
$DIMLDRBLK
  1

  9
$DIMLUNIT
 70
     2
  9
$DIMLWD
 70
    -2
  9
$DIMLWE
 70
    -2
  9
$DIMTMOVE
 70
     0
  9
$DIMFXL
 40
1.0
  9
$DIMFXLON
 70
     0
  9
$DIMJOGANG
 40
0.7853981634
  9
$DIMTFILL
 70
     0
  9
$DIMTFILLCLR
 70
     0
  9
$DIMARCSYM
 70
     0
  9
$DIMLTYPE
  6

  9
$DIMLTEX1
  6

  9
$DIMLTEX2
  6

  9
$LUNITS
 70
     2
  9
$LUPREC
 70
     4
  9
$SKETCHINC
 40
1.0
  9
$FILLETRAD
 40
10.0
  9
$AUNITS
 70
     0
  9
$AUPREC
 70
     0
  9
$MENU
  1
.
  9
$ELEVATION
 40
0.0
  9
$PELEVATION
 40
0.0
  9
$THICKNESS
 40
0.0
  9
$LIMCHECK
 70
     0
  9
$CHAMFERA
 40
0.0
  9
$CHAMFERB
 40
0.0
  9
$CHAMFERC
 40
0.0
  9
$CHAMFERD
 40
0.0
  9
$SKPOLY
 70
     0
  9
$TDCREATE
 40
2460125.596931805
  9
$TDUCREATE
 40
2460125.513598472
  9
$TDUPDATE
 40
2460125.59693868
  9
$TDUUPDATE
 40
2460125.513605347
  9
$TDINDWG
 40
0.0000000116
  9
$TDUSRTIMER
 40
0.0000000116
  9
$USRTIMER
 70
     1
  9
$ANGBASE
 50
0.0
  9
$ANGDIR
 70
     0
  9
$PDMODE
 70
     0
  9
$PDSIZE
 40
0.0
  9
$PLINEWID
 40
0.0
  9
$SPLFRAME
 70
     0
  9
$SPLINETYPE
 70
     6
  9
$SPLINESEGS
 70
     8
  9
$HANDSEED
  5
253
  9
$SURFTAB1
 70
     6
  9
$SURFTAB2
 70
     6
  9
$SURFTYPE
 70
     6
  9
$SURFU
 70
     6
  9
$SURFV
 70
     6
  9
$UCSBASE
  2

  9
$UCSNAME
  2

  9
$UCSORG
 10
0.0
 20
0.0
 30
0.0
  9
$UCSXDIR
 10
1.0
 20
0.0
 30
0.0
  9
$UCSYDIR
 10
0.0
 20
1.0
 30
0.0
  9
$UCSORTHOREF
  2

  9
$UCSORTHOVIEW
 70
     0
  9
$UCSORGTOP
 10
0.0
 20
0.0
 30
0.0
  9
$UCSORGBOTTOM
 10
0.0
 20
0.0
 30
0.0
  9
$UCSORGLEFT
 10
0.0
 20
0.0
 30
0.0
  9
$UCSORGRIGHT
 10
0.0
 20
0.0
 30
0.0
  9
$UCSORGFRONT
 10
0.0
 20
0.0
 30
0.0
  9
$UCSORGBACK
 10
0.0
 20
0.0
 30
0.0
  9
$PUCSBASE
  2

  9
$PUCSNAME
  2

  9
$PUCSORG
 10
0.0
 20
0.0
 30
0.0
  9
$PUCSXDIR
 10
1.0
 20
0.0
 30
0.0
  9
$PUCSYDIR
 10
0.0
 20
1.0
 30
0.0
  9
$PUCSORTHOREF
  2

  9
$PUCSORTHOVIEW
 70
     0
  9
$PUCSORGTOP
 10
0.0
 20
0.0
 30
0.0
  9
$PUCSORGBOTTOM
 10
0.0
 20
0.0
 30
0.0
  9
$PUCSORGLEFT
 10
0.0
 20
0.0
 30
0.0
  9
$PUCSORGRIGHT
 10
0.0
 20
0.0
 30
0.0
  9
$PUCSORGFRONT
 10
0.0
 20
0.0
 30
0.0
  9
$PUCSORGBACK
 10
0.0
 20
0.0
 30
0.0
  9
$USERI1
 70
     0
  9
$USERI2
 70
     0
  9
$USERI3
 70
     0
  9
$USERI4
 70
     0
  9
$USERI5
 70
     0
  9
$USERR1
 40
0.0
  9
$USERR2
 40
0.0
  9
$USERR3
 40
0.0
  9
$USERR4
 40
0.0
  9
$USERR5
 40
0.0
  9
$WORLDVIEW
 70
     1
  9
$SHADEDGE
 70
     3
  9
$SHADEDIF
 70
    70
  9
$TILEMODE
 70
     1
  9
$MAXACTVP
 70
    64
  9
$PINSBASE
 10
0.0
 20
0.0
 30
0.0
  9
$PLIMCHECK
 70
     0
  9
$PEXTMIN
 10
0.0
 20
0.0
 30
0.0
  9
$PEXTMAX
 10
210.0
 20
297.0
 30
0.0
  9
$PLIMMIN
 10
0.0
 20
0.0
  9
$PLIMMAX
 10
210.0
 20
297.0
  9
$UNITMODE
 70
     0
  9
$VISRETAIN
 70
     1
  9
$PLINEGEN
 70
     0
  9
$PSLTSCALE
 70
     1
  9
$TREEDEPTH
 70
  3020
  9
$CMLSTYLE
  2
Standard
  9
$CMLJUST
 70
     0
  9
$CMLSCALE
 40
20.0
  9
$PROXYGRAPHICS
 70
     1
  9
$MEASUREMENT
 70
     1
  9
$CELWEIGHT
370
    -1
  9
$ENDCAPS
280
     0
  9
$JOINSTYLE
280
     0
  9
$LWDISPLAY
290
     0
  9
$INSUNITS
 70
     4
  9
$HYPERLINKBASE
  1

  9
$STYLESHEET
  1

  9
$XEDIT
290
     1
  9
$CEPSNTYPE
380
     0
  9
$PSTYLEMODE
290
     1
  9
$FINGERPRINTGUID
  2
{a700dbdc-3188-4752-87e3-4ee1aa167f29}
  9
$VERSIONGUID
  2
{FAEB1C32-E019-11D5-929B-00C0DF256EC4}
  9
$EXTNAMES
290
     1
  9
$PSVPSCALE
 40
0.0
  9
$OLESTARTUP
290
     0
  9
$SORTENTS
280
   127
  9
$INDEXCTL
280
     0
  9
$HIDETEXT
280
     1
  9
$XCLIPFRAME
290
     0
  9
$HALOGAP
280
     0
  9
$OBSCOLOR
 70
   257
  9
$OBSLTYPE
280
     0
  9
$INTERSECTIONDISPLAY
280
     0
  9
$INTERSECTIONCOLOR
 70
   257
  9
$DIMASSOC
280
     2
  9
$PROJECTNAME
  1

  9
$CAMERADISPLAY
290
     0
  9
$LENSLENGTH
 40
50.0
  9
$CAMERAHEIGHT
 40
0.0
  9
$STEPSPERSEC
 40
2.0
  9
$STEPSIZE
 40
6.0
  9
$3DDWFPREC
 40
2.0
  9
$PSOLWIDTH
 40
5.0
  9
$PSOLHEIGHT
 40
80.0
  9
$LOFTANG1
 40
1.5707963268
  9
$LOFTANG2
 40
1.5707963268
  9
$LOFTMAG1
 40
0.0
  9
$LOFTMAG2
 40
0.0
  9
$LOFTPARAM
 70
     7
  9
$LOFTNORMALS
280
     1
  9
$LATITUDE
 40
37.795
  9
$LONGITUDE
 40
-122.394
  9
$NORTHDIRECTION
 40
0.0
  9
$TIMEZONE
 70
 -8000
  9
$LIGHTGLYPHDISPLAY
280
     1
  9
$TILEMODELIGHTSYNCH
280
     1
  9
$CMATERIAL
347
44
  9
$SOLIDHIST
280
     0
  9
$SHOWHIST
280
     1
  9
$DWFFRAME
280
     2
  9
$DGNFRAME
280
     2
  9
$REALWORLDSCALE
290
     1
  9
$INTERFERECOLOR
 62
   256
  9
$CSHADOW
280
     0
  9
$SHADOWPLANELOCATION
 40
0.0
  0
ENDSEC
  0
SECTION
  2
CLASSES
  0
CLASS
  1
ACDBDICTIONARYWDFLT
  2
AcDbDictionaryWithDefault
  3
ObjectDBX Classes
 90
        0
 91
        3
280
     0
281
     0
  0
CLASS
  1
VISUALSTYLE
  2
AcDbVisualStyle
  3
ObjectDBX Classes
 90
     4095
 91
        3
280
     0
281
     0
  0
CLASS
  1
MATERIAL
  2
AcDbMaterial
  3
ObjectDBX Classes
 90
     1153
 91
        3
280
     0
281
     0
  0
CLASS
  1
SCALE
  2
AcDbScale
  3
ObjectDBX Classes
 90
     1153
 91
        3
280
     0
281
     0
  0
CLASS
  1
TABLESTYLE
  2
AcDbTableStyle
  3
ObjectDBX Classes
 90
     4095
 91
        3
280
     0
281
     0
  0
CLASS
  1
MLEADERSTYLE
  2
AcDbMLeaderStyle
  3
ACDB_MLEADERSTYLE_CLASS
 90
     4095
 91
        3
280
     0
281
     0
  0
CLASS
  1
SUN
  2
AcDbSun
  3
SCENEOE
 90
     1153
 91
        3
280
     0
281
     0
  0
CLASS
  1
MULTILEADER
  2
AcDbMLeader
  3
ACDB_MLEADER_CLASS
 90
     1025
 91
        3
280
     0
281
     1
  0
CLASS
  1
RASTERVARIABLES
  2
AcDbRasterVariables
  3
ISM
 90
        0
 91
        3
280
     0
281
     0
  0
CLASS
  1
IMAGEDEF
  2
AcDbRasterImageDef
  3
ISM
 90
        0
 91
        3
280
     0
281
     0
  0
CLASS
  1
IMAGE
  2
AcDbRasterImage
  3
ISM
 90
      127
 91
        4
280
     0
281
     1
  0
CLASS
  1
IMAGEDEF_REACTOR
  2
AcDbRasterImageDefReactor
  3
ISM
 90
        1
 91
        3
280
     0
281
     0
  0
CLASS
  1
DICTIONARYVAR
  2
AcDbDictionaryVar
  3
ObjectDBX Classes
 90
        0
 91
        3
280
     0
281
     0
  0
CLASS
  1
CELLSTYLEMAP
  2
AcDbCellStyleMap
  3
ObjectDBX Classes
 90
     1152
 91
        3
280
     0
281
     0
  0
ENDSEC
  0
SECTION
  2
TABLES
  0
TABLE
  2
VPORT
  5
8
330
0
100
AcDbSymbolTable
 70
     1
  0
VPORT
  5
29
330
8
100
AcDbSymbolTableRecord
100
AcDbViewportTableRecord
  2
*Active
 70
     0
 10
0.0
 20
0.0
 11
1.0
 21
1.0
 12
344.1869158879
 22
148.5
 13
0.0
 23
0.0
 14
10.0
 24
10.0
 15
10.0
 25
10.0
 16
0.0
 26
0.0
 36
1.0
 17
0.0
 27
0.0
 37
0.0
 40
297.0
 41
1.9729729729
 42
50.0
 43
0.0
 44
0.0
 50
0.0
 51
0.0
 71
     0
 72
   100
 73
     1
 74
     3
 75
     0
 76
     0
 77
     0
 78
     0
281
     0
 65
     1
110
0.0
120
0.0
130
0.0
111
1.0
121
0.0
131
0.0
112
0.0
122
1.0
132
0.0
 79
     0
146
0.0
348
2F
 60
     3
 61
     5
292
     1
282
     1
141
0.0
142
0.0
 63
   250
361
6D
  0
ENDTAB
  0
TABLE
  2
LTYPE
  5
5
330
0
100
AcDbSymbolTable
 70
     1
  0
LTYPE
  5
14
330
5
100
AcDbSymbolTableRecord
100
AcDbLinetypeTableRecord
  2
ByBlock
 70
     0
  3

 72
    65
 73
     0
 40
0.0
  0
LTYPE
  5
15
330
5
100
AcDbSymbolTableRecord
100
AcDbLinetypeTableRecord
  2
ByLayer
 70
     0
  3

 72
    65
 73
     0
 40
0.0
  0
LTYPE
  5
16
330
5
100
AcDbSymbolTableRecord
100
AcDbLinetypeTableRecord
  2
Continuous
 70
     0
  3
Solid line
 72
    65
 73
     0
 40
0.0
  0
ENDTAB
  0
TABLE
  2
LAYER
  5
2
330
0
100
AcDbSymbolTable
 70
    10
  0
LAYER
  5
10
330
2
100
AcDbSymbolTableRecord
100
AcDbLayerTableRecord
  2
0
 70
     0
 62
     7
  6
Continuous
370
    -3
390
F
347
46
  0
LAYER
  5
6E
330
2
100
AcDbSymbolTableRecord
100
AcDbLayerTableRecord
  2
Standard
 70
     0
 62
     7
  6
Continuous
370
    -3
390
F
347
46
  0
LAYER
  5
71
330
2
100
AcDbSymbolTableRecord
100
AcDbLayerTableRecord
  2
DV1_Füllung
 70
     1
 62
    -7
  6
Continuous
370
    -3
390
F
347
46
  0
LAYER
  5
77
330
2
100
AcDbSymbolTableRecord
100
AcDbLayerTableRecord
  2
10472_AUSLÖSERKN
 70
     0
 62
     7
  6
Continuous
370
    -3
390
F
347
46
  0
LAYER
  5
89
330
2
100
AcDbSymbolTableRecord
100
AcDbLayerTableRecord
  2
11113_AUSSENPROF
 70
     0
 62
     7
  6
Continuous
370
    -3
390
F
347
46
  0
LAYER
  5
B6
330
2
100
AcDbSymbolTableRecord
100
AcDbLayerTableRecord
  2
11115_INNENPROFI
 70
     0
 62
     7
  6
Continuous
370
    -3
390
F
347
46
  0
LAYER
  5
F1
330
2
100
AcDbSymbolTableRecord
100
AcDbLayerTableRecord
  2
20647_SILIKON-DI
 70
     0
 62
     7
  6
Continuous
370
    -3
390
F
347
46
  0
LAYER
  5
13C
330
2
100
AcDbSymbolTableRecord
100
AcDbLayerTableRecord
  2
DV2_Füllung
 70
     1
 62
    -7
  6
Continuous
370
    -3
390
F
347
46
  0
LAYER
  5
1EB
330
2
100
AcDbSymbolTableRecord
100
AcDbLayerTableRecord
  2
Default
 70
     0
 62
     7
  6
Continuous
370
    -3
390
F
347
46
  0
LAYER
  5
20A
330
2
100
AcDbSymbolTableRecord
100
AcDbLayerTableRecord
  2
Skizziergeometrie(DIN)
 70
     0
 62
     7
  6
Continuous
370
    -3
390
F
347
46
  0
ENDTAB
  0
TABLE
  2
STYLE
  5
3
330
0
100
AcDbSymbolTable
 70
     2
  0
STYLE
  5
11
330
3
100
AcDbSymbolTableRecord
100
AcDbTextStyleTableRecord
  2
Standard
 70
     0
 40
0.0
 41
1.0
 50
0.0
 71
     0
 42
2.2
  3
txt
  4

  0
STYLE
  5
134
330
3
100
AcDbSymbolTableRecord
100
AcDbTextStyleTableRecord
  2
SEACAD_Arial
 70
     0
 40
0.0
 41
1.0
 50
0.0
 71
     0
 42
2.5
  3

  4

1001
ACAD
1000
Arial
1071
        0
  0
ENDTAB
  0
TABLE
  2
VIEW
  5
6
330
0
100
AcDbSymbolTable
 70
     0
  0
ENDTAB
  0
TABLE
  2
UCS
  5
7
330
0
100
AcDbSymbolTable
 70
     0
  0
ENDTAB
  0
TABLE
  2
APPID
  5
9
330
0
100
AcDbSymbolTable
 70
     2
  0
APPID
  5
12
330
9
100
AcDbSymbolTableRecord
100
AcDbRegAppTableRecord
  2
ACAD
 70
     0
  0
APPID
  5
214
330
9
100
AcDbSymbolTableRecord
100
AcDbRegAppTableRecord
  2
ACAD_MLEADERVER
 70
     0
  0
ENDTAB
  0
TABLE
  2
DIMSTYLE
  5
A
330
0
100
AcDbSymbolTable
 70
     3
100
AcDbDimStyleTable
  0
DIMSTYLE
105
27
330
A
100
AcDbSymbolTableRecord
100
AcDbDimStyleTableRecord
  2
ISO-25
 70
     0
 41
2.5
 42
0.625
 43
3.75
 44
1.25
 73
     0
 74
     0
 77
     1
 78
     8
140
2.5
141
2.5
143
0.0393700787
147
0.625
171
     3
172
     1
178
     0
271
     2
272
     2
274
     3
278
    44
283
     0
284
     8
340
11
  0
DIMSTYLE
105
124
330
A
100
AcDbSymbolTableRecord
100
AcDbDimStyleTableRecord
  2
Standard
 70
     0
178
     0
340
11
  0
DIMSTYLE
105
135
102
{ACAD_REACTORS
330
136
330
137
330
138
330
139
102
}
330
A
100
AcDbSymbolTableRecord
100
AcDbDimStyleTableRecord
  2
E-Katalog
 70
     0
 41
3.75
 42
0.75
 44
1.25
 73
     0
 74
     0
 77
     1
 78
     8
140
2.5
141
1.25
143
0.0393700787
146
0.7
147
0.625
172
     1
173
     1
178
     0
271
     1
272
     3
278
    44
283
     0
284
     8
340
134
343
12E
344
12E
  0
ENDTAB
  0
TABLE
  2
BLOCK_RECORD
  5
1
330
0
100
AcDbSymbolTable
 70
     7
  0
BLOCK_RECORD
  5
1F
330
1
100
AcDbSymbolTableRecord
100
AcDbBlockTableRecord
  2
*Model_Space
340
22
 70
     0
280
     1
281
     0
  0
BLOCK_RECORD
  5
1B
330
1
100
AcDbSymbolTableRecord
100
AcDbBlockTableRecord
  2
*Paper_Space
340
1E
 70
     0
280
     1
281
     0
  0
BLOCK_RECORD
  5
6F
330
1
100
AcDbSymbolTableRecord
100
AcDbBlockTableRecord
  2
SE
340
0
102
{BLKREFS
331
70
102
}
 70
     0
280
     1
281
     0
  0
BLOCK_RECORD
  5
125
330
1
100
AcDbSymbolTableRecord
100
AcDbBlockTableRecord
  2
_Oblique
340
0
 70
     0
280
     1
281
     0
  0
BLOCK_RECORD
  5
129
330
1
100
AcDbSymbolTableRecord
100
AcDbBlockTableRecord
  2
_Dot
340
0
 70
     0
280
     1
281
     0
  0
BLOCK_RECORD
  5
12E
330
1
100
AcDbSymbolTableRecord
100
AcDbBlockTableRecord
  2
_SE_OPEN
340
0
 70
     0
280
     1
281
     0
  0
BLOCK_RECORD
  5
13A
330
1
100
AcDbSymbolTableRecord
100
AcDbBlockTableRecord
  2
SE1
340
0
102
{BLKREFS
331
13B
102
}
 70
     0
280
     1
281
     0
  0
BLOCK_RECORD
  5
1F3
330
1
100
AcDbSymbolTableRecord
100
AcDbBlockTableRecord
  2
SEANNOT_GROUP
340
0
102
{BLKREFS
331
1F4
102
}
 70
     0
280
     1
281
     0
  0
BLOCK_RECORD
  5
1F7
330
1
100
AcDbSymbolTableRecord
100
AcDbBlockTableRecord
  2
_NONE
340
0
 70
     0
280
     1
281
     0
  0
ENDTAB
  0
ENDSEC
  0
SECTION
  2
BLOCKS
  0
BLOCK
  5
20
330
1F
100
AcDbEntity
  8
0
100
AcDbBlockBegin
  2
*Model_Space
 70
     0
 10
0.0
 20
0.0
 30
0.0
  3
*Model_Space
  1

  0
ENDBLK
  5
21
330
1F
100
AcDbEntity
  8
0
100
AcDbBlockEnd
  0
BLOCK
  5
1C
330
1B
100
AcDbEntity
 67
     1
  8
0
100
AcDbBlockBegin
  2
*Paper_Space
 70
     0
 10
0.0
 20
0.0
 30
0.0
  3
*Paper_Space
  1

  0
ENDBLK
  5
1D
330
1B
100
AcDbEntity
 67
     1
  8
0
100
AcDbBlockEnd
  0
BLOCK
  5
122
330
6F
100
AcDbEntity
  8
0
100
AcDbBlockBegin
  2
SE
 70
     0
 10
0.0
 20
0.0
 30
0.0
  3
SE
  1

  0
HATCH
  5
72
330
6F
100
AcDbEntity
  8
DV1_Füllung
  6
Continuous
 62
     7
100
AcDbHatch
 10
0.0
 20
0.0
 30
0.0
210
0.0
220
0.0
230
1.0
  2
SOLID
 70
     1
 71
     0
 91
        1
 92
        1
 93
       44
 72
     1
 10
67.03085572551905
 20
167.658124205558
 11
55.83085572551903
 21
167.658124205558
 72
     2
 10
55.83085572551903
 20
167.258124205558
 40
0.3999999999999976
 50
90.0
 51
180.0
 73
     1
 72
     1
 10
55.43085572551904
 20
167.258124205558
 11
55.43085572551903
 21
156.358124205558
 72
     2
 10
55.23085572551903
 20
156.358124205558
 40
0.1999999999999988
 50
0.0000000000081422
 51
90.0
 73
     0
 72
     1
 10
55.23085572551903
 20
156.158124205558
 11
49.63085572551903
 21
156.158124205558
 72
     2
 10
49.63085572551903
 20
155.958124205558
 40
0.2000000000000005
 50
90.0
 51
180.0
 73
     1
 72
     1
 10
49.43085572551903
 20
155.958124205558
 11
49.43085572551903
 21
155.358124205558
 72
     2
 10
49.63085572551903
 20
155.358124205558
 40
0.2000000000000023
 50
180.0
 51
270.0
 73
     1
 72
     1
 10
49.63085572551903
 20
155.158124205558
 11
55.23085572551903
 21
155.158124205558
 72
     2
 10
55.23085572551903
 20
154.958124205558
 40
0.1999999999999988
 50
270.0
 51
360.0
 73
     0
 72
     1
 10
55.43085572551903
 20
154.958124205558
 11
55.43085572551904
 21
147.758124205558
 72
     2
 10
55.83085572551902
 20
147.758124205558
 40
0.3999999999999976
 50
180.0
 51
270.0
 73
     1
 72
     1
 10
55.83085572551902
 20
147.358124205558
 11
56.03085572551905
 21
147.358124205558
 72
     2
 10
56.03085572551907
 20
147.758124205558
 40
0.3999999999999976
 50
270.0
 51
360.0
 73
     1
 72
     1
 10
56.43085572551907
 20
147.758124205558
 11
56.43085572551905
 21
155.6567586593398
 72
     2
 10
56.63085572551905
 20
155.6567586593398
 40
0.1999999999999986
 50
180.0
 51
240.0000000000015
 73
     0
 72
     1
 10
56.53085572551905
 20
155.8299637400967
 11
57.85471421730834
 21
156.5942937967002
 72
     2
 10
57.73999893003813
 20
156.758124205558
 40
0.1999999999999988
 50
305.0000000000089
 51
450.0
 73
     1
 72
     1
 10
57.73999893003813
 20
156.958124205558
 11
56.63085572551904
 21
156.958124205558
 72
     2
 10
56.63085572551904
 20
157.158124205558
 40
0.1999999999999988
 50
90.0
 51
180.0
 73
     0
 72
     1
 10
56.43085572551905
 20
157.158124205558
 11
56.43085572551905
 21
166.4581242055581
 72
     2
 10
56.63085572551905
 20
166.458124205558
 40
0.1999999999999988
 50
180.0
 51
270.0
 73
     0
 72
     1
 10
56.63085572551905
 20
166.658124205558
 11
66.23085572551905
 21
166.658124205558
 72
     2
 10
66.23085572551905
 20
166.458124205558
 40
0.1999999999999988
 50
270.0
 51
360.0
 73
     0
 72
     1
 10
66.43085572551904
 20
166.458124205558
 11
66.43085572551904
 21
157.158124205558
 72
     2
 10
66.23085572551904
 20
157.158124205558
 40
0.1999999999999988
 50
0.0
 51
90.0
 73
     0
 72
     1
 10
66.23085572551904
 20
156.958124205558
 11
65.12171252099995
 21
156.958124205558
 72
     2
 10
65.12171252099996
 20
156.758124205558
 40
0.1999999999999992
 50
90.0
 51
234.9999999999895
 73
     1
 72
     1
 10
65.00699723372973
 20
156.5942937967002
 11
66.33085572551902
 21
155.8299637400967
 72
     2
 10
66.23085572551904
 20
155.6567586593398
 40
0.2000000000000023
 50
299.9999999999967
 51
360.0
 73
     0
 72
     1
 10
66.43085572551904
 20
155.6567586593398
 11
66.43085572551901
 21
147.758124205558
 72
     2
 10
66.83085572551903
 20
147.758124205558
 40
0.3999999999999976
 50
180.0
 51
270.0
 73
     1
 72
     1
 10
66.83085572551903
 20
147.358124205558
 11
67.03085572551903
 21
147.358124205558
 72
     2
 10
67.03085572551903
 20
147.758124205558
 40
0.3999999999999976
 50
270.0
 51
360.0
 73
     1
 72
     1
 10
67.43085572551904
 20
147.758124205558
 11
67.43085572551905
 21
154.958124205558
 72
     2
 10
67.63085572551904
 20
154.958124205558
 40
0.1999999999999988
 50
180.0
 51
270.0
 73
     0
 72
     1
 10
67.63085572551904
 20
155.158124205558
 11
73.23085572551905
 21
155.158124205558
 72
     2
 10
73.23085572551904
 20
155.358124205558
 40
0.1999999999999988
 50
270.0
 51
360.0
 73
     1
 72
     1
 10
73.43085572551902
 20
155.358124205558
 11
73.43085572551904
 21
155.958124205558
 72
     2
 10
73.23085572551904
 20
155.958124205558
 40
0.1999999999999988
 50
0.0
 51
90.0
 73
     1
 72
     1
 10
73.23085572551904
 20
156.158124205558
 11
67.63085572551904
 21
156.158124205558
 72
     2
 10
67.63085572551905
 20
156.358124205558
 40
0.2000000000000023
 50
90.0
 51
180.0
 73
     0
 72
     1
 10
67.43085572551905
 20
156.358124205558
 11
67.43085572551907
 21
167.258124205558
 72
     2
 10
67.03085572551905
 20
167.258124205558
 40
0.400000000000001
 50
0.0
 51
90.0
 73
     1
 97
        0
 75
     0
 76
     1
 98
        0
  0
HATCH
  5
73
330
6F
100
AcDbEntity
  8
DV1_Füllung
  6
Continuous
 62
     7
100
AcDbHatch
 10
0.0
 20
0.0
 30
0.0
210
0.0
220
0.0
230
1.0
  2
SOLID
 70
     1
 71
     0
 91
        1
 92
        1
 93
       68
 72
     2
 10
62.55494587575013
 20
151.1014029016043
 40
0.5000000000000004
 50
90.0
 51
180.0
 73
     0
 72
     1
 10
62.05494587575013
 20
151.1014029016043
 11
62.05494587575013
 21
152.9014142123958
 72
     2
 10
62.55494587575013
 20
152.9014142123958
 40
0.5000000000000004
 50
180.0
 51
270.0
 73
     0
 72
     1
 10
62.55494587575013
 20
153.4014142123958
 11
63.55412284220433
 21
153.4014142123958
 72
     1
 10
63.55412284220432
 20
153.4014142123958
 11
63.55578040362181
 21
153.4014142123958
 72
     1
 10
63.55578040362181
 20
153.4014142123958
 11
64.15962068387353
 21
153.4014142123958
 72
     2
 10
64.15962068387353
 20
153.2014142123958
 40
0.1999999999999988
 50
270.0
 51
310.4549754993726
 73
     0
 72
     1
 10
64.2893907441248
 20
153.3535974291524
 11
64.62863111109938
 21
153.0643195192737
 72
     2
 10
64.72027530864311
 20
153.2420871795963
 40
0.199999999999999
 50
242.7276294579114
 51
297.8758291659008
 73
     1
 72
     1
 10
64.81378669798335
 20
153.0652945890738
 11
65.82764692829248
 21
154.2735661609373
 72
     2
 10
65.9808558169165
 20
154.1450086390003
 40
0.1999999999999988
 50
219.9999999999022
 51
299.6122067901155
 73
     0
 72
     1
 10
66.07968123694023
 20
154.3188865742224
 11
66.1729788735392
 21
154.41218421082
 72
     2
 10
66.03155751730297
 20
154.5536055670584
 40
0.1999999999999978
 50
314.9999999995682
 51
359.9942488120887
 73
     1
 72
     1
 10
66.23155751629541
 20
154.5535854916254
 11
66.23166975334067
 21
155.6717386578685
 72
     2
 10
66.03166975434823
 20
155.6717587333014
 40
0.1999999999999977
 50
359.9942488120887
 51
420.0000000000068
 73
     1
 72
     1
 10
66.13166975434821
 20
155.8449638140583
 11
64.76964480327705
 21
156.6313292862023
 72
     2
 10
64.66964480327704
 20
156.4581242054454
 40
0.2000000000000034
 50
59.99999999999571
 51
90.0
 73
     1
 72
     1
 10
64.66964480327704
 20
156.6581242054454
 11
64.03085572551905
 21
156.6581242054454
 72
     2
 10
64.03085572551905
 20
156.4581242054454
 40
0.1999999999999988
 50
90.0
 51
180.0
 73
     1
 72
     1
 10
63.83085572551905
 20
156.4581242054454
 11
63.83085572551904
 21
155.958124205558
 72
     2
 10
64.03085572551905
 20
155.958124205558
 40
0.1999999999999988
 50
180.0
 51
270.0
 73
     1
 72
     1
 10
64.03085572551905
 20
155.758124205558
 11
64.63085572552791
 21
155.758124205558
 72
     2
 10
64.63085572552791
 20
155.5581242055669
 40
0.1999999999911448
 50
270.0
 51
360.0
 73
     0
 72
     1
 10
64.83085572551906
 20
155.5581242055669
 11
64.83085572551904
 21
154.658124205558
 72
     2
 10
64.63085572551904
 20
154.658124205558
 40
0.1999999999999988
 50
0.0
 51
90.0
 73
     0
 72
     1
 10
64.63085572551904
 20
154.458124205558
 11
58.23085572551904
 21
154.458124205558
 72
     2
 10
58.23085572551904
 20
154.658124205558
 40
0.1999999999999988
 50
90.0
 51
180.0
 73
     0
 72
     1
 10
58.03085572551904
 20
154.658124205558
 11
58.03085572551904
 21
155.5581242055734
 72
     2
 10
58.23085572551018
 20
155.5581242055734
 40
0.1999999999911448
 50
180.0
 51
270.0
 73
     0
 72
     1
 10
58.23085572551018
 20
155.7581242055645
 11
58.8308557255024
 21
155.7581242055645
 72
     2
 10
58.8308557255089
 20
155.958124205558
 40
0.199999999993497
 50
269.9999999981355
 51
360.0
 73
     1
 72
     1
 10
59.0308557255024
 20
155.958124205558
 11
59.0308557255024
 21
156.4581242054454
 72
     2
 10
58.83085572549589
 20
156.4581242054454
 40
0.200000000006504
 50
0.0
 51
89.99999999895984
 73
     1
 72
     1
 10
58.83085572549953
 20
156.6581242054519
 11
58.19206664775639
 21
156.6581242054427
 72
     2
 10
58.19206664775926
 20
156.4581242054427
 40
0.2000000000000023
 50
90.00000000082237
 51
120.0000000007153
 73
     1
 72
     1
 10
58.09206664775709
 20
156.6313292861983
 11
56.73003590275275
 21
155.8449604689029
 72
     2
 10
56.8300359027549
 20
155.6717553881473
 40
0.199999999999999
 50
120.0000000007176
 51
180.0
 73
     1
 72
     1
 10
56.6300359027549
 20
155.6717553881473
 11
56.6300359027549
 21
154.5537235980401
 72
     2
 10
56.8300359027549
 20
154.5537235980401
 40
0.1999999999999988
 50
180.0
 51
224.9999999999986
 73
     1
 72
     1
 10
56.68861454651758
 20
154.4123022418028
 11
56.78203021409746
 21
154.3188865742229
 72
     2
 10
56.88085563412159
 20
154.145008639001
 40
0.1999999999999992
 50
240.3877932097572
 51
320.0000000001181
 73
     0
 72
     1
 10
57.03406452274564
 20
154.2735661609379
 11
58.04792475307646
 21
153.0652945890479
 72
     2
 10
58.14143614238606
 20
153.2420871795866
 40
0.2000000000000002
 50
242.1241708440336
 51
297.2723705456208
 73
     1
 72
     1
 10
58.23308033994076
 20
153.0643195192697
 11
58.57232070691326
 21
153.3535974291524
 72
     2
 10
58.70209076716605
 20
153.2014142123971
 40
0.1999999999999994
 50
229.5450245000529
 51
270.0
 73
     0
 72
     1
 10
58.70209076716605
 20
153.4014142123971
 11
59.30593104957841
 21
153.4014142123971
 72
     1
 10
59.30593104957841
 20
153.4014142123971
 11
59.30758860667165
 21
153.4014142123971
 72
     1
 10
59.30758860667165
 20
153.4014142123971
 11
60.30676557528795
 21
153.4014142123971
 72
     2
 10
60.30676557528795
 20
152.9014142123971
 40
0.5000000000000004
 50
270.0
 51
360.0
 73
     0
 72
     1
 10
60.80676557528795
 20
152.9014142123971
 11
60.80676557528795
 21
151.1014029016043
 72
     2
 10
60.30676557528795
 20
151.1014029016043
 40
0.5000000000000004
 50
0.0
 51
90.0
 73
     0
 72
     1
 10
60.30676557528795
 20
150.6014029016043
 11
58.69209076716605
 21
150.6014029016043
 72
     2
 10
58.69209076716605
 20
150.8014029016043
 40
0.1999999999999988
 50
90.0
 51
140.0000000000037
 73
     0
 72
     1
 10
58.53888187854225
 20
150.672845379667
 11
58.11087009147102
 21
151.1829299645818
 72
     2
 10
57.95766120284723
 20
151.0543724426445
 40
0.1999999999999987
 50
39.99999999999759
 51
113.9481997803289
 73
     1
 72
     2
 10
58.07943436928026
 20
150.7801986000977
 40
0.5000000000000017
 50
113.9481997803258
 51
168.5217120109323
 73
     1
 72
     1
 10
57.58943427730166
 20
150.8796968908417
 11
57.58943427730166
 21
149.735682842229
 72
     2
 10
57.77943436928027
 20
149.7981325423735
 40
0.2000000000000023
 50
198.1947879512794
 51
270.0
 73
     1
 72
     1
 10
57.77943436928027
 20
149.5981325423734
 11
61.23085572551904
 21
149.5981325423734
 72
     2
 10
61.43085572551904
 20
149.5981325423734
 40
0.1999999999999988
 50
180.0
 51
360.0
 73
     0
 72
     1
 10
61.63085572551904
 20
149.5981325423734
 11
65.08227708175782
 21
149.5981325423734
 72
     2
 10
65.08227708175782
 20
149.7981325423735
 40
0.1999999999999988
 50
270.0
 51
341.8052120487277
 73
     1
 72
     1
 10
65.27227717373641
 20
149.7356828422291
 11
65.27227717373641
 21
150.8796968908416
 72
     2
 10
64.78227708175783
 20
150.7801986000977
 40
0.499999999999997
 50
11.47828798906466
 51
66.05180021967496
 73
     1
 72
     2
 10
64.90405024819084
 20
151.0543724426445
 40
0.2000000000000001
 50
66.05180021967627
 51
140.0000000000024
 73
     1
 72
     1
 10
64.75084135956705
 20
151.1829299645818
 11
64.32282957249583
 21
150.672845379667
 72
     2
 10
64.16962068387203
 20
150.8014029016043
 40
0.2000000000000014
 50
39.99999999999761
 51
90.0
 73
     0
 72
     1
 10
64.16962068387203
 20
150.6014029016043
 11
62.55494587575013
 21
150.6014029016043
 97
        0
 75
     0
 76
     1
 98
        0
  0
HATCH
  5
74
330
6F
100
AcDbEntity
  8
DV1_Füllung
  6
Continuous
 62
     7
100
AcDbHatch
 10
0.0
 20
0.0
 30
0.0
210
0.0
220
0.0
230
1.0
  2
SOLID
 70
     1
 71
     0
 91
        2
 92
        1
 93
        1
 72
     3
 10
61.48085572551918
 20
161.3247902460755
 11
4.6
 21
0.0
 40
1.0
 50
0.0
 51
360.0
 73
     1
 97
        0
 92
        1
 93
       16
 72
     1
 10
58.52281583396937
 20
160.8247902460755
 11
59.98085572551918
 21
160.8247902460755
 72
     2
 10
59.98085572551918
 20
159.8247902460755
 40
0.9999999999999996
 50
270.0
 51
360.0
 73
     0
 72
     1
 10
60.98085572551918
 20
159.8247902460755
 11
60.98085572551918
 21
158.3667503545257
 72
     2
 10
61.48085572551918
 20
161.3247902460755
 40
2.999999999999997
 50
260.4059317731395
 51
279.5940682268605
 73
     1
 72
     1
 10
61.98085572551918
 20
158.3667503545257
 11
61.98085572551918
 21
159.8247902460755
 72
     2
 10
62.98085572551919
 20
159.8247902460755
 40
1.000000000000005
 50
180.0
 51
270.0
 73
     0
 72
     1
 10
62.98085572551919
 20
160.8247902460755
 11
64.43889561706898
 21
160.8247902460755
 72
     2
 10
61.48085572551918
 20
161.3247902460755
 40
3.000000000000001
 50
350.4059317731396
 51
369.5940682268604
 73
     1
 72
     1
 10
64.43889561706901
 20
161.8247902460755
 11
62.98085572551921
 21
161.8247902460755
 72
     2
 10
62.98085572551919
 20
162.8247902460755
 40
1.000000000000006
 50
90.0
 51
180.0
 73
     0
 72
     1
 10
61.98085572551918
 20
162.8247902460755
 11
61.98085572551919
 21
164.2828301376254
 72
     2
 10
61.48085572551918
 20
161.3247902460755
 40
3.0
 50
80.40593177313957
 51
99.59406822686044
 73
     1
 72
     1
 10
60.98085572551918
 20
164.2828301376254
 11
60.98085572551918
 21
162.8247902460756
 72
     2
 10
59.98085572551918
 20
162.8247902460755
 40
1.000000000000004
 50
0.0
 51
90.0
 73
     0
 72
     1
 10
59.98085572551918
 20
161.8247902460755
 11
58.5228158339694
 21
161.8247902460755
 72
     2
 10
61.48085572551918
 20
161.3247902460755
 40
3.0
 50
170.4059317731395
 51
189.5940682268605
 73
     1
 97
        0
 75
     0
 76
     1
 98
        0
  0
HATCH
  5
75
330
6F
100
AcDbEntity
  8
DV1_Füllung
  6
Continuous
 62
     7
100
AcDbHatch
 10
0.0
 20
0.0
 30
0.0
210
0.0
220
0.0
230
1.0
  2
SOLID
 70
     1
 71
     0
 91
        1
 92
        1
 93
       16
 72
     2
 10
59.98085572551918
 20
159.8247902460755
 40
0.9999999999999996
 50
270.0
 51
360.0
 73
     0
 72
     1
 10
60.98085572551918
 20
159.8247902460755
 11
60.98085572551918
 21
158.3667503545257
 72
     2
 10
61.48085572551918
 20
161.3247902460755
 40
2.999999999999997
 50
260.4059317731395
 51
279.5940682268605
 73
     1
 72
     1
 10
61.98085572551918
 20
158.3667503545257
 11
61.98085572551918
 21
159.8247902460755
 72
     2
 10
62.98085572551919
 20
159.8247902460755
 40
1.000000000000005
 50
180.0
 51
270.0
 73
     0
 72
     1
 10
62.98085572551919
 20
160.8247902460755
 11
64.43889561706898
 21
160.8247902460755
 72
     2
 10
61.48085572551918
 20
161.3247902460755
 40
3.000000000000001
 50
350.4059317731396
 51
369.5940682268604
 73
     1
 72
     1
 10
64.43889561706901
 20
161.8247902460755
 11
62.98085572551921
 21
161.8247902460755
 72
     2
 10
62.98085572551919
 20
162.8247902460755
 40
1.000000000000006
 50
90.0
 51
180.0
 73
     0
 72
     1
 10
61.98085572551918
 20
162.8247902460755
 11
61.98085572551919
 21
164.2828301376254
 72
     2
 10
61.48085572551918
 20
161.3247902460755
 40
3.0
 50
80.40593177313957
 51
99.59406822686044
 73
     1
 72
     1
 10
60.98085572551918
 20
164.2828301376254
 11
60.98085572551918
 21
162.8247902460756
 72
     2
 10
59.98085572551918
 20
162.8247902460755
 40
1.000000000000004
 50
0.0
 51
90.0
 73
     0
 72
     1
 10
59.98085572551918
 20
161.8247902460755
 11
58.5228158339694
 21
161.8247902460755
 72
     2
 10
61.48085572551918
 20
161.3247902460755
 40
3.0
 50
170.4059317731395
 51
189.5940682268605
 73
     1
 72
     1
 10
58.52281583396938
 20
160.8247902460755
 11
59.98085572551918
 21
160.8247902460755
 97
        0
 75
     0
 76
     1
 98
        0
  0
HATCH
  5
76
330
6F
100
AcDbEntity
  8
DV1_Füllung
  6
Continuous
 62
     7
100
AcDbHatch
 10
0.0
 20
0.0
 30
0.0
210
0.0
220
0.0
230
1.0
  2
SOLID
 70
     1
 71
     0
 91
        1
 92
        1
 93
       52
 72
     1
 10
62.44426698978221
 20
151.6406224204081
 11
62.9055449416743
 21
150.9248680397185
 72
     2
 10
63.49393941913337
 20
151.3040671152526
 40
0.6999999999930412
 50
212.8003241014179
 51
264.9997789026978
 73
     1
 72
     2
 10
63.55495162291307
 20
152.0014088023664
 40
1.400005655396388
 50
264.9997789026987
 51
332.7835579786773
 73
     1
 72
     2
 10
65.02227717363184
 20
151.2467735319257
 40
0.250000000104593
 50
207.2164420213231
 51
360.0
 73
     0
 72
     1
 10
65.27227717373643
 20
151.2467735319257
 11
65.27227717373643
 21
148.545490342558
 72
     2
 10
65.52227717373643
 20
148.545490342558
 40
0.2500000000000037
 50
180.0
 51
244.9654816810863
 73
     1
 72
     2
 10
65.31069507491867
 20
148.0924638361995
 40
0.2500000000036746
 50
295.0345183134082
 51
492.649001443846
 73
     0
 72
     2
 10
65.00581770829788
 20
147.7614807681649
 40
0.1999999999998766
 50
47.35099856167673
 51
110.8212456664212
 73
     1
 72
     1
 10
64.93472699275124
 20
147.9484195553734
 11
63.97700730588476
 21
147.5842095439089
 72
     2
 10
63.86957822080876
 20
147.7529074741859
 40
0.1999999999999982
 50
57.51047380666932
 51
125.5198841389364
 73
     0
 72
     2
 10
63.45111693690997
 20
147.1666768383652
 40
0.5202612057419722
 50
54.48011586106405
 51
140.7859386035713
 73
     1
 72
     2
 10
62.89306622244875
 20
147.6220399951821
 40
0.2000000000000015
 50
39.21406139642816
 51
129.6210706833389
 73
     0
 72
     2
 10
62.43106575220321
 20
147.0639953342209
 40
0.5244710333300955
 50
50.37892931665743
 51
135.4620560819061
 73
     1
 72
     2
 10
61.91467285659684
 20
147.5721258838848
 40
0.2000000000000015
 50
44.53794391809664
 51
132.4712256761201
 73
     0
 72
     2
 10
61.43811017239849
 20
147.0515243201546
 40
0.5057889062096297
 50
47.52877432386742
 51
134.1394909016422
 73
     1
 72
     2
 10
60.95355749212473
 20
147.5508547739063
 40
0.1900000000000028
 50
45.86050909835944
 51
137.0447905257982
 73
     0
 72
     2
 10
60.43064569891222
 20
147.0639953342453
 40
0.5244710333300915
 50
42.95520947420649
 51
129.6210712194957
 73
     1
 72
     2
 10
59.96864522344503
 20
147.6220399908835
 40
0.2000000000000008
 50
50.37892878062186
 51
140.7859372454777
 73
     0
 72
     2
 10
59.41059451977746
 20
147.1666768208389
 40
0.520261205741981
 50
39.21406275453835
 51
125.5198836949196
 73
     1
 72
     2
 10
58.99213324042184
 20
147.7529074599022
 40
0.1999999999996733
 50
54.48011630508331
 51
111.0275745718343
 73
     0
 72
     1
 10
58.92036979851382
 20
147.5662258903637
 11
57.92741078353647
 21
147.947935540462
 72
     2
 10
57.85564734162832
 20
147.7612539709232
 40
0.2
 50
68.97242542815404
 51
132.6063620732149
 73
     1
 72
     2
 10
57.55101637613956
 20
148.0924638362131
 40
0.2500000000000007
 50
47.39363792677894
 51
248.9568257789465
 73
     0
 72
     2
 10
57.38943427730166
 20
148.5124533900537
 40
0.2
 50
291.0431742210524
 51
360.0
 73
     1
 72
     1
 10
57.58943427730166
 20
148.5124533900537
 11
57.58943427730166
 21
151.2467735319257
 72
     2
 10
57.83943427740626
 20
151.2467735319257
 40
0.2500000001045971
 50
180.0
 51
332.7835579786769
 73
     0
 72
     2
 10
59.30675982812502
 20
152.0014088023664
 40
1.400005655396394
 50
207.2164420213241
 51
275.0002210973013
 73
     1
 72
     2
 10
59.36777203190472
 20
151.3040671152526
 40
0.6999999999930374
 50
275.0002210973022
 51
327.1996758985815
 73
     1
 72
     1
 10
59.95616650936379
 20
150.9248680397185
 11
60.41744446125588
 21
151.6406224204081
 72
     2
 10
59.66093727594384
 20
152.1281640889567
 40
0.9000000000000007
 50
327.1996758985821
 51
408.1023087938013
 73
     1
 72
     1
 10
60.26195958184365
 20
152.7980686999357
 11
59.69249269053262
 21
153.3089806992563
 72
     2
 10
59.4921519219013
 20
153.0856791622655
 40
0.2999999999970873
 50
48.10230879380073
 51
80.29720868118571
 73
     1
 72
     2
 10
59.30675982812502
 20
152.0014088023664
 40
1.400005655341844
 50
80.29720868089302
 51
89.96608191155158
 73
     1
 72
     1
 10
59.30758860667165
 20
153.4014142123971
 11
59.30593104957841
 21
153.4014142123971
 72
     2
 10
59.30675982812502
 20
152.0014088023664
 40
1.400005655341844
 50
90.03391808844785
 51
129.9584603724465
 73
     1
 72
     2
 10
58.21659529721234
 20
153.2357889074179
 40
0.2500000000000019
 50
40.16909429344614
 51
122.7854182639905
 73
     0
 72
     1
 10
58.08122172993076
 20
153.0256127972591
 11
57.03406452274565
 21
154.273566160938
 72
     2
 10
56.88085563412159
 20
154.145008639001
 40
0.1999999999999992
 50
39.99999999988189
 51
180.0
 73
     1
 72
     1
 10
56.6808556341216
 20
154.145008639001
 11
56.68085563412159
 21
148.0620477035542
 72
     2
 10
57.48085563412138
 20
148.0620477035542
 40
0.799999999999794
 50
180.0
 51
265.6062790803378
 73
     1
 72
     2
 10
61.43085572971871
 20
162.8887591526128
 40
16.13105909995037
 50
255.6012591460556
 51
284.3987408219501
 73
     1
 72
     2
 10
65.3808558169165
 20
148.0620477013394
 40
0.7999999999999209
 50
274.3937208963077
 51
360.0
 73
     1
 72
     1
 10
66.18085581691642
 20
148.0620477013394
 11
66.1808558169165
 21
154.1450086390003
 72
     2
 10
65.9808558169165
 20
154.1450086390003
 40
0.1999999999999988
 50
0.0
 51
140.0000000000978
 73
     1
 72
     1
 10
65.8276469282925
 20
154.2735661609373
 11
64.78048972110736
 21
153.0256127972591
 72
     2
 10
64.64511615382575
 20
153.2357889074179
 40
0.25
 50
57.21458173600674
 51
139.830905706561
 73
     0
 72
     2
 10
63.55495162291307
 20
152.0014088023664
 40
1.400005655341845
 50
50.04153962755331
 51
89.96608182306605
 73
     1
 72
     1
 10
63.55578040362181
 20
153.4014142123958
 11
63.55412284220433
 21
153.4014142123958
 72
     2
 10
63.55495162291307
 20
152.0014088023664
 40
1.400005655341845
 50
90.03391817693397
 51
99.70279131910671
 73
     1
 72
     2
 10
63.36955952913678
 20
153.0856791622655
 40
0.2999999999970863
 50
99.70279131881028
 51
131.8976912061973
 73
     1
 72
     1
 10
63.16921876050547
 20
153.3089806992563
 11
62.59975186919444
 21
152.7980686999357
 72
     2
 10
63.20077417509426
 20
152.1281640889567
 40
0.9000000000000001
 50
131.8976912061987
 51
212.8003241014179
 73
     1
 97
        0
 75
     0
 76
     1
 98
        0
  0
CIRCLE
  5
78
330
6F
100
AcDbEntity
  8
10472_AUSLÖSERKN
  6
Continuous
 62
     7
100
AcDbCircle
 10
61.4808557255
 20
161.3247902461
 30
0.0
 40
4.6
  0
ARC
  5
79
330
6F
100
AcDbEntity
  8
10472_AUSLÖSERKN
  6
Continuous
 62
     7
100
AcDbCircle
 10
61.4808557255
 20
161.3247902461
 30
0.0
 40
2.999999999999997
100
AcDbArc
 50
260.4059317731
 51
279.5940682269
  0
ARC
  5
7A
330
6F
100
AcDbEntity
  8
10472_AUSLÖSERKN
  6
Continuous
 62
     7
100
AcDbCircle
 10
61.4808557255
 20
161.3247902461
 30
0.0
 40
3.000000000000001
100
AcDbArc
 50
350.4059317731
 51
9.5940682269
  0
ARC
  5
7B
330
6F
100
AcDbEntity
  8
10472_AUSLÖSERKN
  6
Continuous
 62
     7
100
AcDbCircle
 10
61.4808557255
 20
161.3247902461
 30
0.0
 40
3.0
100
AcDbArc
 50
80.4059317731
 51
99.5940682269
  0
ARC
  5
7C
330
6F
100
AcDbEntity
  8
10472_AUSLÖSERKN
  6
Continuous
 62
     7
100
AcDbCircle
 10
61.4808557255
 20
161.3247902461
 30
0.0
 40
3.0
100
AcDbArc
 50
170.4059317731
 51
189.5940682269
  0
LINE
  5
7D
330
6F
100
AcDbEntity
  8
10472_AUSLÖSERKN
  6
Continuous
 62
     7
100
AcDbLine
 10
58.522815834
 20
161.8247902461
 30
0.0
 11
59.9808557255
 21
161.8247902461
 31
0.0
  0
LINE
  5
7E
330
6F
100
AcDbEntity
  8
10472_AUSLÖSERKN
  6
Continuous
 62
     7
100
AcDbLine
 10
61.9808557255
 20
164.2828301376
 30
0.0
 11
61.9808557255
 21
162.8247902461
 31
0.0
  0
LINE
  5
7F
330
6F
100
AcDbEntity
  8
10472_AUSLÖSERKN
  6
Continuous
 62
     7
100
AcDbLine
 10
64.4388956171
 20
160.8247902461
 30
0.0
 11
62.9808557255
 21
160.8247902461
 31
0.0
  0
LINE
  5
80
330
6F
100
AcDbEntity
  8
10472_AUSLÖSERKN
  6
Continuous
 62
     7
100
AcDbLine
 10
60.9808557255
 20
158.3667503545
 30
0.0
 11
60.9808557255
 21
159.8247902461
 31
0.0
  0
LINE
  5
81
330
6F
100
AcDbEntity
  8
10472_AUSLÖSERKN
  6
Continuous
 62
     7
100
AcDbLine
 10
59.9808557255
 20
160.8247902461
 30
0.0
 11
58.522815834
 21
160.8247902461
 31
0.0
  0
ARC
  5
82
330
6F
100
AcDbEntity
  8
10472_AUSLÖSERKN
  6
Continuous
 62
     7
100
AcDbCircle
 10
59.9808557255
 20
159.8247902461
 30
0.0
 40
0.9999999999999996
100
AcDbArc
 50
0.0
 51
90.0
  0
LINE
  5
83
330
6F
100
AcDbEntity
  8
10472_AUSLÖSERKN
  6
Continuous
 62
     7
100
AcDbLine
 10
61.9808557255
 20
159.8247902461
 30
0.0
 11
61.9808557255
 21
158.366750363
 31
0.0
  0
ARC
  5
84
330
6F
100
AcDbEntity
  8
10472_AUSLÖSERKN
  6
Continuous
 62
     7
100
AcDbCircle
 10
62.9808557255
 20
159.8247902461
 30
0.0
 40
1.000000000000005
100
AcDbArc
 50
90.0
 51
180.0
  0
LINE
  5
85
330
6F
100
AcDbEntity
  8
10472_AUSLÖSERKN
  6
Continuous
 62
     7
100
AcDbLine
 10
62.9808557255
 20
161.8247902461
 30
0.0
 11
64.4388955672
 21
161.8247902461
 31
0.0
  0
ARC
  5
86
330
6F
100
AcDbEntity
  8
10472_AUSLÖSERKN
  6
Continuous
 62
     7
100
AcDbCircle
 10
62.9808557255
 20
162.8247902461
 30
0.0
 40
1.000000000000006
100
AcDbArc
 50
180.0
 51
270.0
  0
LINE
  5
87
330
6F
100
AcDbEntity
  8
10472_AUSLÖSERKN
  6
Continuous
 62
     7
100
AcDbLine
 10
60.9808557255
 20
162.8247902461
 30
0.0
 11
60.9808557255
 21
164.2828301461
 31
0.0
  0
ARC
  5
88
330
6F
100
AcDbEntity
  8
10472_AUSLÖSERKN
  6
Continuous
 62
     7
100
AcDbCircle
 10
59.9808557255
 20
162.8247902461
 30
0.0
 40
1.000000000000004
100
AcDbArc
 50
270.0
 51
0.0
  0
ARC
  5
8A
330
6F
100
AcDbEntity
  8
11113_AUSSENPROF
  6
Continuous
 62
     7
100
AcDbCircle
 10
57.73999893
 20
156.7581242056
 30
0.0
 40
0.1999999999999988
100
AcDbArc
 50
305.0
 51
90.0
  0
LINE
  5
8B
330
6F
100
AcDbEntity
  8
11113_AUSSENPROF
  6
Continuous
 62
     7
100
AcDbLine
 10
57.8547142173
 20
156.5942937967
 30
0.0
 11
56.5308557255
 21
155.8299637401
 31
0.0
  0
ARC
  5
8C
330
6F
100
AcDbEntity
  8
11113_AUSSENPROF
  6
Continuous
 62
     7
100
AcDbCircle
 10
56.6308557255
 20
155.6567586593
 30
0.0
 40
0.1999999999999986
100
AcDbArc
 50
120.0
 51
180.0
  0
LINE
  5
8D
330
6F
100
AcDbEntity
  8
11113_AUSSENPROF
  6
Continuous
 62
     7
100
AcDbLine
 10
56.4308557255
 20
155.6567586593
 30
0.0
 11
56.4308557255
 21
147.7581242056
 31
0.0
  0
ARC
  5
8E
330
6F
100
AcDbEntity
  8
11113_AUSSENPROF
  6
Continuous
 62
     7
100
AcDbCircle
 10
56.0308557255
 20
147.7581242056
 30
0.0
 40
0.3999999999999976
100
AcDbArc
 50
270.0
 51
0.0
  0
LINE
  5
8F
330
6F
100
AcDbEntity
  8
11113_AUSSENPROF
  6
Continuous
 62
     7
100
AcDbLine
 10
56.0308557255
 20
147.3581242056
 30
0.0
 11
55.8308557255
 21
147.3581242056
 31
0.0
  0
ARC
  5
90
330
6F
100
AcDbEntity
  8
11113_AUSSENPROF
  6
Continuous
 62
     7
100
AcDbCircle
 10
55.8308557255
 20
147.7581242056
 30
0.0
 40
0.3999999999999976
100
AcDbArc
 50
180.0
 51
270.0
  0
LINE
  5
91
330
6F
100
AcDbEntity
  8
11113_AUSSENPROF
  6
Continuous
 62
     7
100
AcDbLine
 10
55.4308557255
 20
147.7581242056
 30
0.0
 11
55.4308557255
 21
154.9581242056
 31
0.0
  0
ARC
  5
92
330
6F
100
AcDbEntity
  8
11113_AUSSENPROF
  6
Continuous
 62
     7
100
AcDbCircle
 10
55.2308557255
 20
154.9581242056
 30
0.0
 40
0.1999999999999988
100
AcDbArc
 50
0.0
 51
90.0
  0
LINE
  5
93
330
6F
100
AcDbEntity
  8
11113_AUSSENPROF
  6
Continuous
 62
     7
100
AcDbLine
 10
55.2308557255
 20
155.1581242056
 30
0.0
 11
49.6308557255
 21
155.1581242056
 31
0.0
  0
ARC
  5
94
330
6F
100
AcDbEntity
  8
11113_AUSSENPROF
  6
Continuous
 62
     7
100
AcDbCircle
 10
49.6308557255
 20
155.3581242056
 30
0.0
 40
0.2000000000000023
100
AcDbArc
 50
180.0
 51
270.0
  0
LINE
  5
95
330
6F
100
AcDbEntity
  8
11113_AUSSENPROF
  6
Continuous
 62
     7
100
AcDbLine
 10
49.4308557255
 20
155.3581242056
 30
0.0
 11
49.4308557255
 21
155.9581242056
 31
0.0
  0
ARC
  5
96
330
6F
100
AcDbEntity
  8
11113_AUSSENPROF
  6
Continuous
 62
     7
100
AcDbCircle
 10
49.6308557255
 20
155.9581242056
 30
0.0
 40
0.2000000000000005
100
AcDbArc
 50
90.0
 51
180.0
  0
LINE
  5
97
330
6F
100
AcDbEntity
  8
11113_AUSSENPROF
  6
Continuous
 62
     7
100
AcDbLine
 10
49.6308557255
 20
156.1581242056
 30
0.0
 11
55.2308557255
 21
156.1581242056
 31
0.0
  0
ARC
  5
98
330
6F
100
AcDbEntity
  8
11113_AUSSENPROF
  6
Continuous
 62
     7
100
AcDbCircle
 10
55.2308557255
 20
156.3581242056
 30
0.0
 40
0.1999999999999988
100
AcDbArc
 50
270.0
 51
360.0
  0
LINE
  5
99
330
6F
100
AcDbEntity
  8
11113_AUSSENPROF
  6
Continuous
 62
     7
100
AcDbLine
 10
55.4308557255
 20
156.3581242056
 30
0.0
 11
55.4308557255
 21
167.2581242056
 31
0.0
  0
ARC
  5
9A
330
6F
100
AcDbEntity
  8
11113_AUSSENPROF
  6
Continuous
 62
     7
100
AcDbCircle
 10
55.8308557255
 20
167.2581242056
 30
0.0
 40
0.3999999999999976
100
AcDbArc
 50
90.0
 51
180.0
  0
LINE
  5
9B
330
6F
100
AcDbEntity
  8
11113_AUSSENPROF
  6
Continuous
 62
     7
100
AcDbLine
 10
55.8308557255
 20
167.6581242056
 30
0.0
 11
67.0308557255
 21
167.6581242056
 31
0.0
  0
ARC
  5
9C
330
6F
100
AcDbEntity
  8
11113_AUSSENPROF
  6
Continuous
 62
     7
100
AcDbCircle
 10
67.0308557255
 20
167.2581242056
 30
0.0
 40
0.400000000000001
100
AcDbArc
 50
0.0
 51
90.0
  0
LINE
  5
9D
330
6F
100
AcDbEntity
  8
11113_AUSSENPROF
  6
Continuous
 62
     7
100
AcDbLine
 10
67.4308557255
 20
167.2581242056
 30
0.0
 11
67.4308557255
 21
156.3581242056
 31
0.0
  0
ARC
  5
9E
330
6F
100
AcDbEntity
  8
11113_AUSSENPROF
  6
Continuous
 62
     7
100
AcDbCircle
 10
67.6308557255
 20
156.3581242056
 30
0.0
 40
0.2000000000000023
100
AcDbArc
 50
180.0
 51
270.0
  0
LINE
  5
9F
330
6F
100
AcDbEntity
  8
11113_AUSSENPROF
  6
Continuous
 62
     7
100
AcDbLine
 10
67.6308557255
 20
156.1581242056
 30
0.0
 11
73.2308557255
 21
156.1581242056
 31
0.0
  0
ARC
  5
A0
330
6F
100
AcDbEntity
  8
11113_AUSSENPROF
  6
Continuous
 62
     7
100
AcDbCircle
 10
73.2308557255
 20
155.9581242056
 30
0.0
 40
0.1999999999999988
100
AcDbArc
 50
0.0
 51
90.0
  0
LINE
  5
A1
330
6F
100
AcDbEntity
  8
11113_AUSSENPROF
  6
Continuous
 62
     7
100
AcDbLine
 10
73.4308557255
 20
155.9581242056
 30
0.0
 11
73.4308557255
 21
155.3581242056
 31
0.0
  0
ARC
  5
A2
330
6F
100
AcDbEntity
  8
11113_AUSSENPROF
  6
Continuous
 62
     7
100
AcDbCircle
 10
73.2308557255
 20
155.3581242056
 30
0.0
 40
0.1999999999999988
100
AcDbArc
 50
270.0
 51
0.0
  0
LINE
  5
A3
330
6F
100
AcDbEntity
  8
11113_AUSSENPROF
  6
Continuous
 62
     7
100
AcDbLine
 10
73.2308557255
 20
155.1581242056
 30
0.0
 11
67.6308557255
 21
155.1581242056
 31
0.0
  0
ARC
  5
A4
330
6F
100
AcDbEntity
  8
11113_AUSSENPROF
  6
Continuous
 62
     7
100
AcDbCircle
 10
67.6308557255
 20
154.9581242056
 30
0.0
 40
0.1999999999999988
100
AcDbArc
 50
90.0
 51
180.0
  0
LINE
  5
A5
330
6F
100
AcDbEntity
  8
11113_AUSSENPROF
  6
Continuous
 62
     7
100
AcDbLine
 10
67.4308557255
 20
154.9581242056
 30
0.0
 11
67.4308557255
 21
147.7581242056
 31
0.0
  0
ARC
  5
A6
330
6F
100
AcDbEntity
  8
11113_AUSSENPROF
  6
Continuous
 62
     7
100
AcDbCircle
 10
67.0308557255
 20
147.7581242056
 30
0.0
 40
0.3999999999999976
100
AcDbArc
 50
270.0
 51
0.0
  0
LINE
  5
A7
330
6F
100
AcDbEntity
  8
11113_AUSSENPROF
  6
Continuous
 62
     7
100
AcDbLine
 10
67.0308557255
 20
147.3581242056
 30
0.0
 11
66.8308557255
 21
147.3581242056
 31
0.0
  0
ARC
  5
A8
330
6F
100
AcDbEntity
  8
11113_AUSSENPROF
  6
Continuous
 62
     7
100
AcDbCircle
 10
66.8308557255
 20
147.7581242056
 30
0.0
 40
0.3999999999999976
100
AcDbArc
 50
180.0
 51
270.0
  0
LINE
  5
A9
330
6F
100
AcDbEntity
  8
11113_AUSSENPROF
  6
Continuous
 62
     7
100
AcDbLine
 10
66.4308557255
 20
147.7581242056
 30
0.0
 11
66.4308557255
 21
155.6567586593
 31
0.0
  0
ARC
  5
AA
330
6F
100
AcDbEntity
  8
11113_AUSSENPROF
  6
Continuous
 62
     7
100
AcDbCircle
 10
66.2308557255
 20
155.6567586593
 30
0.0
 40
0.2000000000000023
100
AcDbArc
 50
0.0
 51
60.0
  0
LINE
  5
AB
330
6F
100
AcDbEntity
  8
11113_AUSSENPROF
  6
Continuous
 62
     7
100
AcDbLine
 10
66.3308557255
 20
155.8299637401
 30
0.0
 11
65.0069972337
 21
156.5942937967
 31
0.0
  0
ARC
  5
AC
330
6F
100
AcDbEntity
  8
11113_AUSSENPROF
  6
Continuous
 62
     7
100
AcDbCircle
 10
65.121712521
 20
156.7581242056
 30
0.0
 40
0.1999999999999992
100
AcDbArc
 50
90.0
 51
235.0
  0
LINE
  5
AD
330
6F
100
AcDbEntity
  8
11113_AUSSENPROF
  6
Continuous
 62
     7
100
AcDbLine
 10
65.121712521
 20
156.9581242056
 30
0.0
 11
66.2308557255
 21
156.9581242056
 31
0.0
  0
ARC
  5
AE
330
6F
100
AcDbEntity
  8
11113_AUSSENPROF
  6
Continuous
 62
     7
100
AcDbCircle
 10
66.2308557255
 20
157.1581242056
 30
0.0
 40
0.1999999999999988
100
AcDbArc
 50
270.0
 51
0.0
  0
LINE
  5
AF
330
6F
100
AcDbEntity
  8
11113_AUSSENPROF
  6
Continuous
 62
     7
100
AcDbLine
 10
66.4308557255
 20
157.1581242056
 30
0.0
 11
66.4308557255
 21
166.4581242056
 31
0.0
  0
ARC
  5
B0
330
6F
100
AcDbEntity
  8
11113_AUSSENPROF
  6
Continuous
 62
     7
100
AcDbCircle
 10
66.2308557255
 20
166.4581242056
 30
0.0
 40
0.1999999999999988
100
AcDbArc
 50
0.0
 51
90.0
  0
LINE
  5
B1
330
6F
100
AcDbEntity
  8
11113_AUSSENPROF
  6
Continuous
 62
     7
100
AcDbLine
 10
66.2308557255
 20
166.6581242056
 30
0.0
 11
56.6308557255
 21
166.6581242056
 31
0.0
  0
ARC
  5
B2
330
6F
100
AcDbEntity
  8
11113_AUSSENPROF
  6
Continuous
 62
     7
100
AcDbCircle
 10
56.6308557255
 20
166.4581242056
 30
0.0
 40
0.1999999999999988
100
AcDbArc
 50
90.0
 51
180.0
  0
LINE
  5
B3
330
6F
100
AcDbEntity
  8
11113_AUSSENPROF
  6
Continuous
 62
     7
100
AcDbLine
 10
56.4308557255
 20
166.4581242056
 30
0.0
 11
56.4308557255
 21
157.1581242056
 31
0.0
  0
ARC
  5
B4
330
6F
100
AcDbEntity
  8
11113_AUSSENPROF
  6
Continuous
 62
     7
100
AcDbCircle
 10
56.6308557255
 20
157.1581242056
 30
0.0
 40
0.1999999999999988
100
AcDbArc
 50
180.0
 51
270.0
  0
LINE
  5
B5
330
6F
100
AcDbEntity
  8
11113_AUSSENPROF
  6
Continuous
 62
     7
100
AcDbLine
 10
56.6308557255
 20
156.9581242056
 30
0.0
 11
57.73999893
 21
156.9581242056
 31
0.0
  0
LINE
  5
B7
330
6F
100
AcDbEntity
  8
11115_INNENPROFI
  6
Continuous
 62
     7
100
AcDbLine
 10
64.7508413596
 20
151.1829299646
 30
0.0
 11
64.3228295725
 21
150.6728453797
 31
0.0
  0
ARC
  5
B8
330
6F
100
AcDbEntity
  8
11115_INNENPROFI
  6
Continuous
 62
     7
100
AcDbCircle
 10
64.1696206839
 20
150.8014029016
 30
0.0
 40
0.2000000000000014
100
AcDbArc
 50
270.0
 51
320.0
  0
LINE
  5
B9
330
6F
100
AcDbEntity
  8
11115_INNENPROFI
  6
Continuous
 62
     7
100
AcDbLine
 10
64.1696206839
 20
150.6014029016
 30
0.0
 11
62.5549458758
 21
150.6014029016
 31
0.0
  0
ARC
  5
BA
330
6F
100
AcDbEntity
  8
11115_INNENPROFI
  6
Continuous
 62
     7
100
AcDbCircle
 10
62.5549458758
 20
151.1014029016
 30
0.0
 40
0.5000000000000004
100
AcDbArc
 50
180.0
 51
270.0
  0
LINE
  5
BB
330
6F
100
AcDbEntity
  8
11115_INNENPROFI
  6
Continuous
 62
     7
100
AcDbLine
 10
62.0549458758
 20
151.1014029016
 30
0.0
 11
62.0549458758
 21
152.9014142124
 31
0.0
  0
ARC
  5
BC
330
6F
100
AcDbEntity
  8
11115_INNENPROFI
  6
Continuous
 62
     7
100
AcDbCircle
 10
62.5549458758
 20
152.9014142124
 30
0.0
 40
0.5000000000000004
100
AcDbArc
 50
90.0
 51
180.0
  0
LINE
  5
BD
330
6F
100
AcDbEntity
  8
11115_INNENPROFI
  6
Continuous
 62
     7
100
AcDbLine
 10
62.5549458758
 20
153.4014142124
 30
0.0
 11
64.1596206839
 21
153.4014142124
 31
0.0
  0
ARC
  5
BE
330
6F
100
AcDbEntity
  8
11115_INNENPROFI
  6
Continuous
 62
     7
100
AcDbCircle
 10
64.1596206839
 20
153.2014142124
 30
0.0
 40
0.1999999999999988
100
AcDbArc
 50
49.5450245006
 51
90.0
  0
LINE
  5
BF
330
6F
100
AcDbEntity
  8
11115_INNENPROFI
  6
Continuous
 62
     7
100
AcDbLine
 10
64.2893907441
 20
153.3535974292
 30
0.0
 11
64.6286311111
 21
153.0643195193
 31
0.0
  0
ARC
  5
C0
330
6F
100
AcDbEntity
  8
11115_INNENPROFI
  6
Continuous
 62
     7
100
AcDbCircle
 10
64.7202753086
 20
153.2420871796
 30
0.0
 40
0.199999999999999
100
AcDbArc
 50
242.7276294579
 51
297.8758291659
  0
LINE
  5
C1
330
6F
100
AcDbEntity
  8
11115_INNENPROFI
  6
Continuous
 62
     7
100
AcDbLine
 10
66.0796812369
 20
154.3188865742
 30
0.0
 11
66.1729788735
 21
154.4121842108
 31
0.0
  0
ARC
  5
C2
330
6F
100
AcDbEntity
  8
11115_INNENPROFI
  6
Continuous
 62
     7
100
AcDbCircle
 10
66.0315575173
 20
154.5536055671
 30
0.0
 40
0.1999999999999978
100
AcDbArc
 50
314.9999999996
 51
359.9942488121
  0
LINE
  5
C3
330
6F
100
AcDbEntity
  8
11115_INNENPROFI
  6
Continuous
 62
     7
100
AcDbLine
 10
66.2315575163
 20
154.5535854916
 30
0.0
 11
66.2316697533
 21
155.6717386579
 31
0.0
  0
ARC
  5
C4
330
6F
100
AcDbEntity
  8
11115_INNENPROFI
  6
Continuous
 62
     7
100
AcDbCircle
 10
66.0316697543
 20
155.6717587333
 30
0.0
 40
0.1999999999999977
100
AcDbArc
 50
359.9942488121
 51
60.0
  0
LINE
  5
C5
330
6F
100
AcDbEntity
  8
11115_INNENPROFI
  6
Continuous
 62
     7
100
AcDbLine
 10
66.1316697543
 20
155.8449638141
 30
0.0
 11
64.7696448033
 21
156.6313292862
 31
0.0
  0
ARC
  5
C6
330
6F
100
AcDbEntity
  8
11115_INNENPROFI
  6
Continuous
 62
     7
100
AcDbCircle
 10
64.6696448033
 20
156.4581242054
 30
0.0
 40
0.2000000000000034
100
AcDbArc
 50
60.0
 51
90.0
  0
LINE
  5
C7
330
6F
100
AcDbEntity
  8
11115_INNENPROFI
  6
Continuous
 62
     7
100
AcDbLine
 10
64.6696448033
 20
156.6581242054
 30
0.0
 11
64.0308557255
 21
156.6581242054
 31
0.0
  0
ARC
  5
C8
330
6F
100
AcDbEntity
  8
11115_INNENPROFI
  6
Continuous
 62
     7
100
AcDbCircle
 10
64.0308557255
 20
156.4581242054
 30
0.0
 40
0.1999999999999988
100
AcDbArc
 50
90.0
 51
180.0
  0
LINE
  5
C9
330
6F
100
AcDbEntity
  8
11115_INNENPROFI
  6
Continuous
 62
     7
100
AcDbLine
 10
63.8308557255
 20
156.4581242054
 30
0.0
 11
63.8308557255
 21
155.9581242056
 31
0.0
  0
ARC
  5
CA
330
6F
100
AcDbEntity
  8
11115_INNENPROFI
  6
Continuous
 62
     7
100
AcDbCircle
 10
64.0308557255
 20
155.9581242056
 30
0.0
 40
0.1999999999999988
100
AcDbArc
 50
180.0
 51
270.0
  0
LINE
  5
CB
330
6F
100
AcDbEntity
  8
11115_INNENPROFI
  6
Continuous
 62
     7
100
AcDbLine
 10
64.0308557255
 20
155.7581242056
 30
0.0
 11
64.6308557255
 21
155.7581242056
 31
0.0
  0
ARC
  5
CC
330
6F
100
AcDbEntity
  8
11115_INNENPROFI
  6
Continuous
 62
     7
100
AcDbCircle
 10
64.6308557255
 20
155.5581242056
 30
0.0
 40
0.1999999999911448
100
AcDbArc
 50
0.0
 51
90.0
  0
LINE
  5
CD
330
6F
100
AcDbEntity
  8
11115_INNENPROFI
  6
Continuous
 62
     7
100
AcDbLine
 10
64.8308557255
 20
155.5581242056
 30
0.0
 11
64.8308557255
 21
154.6581242056
 31
0.0
  0
ARC
  5
CE
330
6F
100
AcDbEntity
  8
11115_INNENPROFI
  6
Continuous
 62
     7
100
AcDbCircle
 10
64.6308557255
 20
154.6581242056
 30
0.0
 40
0.1999999999999988
100
AcDbArc
 50
270.0
 51
0.0
  0
LINE
  5
CF
330
6F
100
AcDbEntity
  8
11115_INNENPROFI
  6
Continuous
 62
     7
100
AcDbLine
 10
64.6308557255
 20
154.4581242056
 30
0.0
 11
58.2308557255
 21
154.4581242056
 31
0.0
  0
ARC
  5
D0
330
6F
100
AcDbEntity
  8
11115_INNENPROFI
  6
Continuous
 62
     7
100
AcDbCircle
 10
58.2308557255
 20
154.6581242056
 30
0.0
 40
0.1999999999999988
100
AcDbArc
 50
180.0
 51
270.0
  0
LINE
  5
D1
330
6F
100
AcDbEntity
  8
11115_INNENPROFI
  6
Continuous
 62
     7
100
AcDbLine
 10
58.0308557255
 20
154.6581242056
 30
0.0
 11
58.0308557255
 21
155.5581242056
 31
0.0
  0
ARC
  5
D2
330
6F
100
AcDbEntity
  8
11115_INNENPROFI
  6
Continuous
 62
     7
100
AcDbCircle
 10
58.2308557255
 20
155.5581242056
 30
0.0
 40
0.1999999999911448
100
AcDbArc
 50
90.0
 51
180.0
  0
LINE
  5
D3
330
6F
100
AcDbEntity
  8
11115_INNENPROFI
  6
Continuous
 62
     7
100
AcDbLine
 10
58.2308557255
 20
155.7581242056
 30
0.0
 11
58.8308557255
 21
155.7581242056
 31
0.0
  0
ARC
  5
D4
330
6F
100
AcDbEntity
  8
11115_INNENPROFI
  6
Continuous
 62
     7
100
AcDbCircle
 10
58.8308557255
 20
155.9581242056
 30
0.0
 40
0.199999999993497
100
AcDbArc
 50
269.9999999981
 51
0.0
  0
LINE
  5
D5
330
6F
100
AcDbEntity
  8
11115_INNENPROFI
  6
Continuous
 62
     7
100
AcDbLine
 10
59.0308557255
 20
155.9581242056
 30
0.0
 11
59.0308557255
 21
156.4581242054
 31
0.0
  0
ARC
  5
D6
330
6F
100
AcDbEntity
  8
11115_INNENPROFI
  6
Continuous
 62
     7
100
AcDbCircle
 10
58.8308557255
 20
156.4581242054
 30
0.0
 40
0.200000000006504
100
AcDbArc
 50
0.0
 51
89.999999999
  0
LINE
  5
D7
330
6F
100
AcDbEntity
  8
11115_INNENPROFI
  6
Continuous
 62
     7
100
AcDbLine
 10
58.8308557255
 20
156.6581242055
 30
0.0
 11
58.1920666478
 21
156.6581242054
 31
0.0
  0
ARC
  5
D8
330
6F
100
AcDbEntity
  8
11115_INNENPROFI
  6
Continuous
 62
     7
100
AcDbCircle
 10
58.1920666478
 20
156.4581242054
 30
0.0
 40
0.2000000000000023
100
AcDbArc
 50
90.0000000008
 51
120.0000000007
  0
LINE
  5
D9
330
6F
100
AcDbEntity
  8
11115_INNENPROFI
  6
Continuous
 62
     7
100
AcDbLine
 10
58.0920666478
 20
156.6313292862
 30
0.0
 11
56.7300359028
 21
155.8449604689
 31
0.0
  0
ARC
  5
DA
330
6F
100
AcDbEntity
  8
11115_INNENPROFI
  6
Continuous
 62
     7
100
AcDbCircle
 10
56.8300359028
 20
155.6717553881
 30
0.0
 40
0.199999999999999
100
AcDbArc
 50
120.0000000007
 51
180.0
  0
LINE
  5
DB
330
6F
100
AcDbEntity
  8
11115_INNENPROFI
  6
Continuous
 62
     7
100
AcDbLine
 10
56.6300359028
 20
155.6717553881
 30
0.0
 11
56.6300359028
 21
154.553723598
 31
0.0
  0
ARC
  5
DC
330
6F
100
AcDbEntity
  8
11115_INNENPROFI
  6
Continuous
 62
     7
100
AcDbCircle
 10
56.8300359028
 20
154.553723598
 30
0.0
 40
0.1999999999999988
100
AcDbArc
 50
180.0
 51
225.0
  0
LINE
  5
DD
330
6F
100
AcDbEntity
  8
11115_INNENPROFI
  6
Continuous
 62
     7
100
AcDbLine
 10
56.6886145465
 20
154.4123022418
 30
0.0
 11
56.7820302141
 21
154.3188865742
 31
0.0
  0
ARC
  5
DE
330
6F
100
AcDbEntity
  8
11115_INNENPROFI
  6
Continuous
 62
     7
100
AcDbCircle
 10
58.1414361424
 20
153.2420871796
 30
0.0
 40
0.2000000000000002
100
AcDbArc
 50
242.124170844
 51
297.2723705456
  0
LINE
  5
DF
330
6F
100
AcDbEntity
  8
11115_INNENPROFI
  6
Continuous
 62
     7
100
AcDbLine
 10
58.2330803399
 20
153.0643195193
 30
0.0
 11
58.5723207069
 21
153.3535974292
 31
0.0
  0
ARC
  5
E0
330
6F
100
AcDbEntity
  8
11115_INNENPROFI
  6
Continuous
 62
     7
100
AcDbCircle
 10
58.7020907672
 20
153.2014142124
 30
0.0
 40
0.1999999999999994
100
AcDbArc
 50
90.0
 51
130.4549754999
  0
LINE
  5
E1
330
6F
100
AcDbEntity
  8
11115_INNENPROFI
  6
Continuous
 62
     7
100
AcDbLine
 10
58.7020907672
 20
153.4014142124
 30
0.0
 11
60.3067655753
 21
153.4014142124
 31
0.0
  0
ARC
  5
E2
330
6F
100
AcDbEntity
  8
11115_INNENPROFI
  6
Continuous
 62
     7
100
AcDbCircle
 10
60.3067655753
 20
152.9014142124
 30
0.0
 40
0.5000000000000004
100
AcDbArc
 50
0.0
 51
90.0
  0
LINE
  5
E3
330
6F
100
AcDbEntity
  8
11115_INNENPROFI
  6
Continuous
 62
     7
100
AcDbLine
 10
60.8067655753
 20
152.9014142124
 30
0.0
 11
60.8067655753
 21
151.1014029016
 31
0.0
  0
ARC
  5
E4
330
6F
100
AcDbEntity
  8
11115_INNENPROFI
  6
Continuous
 62
     7
100
AcDbCircle
 10
60.3067655753
 20
151.1014029016
 30
0.0
 40
0.5000000000000004
100
AcDbArc
 50
270.0
 51
0.0
  0
LINE
  5
E5
330
6F
100
AcDbEntity
  8
11115_INNENPROFI
  6
Continuous
 62
     7
100
AcDbLine
 10
60.3067655753
 20
150.6014029016
 30
0.0
 11
58.6920907672
 21
150.6014029016
 31
0.0
  0
ARC
  5
E6
330
6F
100
AcDbEntity
  8
11115_INNENPROFI
  6
Continuous
 62
     7
100
AcDbCircle
 10
58.6920907672
 20
150.8014029016
 30
0.0
 40
0.1999999999999988
100
AcDbArc
 50
220.0
 51
270.0
  0
LINE
  5
E7
330
6F
100
AcDbEntity
  8
11115_INNENPROFI
  6
Continuous
 62
     7
100
AcDbLine
 10
58.5388818785
 20
150.6728453797
 30
0.0
 11
58.1108700915
 21
151.1829299646
 31
0.0
  0
ARC
  5
E8
330
6F
100
AcDbEntity
  8
11115_INNENPROFI
  6
Continuous
 62
     7
100
AcDbCircle
 10
57.9576612028
 20
151.0543724426
 30
0.0
 40
0.1999999999999987
100
AcDbArc
 50
40.0
 51
113.9481997803
  0
ARC
  5
E9
330
6F
100
AcDbEntity
  8
11115_INNENPROFI
  6
Continuous
 62
     7
100
AcDbCircle
 10
58.0794343693
 20
150.7801986001
 30
0.0
 40
0.5000000000000017
100
AcDbArc
 50
113.9481997803
 51
168.5217120109
  0
ARC
  5
EA
330
6F
100
AcDbEntity
  8
11115_INNENPROFI
  6
Continuous
 62
     7
100
AcDbCircle
 10
57.7794343693
 20
149.7981325424
 30
0.0
 40
0.2000000000000023
100
AcDbArc
 50
198.1947879513
 51
270.0
  0
LINE
  5
EB
330
6F
100
AcDbEntity
  8
11115_INNENPROFI
  6
Continuous
 62
     7
100
AcDbLine
 10
57.7794343693
 20
149.5981325424
 30
0.0
 11
61.2308557255
 21
149.5981325424
 31
0.0
  0
ARC
  5
EC
330
6F
100
AcDbEntity
  8
11115_INNENPROFI
  6
Continuous
 62
     7
100
AcDbCircle
 10
65.0822770818
 20
149.7981325424
 30
0.0
 40
0.1999999999999988
100
AcDbArc
 50
270.0
 51
341.8052120487
  0
ARC
  5
ED
330
6F
100
AcDbEntity
  8
11115_INNENPROFI
  6
Continuous
 62
     7
100
AcDbCircle
 10
64.7822770818
 20
150.7801986001
 30
0.0
 40
0.499999999999997
100
AcDbArc
 50
11.4782879891
 51
66.0518002197
  0
ARC
  5
EE
330
6F
100
AcDbEntity
  8
11115_INNENPROFI
  6
Continuous
 62
     7
100
AcDbCircle
 10
64.9040502482
 20
151.0543724426
 30
0.0
 40
0.2000000000000001
100
AcDbArc
 50
66.0518002197
 51
140.0
  0
LINE
  5
EF
330
6F
100
AcDbEntity
  8
11115_INNENPROFI
  6
Continuous
 62
     7
100
AcDbLine
 10
61.6308557255
 20
149.5981325424
 30
0.0
 11
65.0822770818
 21
149.5981325424
 31
0.0
  0
ARC
  5
F0
330
6F
100
AcDbEntity
  8
11115_INNENPROFI
  6
Continuous
 62
     7
100
AcDbCircle
 10
61.4308557255
 20
149.5981325424
 30
0.0
 40
0.1999999999999988
100
AcDbArc
 50
0.0
 51
180.0
  0
ARC
  5
F2
330
6F
100
AcDbEntity
  8
20647_SILIKON-DI
  6
Continuous
 62
     7
100
AcDbCircle
 10
57.4808556341
 20
148.0620477036
 30
0.0
 40
0.799999999999794
100
AcDbArc
 50
180.0
 51
265.6062790803
  0
LINE
  5
F3
330
6F
100
AcDbEntity
  8
20647_SILIKON-DI
  6
Continuous
 62
     7
100
AcDbLine
 10
56.6808556341
 20
154.145008639
 30
0.0
 11
56.6808556341
 21
148.0620477036
 31
0.0
  0
ARC
  5
F4
330
6F
100
AcDbEntity
  8
20647_SILIKON-DI
  6
Continuous
 62
     7
100
AcDbCircle
 10
56.8808556341
 20
154.145008639
 30
0.0
 40
0.1999999999999992
100
AcDbArc
 50
39.9999999999
 51
180.0
  0
LINE
  5
F5
330
6F
100
AcDbEntity
  8
20647_SILIKON-DI
  6
Continuous
 62
     7
100
AcDbLine
 10
58.0812217299
 20
153.0256127973
 30
0.0
 11
57.0340645227
 21
154.2735661609
 31
0.0
  0
ARC
  5
F6
330
6F
100
AcDbEntity
  8
20647_SILIKON-DI
  6
Continuous
 62
     7
100
AcDbCircle
 10
58.2165952972
 20
153.2357889074
 30
0.0
 40
0.2500000000000019
100
AcDbArc
 50
237.214581736
 51
319.8309057066
  0
ARC
  5
F7
330
6F
100
AcDbEntity
  8
20647_SILIKON-DI
  6
Continuous
 62
     7
100
AcDbCircle
 10
59.3067598281
 20
152.0014088024
 30
0.0
 40
1.400005655341844
100
AcDbArc
 50
80.2972086809
 51
129.9584603724
  0
ARC
  5
F8
330
6F
100
AcDbEntity
  8
20647_SILIKON-DI
  6
Continuous
 62
     7
100
AcDbCircle
 10
59.4921519219
 20
153.0856791623
 30
0.0
 40
0.2999999999970873
100
AcDbArc
 50
48.1023087938
 51
80.2972086812
  0
LINE
  5
F9
330
6F
100
AcDbEntity
  8
20647_SILIKON-DI
  6
Continuous
 62
     7
100
AcDbLine
 10
60.2619595818
 20
152.7980686999
 30
0.0
 11
59.6924926905
 21
153.3089806993
 31
0.0
  0
ARC
  5
FA
330
6F
100
AcDbEntity
  8
20647_SILIKON-DI
  6
Continuous
 62
     7
100
AcDbCircle
 10
59.6609372759
 20
152.128164089
 30
0.0
 40
0.9000000000000007
100
AcDbArc
 50
327.1996758986
 51
48.1023087938
  0
LINE
  5
FB
330
6F
100
AcDbEntity
  8
20647_SILIKON-DI
  6
Continuous
 62
     7
100
AcDbLine
 10
59.9561665094
 20
150.9248680397
 30
0.0
 11
60.4174444613
 21
151.6406224204
 31
0.0
  0
ARC
  5
FC
330
6F
100
AcDbEntity
  8
20647_SILIKON-DI
  6
Continuous
 62
     7
100
AcDbCircle
 10
59.3677720319
 20
151.3040671153
 30
0.0
 40
0.6999999999930374
100
AcDbArc
 50
275.0002210973
 51
327.1996758986
  0
ARC
  5
FD
330
6F
100
AcDbEntity
  8
20647_SILIKON-DI
  6
Continuous
 62
     7
100
AcDbCircle
 10
59.3067598281
 20
152.0014088024
 30
0.0
 40
1.400005655396394
100
AcDbArc
 50
207.2164420213
 51
275.0002210973
  0
ARC
  5
FE
330
6F
100
AcDbEntity
  8
20647_SILIKON-DI
  6
Continuous
 62
     7
100
AcDbCircle
 10
57.8394342774
 20
151.2467735319
 30
0.0
 40
0.2500000001045971
100
AcDbArc
 50
27.2164420213
 51
180.0
  0
LINE
  5
FF
330
6F
100
AcDbEntity
  8
20647_SILIKON-DI
  6
Continuous
 62
     7
100
AcDbLine
 10
57.5894342773
 20
148.5124533901
 30
0.0
 11
57.5894342773
 21
151.2467735319
 31
0.0
  0
ARC
  5
100
330
6F
100
AcDbEntity
  8
20647_SILIKON-DI
  6
Continuous
 62
     7
100
AcDbCircle
 10
57.3894342773
 20
148.5124533901
 30
0.0
 40
0.2
100
AcDbArc
 50
291.0431742211
 51
0.0
  0
ARC
  5
101
330
6F
100
AcDbEntity
  8
20647_SILIKON-DI
  6
Continuous
 62
     7
100
AcDbCircle
 10
57.5510163761
 20
148.0924638362
 30
0.0
 40
0.2500000000000007
100
AcDbArc
 50
111.0431742211
 51
312.6063620732
  0
ARC
  5
102
330
6F
100
AcDbEntity
  8
20647_SILIKON-DI
  6
Continuous
 62
     7
100
AcDbCircle
 10
57.8556473416
 20
147.7612539709
 30
0.0
 40
0.2
100
AcDbArc
 50
68.9724254282
 51
132.6063620732
  0
LINE
  5
103
330
6F
100
AcDbEntity
  8
20647_SILIKON-DI
  6
Continuous
 62
     7
100
AcDbLine
 10
58.9203697985
 20
147.5662258904
 30
0.0
 11
57.9274107835
 21
147.9479355405
 31
0.0
  0
ARC
  5
104
330
6F
100
AcDbEntity
  8
20647_SILIKON-DI
  6
Continuous
 62
     7
100
AcDbCircle
 10
58.9921332404
 20
147.7529074599
 30
0.0
 40
0.1999999999996733
100
AcDbArc
 50
248.9724254282
 51
305.5198836949
  0
ARC
  5
105
330
6F
100
AcDbEntity
  8
20647_SILIKON-DI
  6
Continuous
 62
     7
100
AcDbCircle
 10
59.4105945198
 20
147.1666768208
 30
0.0
 40
0.520261205741981
100
AcDbArc
 50
39.2140627545
 51
125.5198836949
  0
ARC
  5
106
330
6F
100
AcDbEntity
  8
20647_SILIKON-DI
  6
Continuous
 62
     7
100
AcDbCircle
 10
59.9686452234
 20
147.6220399909
 30
0.0
 40
0.2000000000000008
100
AcDbArc
 50
219.2140627545
 51
309.6210712194
  0
ARC
  5
107
330
6F
100
AcDbEntity
  8
20647_SILIKON-DI
  6
Continuous
 62
     7
100
AcDbCircle
 10
60.4306456989
 20
147.0639953342
 30
0.0
 40
0.5244710333300915
100
AcDbArc
 50
42.9552094742
 51
129.6210712195
  0
ARC
  5
108
330
6F
100
AcDbEntity
  8
20647_SILIKON-DI
  6
Continuous
 62
     7
100
AcDbCircle
 10
60.9535574921
 20
147.5508547739
 30
0.0
 40
0.1900000000000028
100
AcDbArc
 50
222.9552094742
 51
314.1394909016
  0
ARC
  5
109
330
6F
100
AcDbEntity
  8
20647_SILIKON-DI
  6
Continuous
 62
     7
100
AcDbCircle
 10
61.4381101724
 20
147.0515243202
 30
0.0
 40
0.5057889062096297
100
AcDbArc
 50
47.5287743239
 51
134.1394909016
  0
ARC
  5
10A
330
6F
100
AcDbEntity
  8
20647_SILIKON-DI
  6
Continuous
 62
     7
100
AcDbCircle
 10
61.9146728566
 20
147.5721258839
 30
0.0
 40
0.2000000000000015
100
AcDbArc
 50
227.5287743239
 51
315.4620560819
  0
ARC
  5
10B
330
6F
100
AcDbEntity
  8
20647_SILIKON-DI
  6
Continuous
 62
     7
100
AcDbCircle
 10
62.4310657522
 20
147.0639953342
 30
0.0
 40
0.5244710333300955
100
AcDbArc
 50
50.3789293167
 51
135.4620560819
  0
ARC
  5
10C
330
6F
100
AcDbEntity
  8
20647_SILIKON-DI
  6
Continuous
 62
     7
100
AcDbCircle
 10
62.8930662224
 20
147.6220399952
 30
0.0
 40
0.2000000000000015
100
AcDbArc
 50
230.3789293167
 51
320.7859386036
  0
ARC
  5
10D
330
6F
100
AcDbEntity
  8
20647_SILIKON-DI
  6
Continuous
 62
     7
100
AcDbCircle
 10
63.4511169369
 20
147.1666768384
 30
0.0
 40
0.5202612057419722
100
AcDbArc
 50
54.4801158611
 51
140.7859386036
  0
ARC
  5
10E
330
6F
100
AcDbEntity
  8
20647_SILIKON-DI
  6
Continuous
 62
     7
100
AcDbCircle
 10
63.8695782208
 20
147.7529074742
 30
0.0
 40
0.1999999999999982
100
AcDbArc
 50
234.4801158611
 51
302.4895261933
  0
LINE
  5
10F
330
6F
100
AcDbEntity
  8
20647_SILIKON-DI
  6
Continuous
 62
     7
100
AcDbLine
 10
64.9347269928
 20
147.9484195554
 30
0.0
 11
63.9770073059
 21
147.5842095439
 31
0.0
  0
ARC
  5
110
330
6F
100
AcDbEntity
  8
20647_SILIKON-DI
  6
Continuous
 62
     7
100
AcDbCircle
 10
65.0058177083
 20
147.7614807682
 30
0.0
 40
0.1999999999998766
100
AcDbArc
 50
47.3509985617
 51
110.8212456664
  0
ARC
  5
111
330
6F
100
AcDbEntity
  8
20647_SILIKON-DI
  6
Continuous
 62
     7
100
AcDbCircle
 10
65.3106950749
 20
148.0924638362
 30
0.0
 40
0.2500000000036746
100
AcDbArc
 50
227.3509985562
 51
64.9654816866
  0
ARC
  5
112
330
6F
100
AcDbEntity
  8
20647_SILIKON-DI
  6
Continuous
 62
     7
100
AcDbCircle
 10
65.5222771737
 20
148.5454903426
 30
0.0
 40
0.2500000000000037
100
AcDbArc
 50
180.0
 51
244.9654816811
  0
LINE
  5
113
330
6F
100
AcDbEntity
  8
20647_SILIKON-DI
  6
Continuous
 62
     7
100
AcDbLine
 10
65.2722771737
 20
151.2467735319
 30
0.0
 11
65.2722771737
 21
148.5454903426
 31
0.0
  0
ARC
  5
114
330
6F
100
AcDbEntity
  8
20647_SILIKON-DI
  6
Continuous
 62
     7
100
AcDbCircle
 10
65.0222771736
 20
151.2467735319
 30
0.0
 40
0.250000000104593
100
AcDbArc
 50
0.0
 51
152.7835579787
  0
ARC
  5
115
330
6F
100
AcDbEntity
  8
20647_SILIKON-DI
  6
Continuous
 62
     7
100
AcDbCircle
 10
63.5549516229
 20
152.0014088024
 30
0.0
 40
1.400005655396388
100
AcDbArc
 50
264.9997789027
 51
332.7835579787
  0
ARC
  5
116
330
6F
100
AcDbEntity
  8
20647_SILIKON-DI
  6
Continuous
 62
     7
100
AcDbCircle
 10
63.4939394191
 20
151.3040671153
 30
0.0
 40
0.6999999999930412
100
AcDbArc
 50
212.8003241014
 51
264.9997789027
  0
LINE
  5
117
330
6F
100
AcDbEntity
  8
20647_SILIKON-DI
  6
Continuous
 62
     7
100
AcDbLine
 10
62.4442669898
 20
151.6406224204
 30
0.0
 11
62.9055449417
 21
150.9248680397
 31
0.0
  0
ARC
  5
118
330
6F
100
AcDbEntity
  8
20647_SILIKON-DI
  6
Continuous
 62
     7
100
AcDbCircle
 10
63.2007741751
 20
152.128164089
 30
0.0
 40
0.9000000000000001
100
AcDbArc
 50
131.8976912062
 51
212.8003241014
  0
LINE
  5
119
330
6F
100
AcDbEntity
  8
20647_SILIKON-DI
  6
Continuous
 62
     7
100
AcDbLine
 10
63.1692187605
 20
153.3089806993
 30
0.0
 11
62.5997518692
 21
152.7980686999
 31
0.0
  0
ARC
  5
11A
330
6F
100
AcDbEntity
  8
20647_SILIKON-DI
  6
Continuous
 62
     7
100
AcDbCircle
 10
63.3695595291
 20
153.0856791623
 30
0.0
 40
0.2999999999970863
100
AcDbArc
 50
99.7027913188
 51
131.8976912062
  0
ARC
  5
11B
330
6F
100
AcDbEntity
  8
20647_SILIKON-DI
  6
Continuous
 62
     7
100
AcDbCircle
 10
63.5549516229
 20
152.0014088024
 30
0.0
 40
1.400005655341845
100
AcDbArc
 50
50.0415396276
 51
99.7027913191
  0
ARC
  5
11C
330
6F
100
AcDbEntity
  8
20647_SILIKON-DI
  6
Continuous
 62
     7
100
AcDbCircle
 10
64.6451161538
 20
153.2357889074
 30
0.0
 40
0.25
100
AcDbArc
 50
220.1690942934
 51
302.785418264
  0
LINE
  5
11D
330
6F
100
AcDbEntity
  8
20647_SILIKON-DI
  6
Continuous
 62
     7
100
AcDbLine
 10
65.8276469283
 20
154.2735661609
 30
0.0
 11
64.7804897211
 21
153.0256127973
 31
0.0
  0
ARC
  5
11E
330
6F
100
AcDbEntity
  8
20647_SILIKON-DI
  6
Continuous
 62
     7
100
AcDbCircle
 10
65.9808558169
 20
154.145008639
 30
0.0
 40
0.1999999999999988
100
AcDbArc
 50
0.0
 51
140.0000000001
  0
LINE
  5
11F
330
6F
100
AcDbEntity
  8
20647_SILIKON-DI
  6
Continuous
 62
     7
100
AcDbLine
 10
66.1808558169
 20
148.0620477013
 30
0.0
 11
66.1808558169
 21
154.145008639
 31
0.0
  0
ARC
  5
120
330
6F
100
AcDbEntity
  8
20647_SILIKON-DI
  6
Continuous
 62
     7
100
AcDbCircle
 10
65.3808558169
 20
148.0620477013
 30
0.0
 40
0.7999999999999209
100
AcDbArc
 50
274.3937208963
 51
0.0
  0
ARC
  5
121
330
6F
100
AcDbEntity
  8
20647_SILIKON-DI
  6
Continuous
 62
     7
100
AcDbCircle
 10
61.4308557297
 20
162.8887591526
 30
0.0
 40
16.13105909995037
100
AcDbArc
 50
255.6012591461
 51
284.398740822
  0
ENDBLK
  5
123
330
6F
100
AcDbEntity
  8
0
100
AcDbBlockEnd
  0
BLOCK
  5
126
330
125
100
AcDbEntity
  8
0
100
AcDbBlockBegin
  2
_Oblique
 70
     0
 10
0.0
 20
0.0
 30
0.0
  3
_Oblique
  1

  0
LINE
  5
128
330
125
100
AcDbEntity
  8
0
  6
ByBlock
 62
     0
370
    -2
100
AcDbLine
 10
-0.5
 20
-0.5
 30
0.0
 11
0.5
 21
0.5
 31
0.0
  0
ENDBLK
  5
127
330
125
100
AcDbEntity
  8
0
100
AcDbBlockEnd
  0
BLOCK
  5
12A
330
129
100
AcDbEntity
  8
0
100
AcDbBlockBegin
  2
_Dot
 70
     0
 10
0.0
 20
0.0
 30
0.0
  3
_Dot
  1

  0
LWPOLYLINE
  5
12C
330
129
100
AcDbEntity
  8
0
  6
ByBlock
 62
     0
100
AcDbPolyline
 90
        2
 70
     1
 43
0.5
 10
-0.25
 20
0.0
 42
1.0
 10
0.25
 20
0.0
 42
1.0
  0
LINE
  5
12D
330
129
100
AcDbEntity
  8
0
  6
ByBlock
 62
     0
370
    -2
100
AcDbLine
 10
-0.5
 20
0.0
 30
0.0
 11
-1.0
 21
0.0
 31
0.0
  0
ENDBLK
  5
12B
330
129
100
AcDbEntity
  8
0
100
AcDbBlockEnd
  0
BLOCK
  5
132
330
12E
100
AcDbEntity
  8
0
100
AcDbBlockBegin
  2
_SE_OPEN
 70
     0
 10
0.0
 20
0.0
 30
0.0
  3
_SE_OPEN
  1

  0
LINE
  5
12F
330
12E
100
AcDbEntity
  8
0
 62
     0
100
AcDbLine
 10
0.0
 20
0.0
 30
0.0
 11
-1.0
 21
-0.1665
 31
0.0
  0
LINE
  5
130
330
12E
100
AcDbEntity
  8
0
 62
     0
100
AcDbLine
 10
-1.0
 20
0.1665
 30
0.0
 11
0.0
 21
0.0
 31
0.0
  0
LINE
  5
131
330
12E
100
AcDbEntity
  8
0
 62
     0
100
AcDbLine
 10
0.0
 20
0.0
 30
0.0
 11
-1.0
 21
0.0
 31
0.0
  0
ENDBLK
  5
133
330
12E
100
AcDbEntity
  8
0
100
AcDbBlockEnd
  0
BLOCK
  5
1E9
330
13A
100
AcDbEntity
  8
0
100
AcDbBlockBegin
  2
SE1
 70
     0
 10
0.0
 20
0.0
 30
0.0
  3
SE1
  1

  0
HATCH
  5
13D
330
13A
100
AcDbEntity
  8
DV2_Füllung
  6
Continuous
 62
     7
100
AcDbHatch
 10
0.0
 20
0.0
 30
0.0
210
0.0
220
0.0
230
1.0
  2
SOLID
 70
     1
 71
     0
 91
        1
 92
        1
 93
       44
 72
     1
 10
136.2440308358784
 20
166.7968939502494
 11
125.0440308358783
 21
166.7968939502494
 72
     2
 10
125.0440308358783
 20
166.3968939502494
 40
0.3999999999999976
 50
90.0
 51
180.0
 73
     1
 72
     1
 10
124.6440308358783
 20
166.3968939502494
 11
124.6440308358783
 21
155.4968939502493
 72
     2
 10
124.4440308358783
 20
155.4968939502494
 40
0.1999999999999988
 50
0.0000000000081422
 51
90.0
 73
     0
 72
     1
 10
124.4440308358783
 20
155.2968939502494
 11
118.8440308358783
 21
155.2968939502494
 72
     2
 10
118.8440308358783
 20
155.0968939502494
 40
0.2000000000000005
 50
90.0
 51
180.0
 73
     1
 72
     1
 10
118.6440308358783
 20
155.0968939502494
 11
118.6440308358783
 21
154.4968939502494
 72
     2
 10
118.8440308358783
 20
154.4968939502494
 40
0.2000000000000023
 50
180.0
 51
270.0
 73
     1
 72
     1
 10
118.8440308358783
 20
154.2968939502494
 11
124.4440308358783
 21
154.2968939502494
 72
     2
 10
124.4440308358783
 20
154.0968939502494
 40
0.1999999999999988
 50
270.0
 51
360.0
 73
     0
 72
     1
 10
124.6440308358783
 20
154.0968939502494
 11
124.6440308358783
 21
146.8968939502493
 72
     2
 10
125.0440308358783
 20
146.8968939502494
 40
0.3999999999999976
 50
180.0
 51
270.0
 73
     1
 72
     1
 10
125.0440308358783
 20
146.4968939502493
 11
125.2440308358783
 21
146.4968939502494
 72
     2
 10
125.2440308358783
 20
146.8968939502494
 40
0.3999999999999976
 50
270.0
 51
360.0
 73
     1
 72
     1
 10
125.6440308358783
 20
146.8968939502494
 11
125.6440308358784
 21
154.7955284040312
 72
     2
 10
125.8440308358783
 20
154.7955284040312
 40
0.1999999999999986
 50
180.0
 51
240.0000000000028
 73
     0
 72
     1
 10
125.7440308358783
 20
154.968733484788
 11
127.0678893276676
 21
155.7330635413916
 72
     2
 10
126.9531740403974
 20
155.8968939502494
 40
0.1999999999999988
 50
305.0000000000026
 51
450.0
 73
     1
 72
     1
 10
126.9531740403974
 20
156.0968939502494
 11
125.8440308358783
 21
156.0968939502494
 72
     2
 10
125.8440308358783
 20
156.2968939502494
 40
0.1999999999999988
 50
90.0
 51
180.0
 73
     0
 72
     1
 10
125.6440308358783
 20
156.2968939502494
 11
125.6440308358783
 21
165.5968939502494
 72
     2
 10
125.8440308358784
 20
165.5968939502494
 40
0.1999999999999988
 50
180.0
 51
269.9999999999919
 73
     0
 72
     1
 10
125.8440308358783
 20
165.7968939502494
 11
135.4440308358783
 21
165.7968939502493
 72
     2
 10
135.4440308358783
 20
165.5968939502494
 40
0.1999999999999988
 50
270.0
 51
360.0
 73
     0
 72
     1
 10
135.6440308358783
 20
165.5968939502494
 11
135.6440308358783
 21
156.2968939502494
 72
     2
 10
135.4440308358783
 20
156.2968939502494
 40
0.1999999999999988
 50
0.0
 51
90.0
 73
     0
 72
     1
 10
135.4440308358783
 20
156.0968939502494
 11
134.3348876313592
 21
156.0968939502494
 72
     2
 10
134.3348876313593
 20
155.8968939502494
 40
0.1999999999999992
 50
90.0
 51
234.9999999999941
 73
     1
 72
     1
 10
134.220172344089
 20
155.7330635413916
 11
135.5440308358783
 21
154.968733484788
 72
     2
 10
135.4440308358783
 20
154.7955284040312
 40
0.2000000000000023
 50
300.0000000000008
 51
360.0
 73
     0
 72
     1
 10
135.6440308358783
 20
154.7955284040312
 11
135.6440308358783
 21
146.8968939502494
 72
     2
 10
136.0440308358783
 20
146.8968939502494
 40
0.3999999999999976
 50
180.0
 51
270.0
 73
     1
 72
     1
 10
136.0440308358783
 20
146.4968939502493
 11
136.2440308358783
 21
146.4968939502494
 72
     2
 10
136.2440308358783
 20
146.8968939502494
 40
0.3999999999999976
 50
270.0
 51
360.0
 73
     1
 72
     1
 10
136.6440308358783
 20
146.8968939502494
 11
136.6440308358783
 21
154.0968939502494
 72
     2
 10
136.8440308358783
 20
154.0968939502494
 40
0.1999999999999988
 50
180.0
 51
270.0
 73
     0
 72
     1
 10
136.8440308358783
 20
154.2968939502494
 11
142.4440308358783
 21
154.2968939502493
 72
     2
 10
142.4440308358784
 20
154.4968939502494
 40
0.1999999999999988
 50
270.0
 51
360.0
 73
     1
 72
     1
 10
142.6440308358783
 20
154.4968939502494
 11
142.6440308358783
 21
155.0968939502494
 72
     2
 10
142.4440308358784
 20
155.0968939502494
 40
0.1999999999999988
 50
0.0
 51
90.0
 73
     1
 72
     1
 10
142.4440308358784
 20
155.2968939502494
 11
136.8440308358784
 21
155.2968939502494
 72
     2
 10
136.8440308358784
 20
155.4968939502494
 40
0.2000000000000023
 50
90.0
 51
180.0
 73
     0
 72
     1
 10
136.6440308358783
 20
155.4968939502494
 11
136.6440308358783
 21
166.3968939502494
 72
     2
 10
136.2440308358784
 20
166.3968939502494
 40
0.400000000000001
 50
0.0
 51
90.0
 73
     1
 97
        0
 75
     0
 76
     1
 98
        0
  0
HATCH
  5
13E
330
13A
100
AcDbEntity
  8
DV2_Füllung
  6
Continuous
 62
     7
100
AcDbHatch
 10
0.0
 20
0.0
 30
0.0
210
0.0
220
0.0
230
1.0
  2
SOLID
 70
     1
 71
     0
 91
        1
 92
        1
 93
       68
 72
     2
 10
131.7681209861094
 20
150.2401726462957
 40
0.5000000000000004
 50
90.0
 51
180.0
 73
     0
 72
     1
 10
131.2681209861094
 20
150.2401726462957
 11
131.2681209861094
 21
152.0401839570872
 72
     2
 10
131.7681209861094
 20
152.0401839570872
 40
0.5000000000000004
 50
180.0
 51
270.0
 73
     0
 72
     1
 10
131.7681209861094
 20
152.5401839570872
 11
132.7672979525636
 21
152.5401839570872
 72
     1
 10
132.7672979525636
 20
152.5401839570872
 11
132.7689555139811
 21
152.5401839570872
 72
     1
 10
132.7689555139811
 20
152.5401839570872
 11
133.3727957942328
 21
152.5401839570872
 72
     2
 10
133.3727957942328
 20
152.3401839570872
 40
0.1999999999999988
 50
270.0
 51
310.4549754993664
 73
     0
 72
     1
 10
133.5025658544841
 20
152.4923671738438
 11
133.8418062214587
 21
152.2030892639651
 72
     2
 10
133.9334504190024
 20
152.3808569242876
 40
0.199999999999999
 50
242.7276294579187
 51
297.8758291659044
 73
     1
 72
     1
 10
134.0269618083426
 20
152.2040643337651
 11
135.0408220386518
 21
153.4123359056287
 72
     2
 10
135.1940309272758
 20
153.2837783836916
 40
0.1999999999999988
 50
219.9999999999059
 51
299.6122067901044
 73
     0
 72
     1
 10
135.2928563472995
 20
153.4576563189138
 11
135.3861539838985
 21
153.5509539555113
 72
     2
 10
135.2447326276623
 20
153.6923753117497
 40
0.1999999999999978
 50
314.9999999995624
 51
359.9942488120887
 73
     1
 72
     1
 10
135.4447326266547
 20
153.6923552363168
 11
135.4448448637
 21
154.8105084025598
 72
     2
 10
135.2448448647075
 20
154.8105284779928
 40
0.1999999999999977
 50
359.9942488120887
 51
419.9999999999992
 73
     1
 72
     1
 10
135.3448448647075
 20
154.9837335587496
 11
133.9828199136363
 21
155.7700990308936
 72
     2
 10
133.8828199136363
 20
155.5968939501367
 40
0.2000000000000034
 50
59.99999999999218
 51
90.0
 73
     1
 72
     1
 10
133.8828199136363
 20
155.7968939501367
 11
133.2440308358783
 21
155.7968939501367
 72
     2
 10
133.2440308358783
 20
155.5968939501367
 40
0.1999999999999988
 50
90.0
 51
180.0
 73
     1
 72
     1
 10
133.0440308358783
 20
155.5968939501367
 11
133.0440308358783
 21
155.0968939502494
 72
     2
 10
133.2440308358783
 20
155.0968939502494
 40
0.1999999999999988
 50
180.0
 51
270.0
 73
     1
 72
     1
 10
133.2440308358783
 20
154.8968939502494
 11
133.8440308358872
 21
154.8968939502494
 72
     2
 10
133.8440308358872
 20
154.6968939502582
 40
0.1999999999911448
 50
270.0
 51
360.0
 73
     0
 72
     1
 10
134.0440308358783
 20
154.6968939502582
 11
134.0440308358783
 21
153.7968939502493
 72
     2
 10
133.8440308358783
 20
153.7968939502494
 40
0.1999999999999988
 50
0.0
 51
90.0
 73
     0
 72
     1
 10
133.8440308358783
 20
153.5968939502494
 11
127.4440308358783
 21
153.5968939502494
 72
     2
 10
127.4440308358783
 20
153.7968939502494
 40
0.1999999999999988
 50
90.0
 51
180.0
 73
     0
 72
     1
 10
127.2440308358783
 20
153.7968939502494
 11
127.2440308358783
 21
154.6968939502647
 72
     2
 10
127.4440308358695
 20
154.6968939502647
 40
0.1999999999911448
 50
180.0
 51
270.0
 73
     0
 72
     1
 10
127.4440308358695
 20
154.8968939502559
 11
128.0440308358617
 21
154.8968939502559
 72
     2
 10
128.0440308358682
 20
155.0968939502494
 40
0.199999999993497
 50
269.9999999981436
 51
360.0
 73
     1
 72
     1
 10
128.2440308358617
 20
155.0968939502494
 11
128.2440308358617
 21
155.5968939501367
 72
     2
 10
128.0440308358552
 20
155.5968939501367
 40
0.200000000006504
 50
0.0
 51
89.99999999896593
 73
     1
 72
     1
 10
128.0440308358588
 20
155.7968939501432
 11
127.4052417581157
 21
155.796893950134
 72
     2
 10
127.4052417581186
 20
155.596893950134
 40
0.2000000000000023
 50
90.00000000082643
 51
120.0000000007193
 73
     1
 72
     1
 10
127.3052417581164
 20
155.7700990308897
 11
125.943211013112
 21
154.9837302135942
 72
     2
 10
126.0432110131142
 20
154.8105251328386
 40
0.199999999999999
 50
120.0000000007117
 51
180.0
 73
     1
 72
     1
 10
125.8432110131142
 20
154.8105251328386
 11
125.8432110131142
 21
153.6924933427315
 72
     2
 10
126.0432110131142
 20
153.6924933427314
 40
0.1999999999999988
 50
180.0
 51
224.9999999999943
 73
     1
 72
     1
 10
125.9017896568769
 20
153.5510719864942
 11
125.9952053244567
 21
153.4576563189143
 72
     2
 10
126.0940307444809
 20
153.2837783836923
 40
0.1999999999999992
 50
240.3877932097532
 51
320.0000000001181
 73
     0
 72
     1
 10
126.2472396331049
 20
153.4123359056293
 11
127.2610998634358
 21
152.2040643337393
 72
     2
 10
127.3546112527454
 20
152.380856924278
 40
0.2000000000000002
 50
242.124170844028
 51
297.2723705456245
 73
     1
 72
     1
 10
127.4462554503001
 20
152.203089263961
 11
127.7854958172726
 21
152.4923671738437
 72
     2
 10
127.9152658775253
 20
152.3401839570884
 40
0.1999999999999994
 50
229.5450245000613
 51
270.0
 73
     0
 72
     1
 10
127.9152658775253
 20
152.5401839570885
 11
128.5191061599377
 21
152.5401839570885
 72
     1
 10
128.5191061599377
 20
152.5401839570885
 11
128.5207637170309
 21
152.5401839570885
 72
     1
 10
128.5207637170309
 20
152.5401839570885
 11
129.5199406856472
 21
152.5401839570885
 72
     2
 10
129.5199406856472
 20
152.0401839570885
 40
0.5000000000000004
 50
270.0
 51
360.0
 73
     0
 72
     1
 10
130.0199406856472
 20
152.0401839570885
 11
130.0199406856472
 21
150.2401726462957
 72
     2
 10
129.5199406856472
 20
150.2401726462957
 40
0.5000000000000004
 50
0.0
 51
90.0
 73
     0
 72
     1
 10
129.5199406856472
 20
149.7401726462957
 11
127.9052658775253
 21
149.7401726462957
 72
     2
 10
127.9052658775254
 20
149.9401726462957
 40
0.1999999999999988
 50
90.0
 51
139.9999999999988
 73
     0
 72
     1
 10
127.7520569889015
 20
149.8116151243584
 11
127.3240452018303
 21
150.3216997092732
 72
     2
 10
127.1708363132065
 20
150.1931421873358
 40
0.1999999999999987
 50
39.99999999999498
 51
113.9481997803308
 73
     1
 72
     2
 10
127.2926094796396
 20
149.9189683447891
 40
0.5000000000000017
 50
113.9481997803279
 51
168.5217120109322
 73
     1
 72
     1
 10
126.802609387661
 20
150.018466635533
 11
126.802609387661
 21
148.8744525869204
 72
     2
 10
126.9926094796396
 20
148.9369022870648
 40
0.2000000000000023
 50
198.19478795128
 51
270.0
 73
     1
 72
     1
 10
126.9926094796396
 20
148.7369022870648
 11
130.4440308358783
 21
148.7369022870648
 72
     2
 10
130.6440308358783
 20
148.7369022870648
 40
0.1999999999999988
 50
180.0
 51
360.0
 73
     0
 72
     1
 10
130.8440308358783
 20
148.7369022870648
 11
134.2954521921171
 21
148.7369022870648
 72
     2
 10
134.2954521921171
 20
148.9369022870648
 40
0.1999999999999988
 50
270.0
 51
341.8052120487277
 73
     1
 72
     1
 10
134.4854522840957
 20
148.8744525869204
 11
134.4854522840957
 21
150.0184666355329
 72
     2
 10
133.9954521921171
 20
149.9189683447891
 40
0.499999999999997
 50
11.47828798906114
 51
66.05180021967661
 73
     1
 72
     2
 10
134.1172253585501
 20
150.1931421873358
 40
0.2000000000000001
 50
66.05180021968371
 51
140.0000000000024
 73
     1
 72
     1
 10
133.9640164699263
 20
150.3216997092731
 11
133.5360046828551
 21
149.8116151243583
 72
     2
 10
133.3827957942313
 20
149.9401726462957
 40
0.2000000000000014
 50
40.00000000000382
 51
90.0
 73
     0
 72
     1
 10
133.3827957942313
 20
149.7401726462957
 11
131.7681209861094
 21
149.7401726462957
 97
        0
 75
     0
 76
     1
 98
        0
  0
HATCH
  5
13F
330
13A
100
AcDbEntity
  8
DV2_Füllung
  6
Continuous
 62
     7
100
AcDbHatch
 10
0.0
 20
0.0
 30
0.0
210
0.0
220
0.0
230
1.0
  2
SOLID
 70
     1
 71
     0
 91
        2
 92
        1
 93
        1
 72
     3
 10
130.6940308358785
 20
160.4635599907669
 11
4.6
 21
0.0
 40
1.0
 50
0.0
 51
360.0
 73
     1
 97
        0
 92
        1
 93
       16
 72
     1
 10
127.7359909443287
 20
159.9635599907669
 11
129.1940308358785
 21
159.9635599907669
 72
     2
 10
129.1940308358785
 20
158.9635599907669
 40
0.9999999999999996
 50
270.0
 51
360.0
 73
     0
 72
     1
 10
130.1940308358785
 20
158.9635599907669
 11
130.1940308358785
 21
157.5055200992171
 72
     2
 10
130.6940308358785
 20
160.4635599907669
 40
2.999999999999997
 50
260.4059317731396
 51
279.5940682268604
 73
     1
 72
     1
 10
131.1940308358785
 20
157.5055200992171
 11
131.1940308358785
 21
158.9635599907669
 72
     2
 10
132.1940308358785
 20
158.9635599907669
 40
1.000000000000005
 50
180.0
 51
270.0
 73
     0
 72
     1
 10
132.1940308358785
 20
159.9635599907669
 11
133.6520707274283
 21
159.9635599907669
 72
     2
 10
130.6940308358785
 20
160.4635599907669
 40
3.000000000000001
 50
350.4059317731396
 51
369.5940682268604
 73
     1
 72
     1
 10
133.6520707274283
 20
160.9635599907669
 11
132.1940308358785
 21
160.9635599907669
 72
     2
 10
132.1940308358785
 20
161.9635599907669
 40
1.000000000000006
 50
90.0
 51
180.0
 73
     0
 72
     1
 10
131.1940308358785
 20
161.9635599907669
 11
131.1940308358785
 21
163.4215998823167
 72
     2
 10
130.6940308358785
 20
160.4635599907669
 40
3.0
 50
80.40593177313947
 51
99.59406822686053
 73
     1
 72
     1
 10
130.1940308358785
 20
163.4215998823167
 11
130.1940308358785
 21
161.9635599907669
 72
     2
 10
129.1940308358785
 20
161.9635599907669
 40
1.000000000000004
 50
0.0
 51
90.0
 73
     0
 72
     1
 10
129.1940308358785
 20
160.9635599907669
 11
127.7359909443287
 21
160.9635599907669
 72
     2
 10
130.6940308358785
 20
160.4635599907669
 40
3.0
 50
170.4059317731395
 51
189.5940682268605
 73
     1
 97
        0
 75
     0
 76
     1
 98
        0
  0
HATCH
  5
140
330
13A
100
AcDbEntity
  8
DV2_Füllung
  6
Continuous
 62
     7
100
AcDbHatch
 10
0.0
 20
0.0
 30
0.0
210
0.0
220
0.0
230
1.0
  2
SOLID
 70
     1
 71
     0
 91
        1
 92
        1
 93
       16
 72
     2
 10
129.1940308358785
 20
158.9635599907669
 40
0.9999999999999996
 50
270.0
 51
360.0
 73
     0
 72
     1
 10
130.1940308358785
 20
158.9635599907669
 11
130.1940308358785
 21
157.5055200992171
 72
     2
 10
130.6940308358785
 20
160.4635599907669
 40
2.999999999999997
 50
260.4059317731396
 51
279.5940682268604
 73
     1
 72
     1
 10
131.1940308358785
 20
157.5055200992171
 11
131.1940308358785
 21
158.9635599907669
 72
     2
 10
132.1940308358785
 20
158.9635599907669
 40
1.000000000000005
 50
180.0
 51
270.0
 73
     0
 72
     1
 10
132.1940308358785
 20
159.9635599907669
 11
133.6520707274283
 21
159.9635599907669
 72
     2
 10
130.6940308358785
 20
160.4635599907669
 40
3.000000000000001
 50
350.4059317731396
 51
369.5940682268604
 73
     1
 72
     1
 10
133.6520707274283
 20
160.9635599907669
 11
132.1940308358785
 21
160.9635599907669
 72
     2
 10
132.1940308358785
 20
161.9635599907669
 40
1.000000000000006
 50
90.0
 51
180.0
 73
     0
 72
     1
 10
131.1940308358785
 20
161.9635599907669
 11
131.1940308358785
 21
163.4215998823167
 72
     2
 10
130.6940308358785
 20
160.4635599907669
 40
3.0
 50
80.40593177313947
 51
99.59406822686053
 73
     1
 72
     1
 10
130.1940308358785
 20
163.4215998823167
 11
130.1940308358785
 21
161.9635599907669
 72
     2
 10
129.1940308358785
 20
161.9635599907669
 40
1.000000000000004
 50
0.0
 51
90.0
 73
     0
 72
     1
 10
129.1940308358785
 20
160.9635599907669
 11
127.7359909443287
 21
160.9635599907669
 72
     2
 10
130.6940308358785
 20
160.4635599907669
 40
3.0
 50
170.4059317731395
 51
189.5940682268605
 73
     1
 72
     1
 10
127.7359909443287
 20
159.9635599907669
 11
129.1940308358785
 21
159.9635599907669
 97
        0
 75
     0
 76
     1
 98
        0
  0
HATCH
  5
141
330
13A
100
AcDbEntity
  8
DV2_Füllung
  6
Continuous
 62
     7
100
AcDbHatch
 10
0.0
 20
0.0
 30
0.0
210
0.0
220
0.0
230
1.0
  2
SOLID
 70
     1
 71
     0
 91
        1
 92
        1
 93
       52
 72
     1
 10
131.6574421001415
 20
150.7793921650994
 11
132.1187200520336
 21
150.0636377844099
 72
     2
 10
132.7071145294927
 20
150.442836859944
 40
0.6999999999930412
 50
212.8003241014182
 51
264.999778902698
 73
     1
 72
     2
 10
132.7681267332723
 20
151.1401785470578
 40
1.400005655396388
 50
264.9997789026994
 51
332.7835579786765
 73
     1
 72
     2
 10
134.2354522839911
 20
150.3855432766171
 40
0.250000000104593
 50
207.2164420213173
 51
360.0
 73
     0
 72
     1
 10
134.4854522840957
 20
150.3855432766171
 11
134.4854522840957
 21
147.6842600872494
 72
     2
 10
134.7354522840957
 20
147.6842600872493
 40
0.2500000000000037
 50
180.0
 51
244.9654816810922
 73
     1
 72
     2
 10
134.523870185278
 20
147.2312335808908
 40
0.2500000000036746
 50
295.034518313411
 51
492.6490014438439
 73
     0
 72
     2
 10
134.2189928186572
 20
146.9002505128562
 40
0.1999999999998766
 50
47.35099856167122
 51
110.8212456664203
 73
     1
 72
     1
 10
134.1479021031105
 20
147.0871893000648
 11
133.1901824162441
 21
146.7229792886002
 72
     2
 10
133.082753331168
 20
146.8916772188772
 40
0.1999999999999982
 50
57.51047380666932
 51
125.5198841389364
 73
     0
 72
     2
 10
132.6642920472693
 20
146.3054465830566
 40
0.5202612057419722
 50
54.48011586106779
 51
140.7859386035684
 73
     1
 72
     2
 10
132.1062413328081
 20
146.7608097398734
 40
0.2000000000000015
 50
39.21406139642571
 51
129.6210706833425
 73
     0
 72
     2
 10
131.6442408625625
 20
146.2027650789123
 40
0.5244710333300955
 50
50.37892931665563
 51
135.4620560819083
 73
     1
 72
     2
 10
131.1278479669561
 20
146.7108956285761
 40
0.2000000000000015
 50
44.53794391809664
 51
132.4712256761301
 73
     0
 72
     2
 10
130.6512852827578
 20
146.190294064846
 40
0.5057889062096297
 50
47.52877432386683
 51
134.1394909016399
 73
     1
 72
     2
 10
130.166732602484
 20
146.6896245185977
 40
0.1900000000000028
 50
45.86050909835176
 51
137.0447905257904
 73
     0
 72
     2
 10
129.6438208092715
 20
146.2027650789366
 40
0.5244710333300915
 50
42.95520947420807
 51
129.6210712194963
 73
     1
 72
     2
 10
129.1818203338043
 20
146.7608097355749
 40
0.2000000000000008
 50
50.37892878062502
 51
140.7859372454751
 73
     0
 72
     2
 10
128.6237696301367
 20
146.3054465655303
 40
0.520261205741981
 50
39.21406275453394
 51
125.5198836949195
 73
     1
 72
     2
 10
128.2053083507811
 20
146.8916772045936
 40
0.1999999999996733
 50
54.48011630507994
 51
111.0275745718371
 73
     0
 72
     1
 10
128.1335449088731
 20
146.704995635055
 11
127.1405858938957
 21
147.0867052851534
 72
     2
 10
127.0688224519876
 20
146.9000237156145
 40
0.2
 50
68.97242542815785
 51
132.6063620732203
 73
     1
 72
     2
 10
126.7641914864989
 20
147.2312335809045
 40
0.2500000000000007
 50
47.39363792677894
 51
248.9568257789458
 73
     0
 72
     2
 10
126.602609387661
 20
147.651223134745
 40
0.2
 50
291.0431742210497
 51
360.0
 73
     1
 72
     1
 10
126.802609387661
 20
147.651223134745
 11
126.802609387661
 21
150.385543276617
 72
     2
 10
127.0526093877656
 20
150.3855432766171
 40
0.2500000001045971
 50
180.0
 51
332.7835579786827
 73
     0
 72
     2
 10
128.5199349384843
 20
151.1401785470578
 40
1.400005655396394
 50
207.2164420213256
 51
275.0002210973018
 73
     1
 72
     2
 10
128.580947142264
 20
150.442836859944
 40
0.6999999999930374
 50
275.0002210973042
 51
327.1996758985817
 73
     1
 72
     1
 10
129.1693416197231
 20
150.0636377844099
 11
129.6306195716152
 21
150.7793921650994
 72
     2
 10
128.8741123863032
 20
151.2669338336481
 40
0.9000000000000007
 50
327.1996758985796
 51
408.1023087938024
 73
     1
 72
     1
 10
129.4751346922029
 20
151.9368384446271
 11
128.9056678008919
 21
152.4477504439477
 72
     2
 10
128.7053270322606
 20
152.2244489069568
 40
0.2999999999970873
 50
48.10230879380174
 51
80.29720868118437
 73
     1
 72
     2
 10
128.5199349384843
 20
151.1401785470578
 40
1.400005655341844
 50
80.29720868089302
 51
89.96608191155129
 73
     1
 72
     1
 10
128.5207637170309
 20
152.5401839570885
 11
128.5191061599377
 21
152.5401839570885
 72
     2
 10
128.5199349384843
 20
151.1401785470578
 40
1.400005655341844
 50
90.03391808844756
 51
129.9584603724463
 73
     1
 72
     2
 10
127.4297704075716
 20
152.3745586521092
 40
0.2500000000000019
 50
40.16909429344116
 51
122.7854182639905
 73
     0
 72
     1
 10
127.2943968402901
 20
152.1643825419505
 11
126.2472396331049
 21
153.4123359056293
 72
     2
 10
126.0940307444809
 20
153.2837783836923
 40
0.1999999999999992
 50
39.99999999988189
 51
180.0
 73
     1
 72
     1
 10
125.8940307444809
 20
153.2837783836923
 11
125.8940307444809
 21
147.2008174482455
 72
     2
 10
126.6940307444807
 20
147.2008174482455
 40
0.799999999999794
 50
180.0
 51
265.6062790803364
 73
     1
 72
     2
 10
130.644030840078
 20
162.0275288973042
 40
16.13105909995037
 50
255.6012591460558
 51
284.3987408219502
 73
     1
 72
     2
 10
134.5940309272758
 20
147.2008174460308
 40
0.7999999999999209
 50
274.3937208963067
 51
360.0
 73
     1
 72
     1
 10
135.3940309272757
 20
147.2008174460308
 11
135.3940309272758
 21
153.2837783836916
 72
     2
 10
135.1940309272758
 20
153.2837783836916
 40
0.1999999999999988
 50
0.0
 51
140.0000000000942
 73
     1
 72
     1
 10
135.0408220386518
 20
153.4123359056287
 11
133.9936648314666
 21
152.1643825419505
 72
     2
 10
133.8582912641851
 20
152.3745586521092
 40
0.25
 50
57.21458173601224
 51
139.830905706568
 73
     0
 72
     2
 10
132.7681267332723
 20
151.1401785470578
 40
1.400005655341845
 50
50.04153962755241
 51
89.96608182306547
 73
     1
 72
     1
 10
132.7689555139811
 20
152.5401839570872
 11
132.7672979525636
 21
152.5401839570872
 72
     2
 10
132.7681267332723
 20
151.1401785470578
 40
1.400005655341845
 50
90.03391817693338
 51
99.70279131910586
 73
     1
 72
     2
 10
132.5827346394961
 20
152.2244489069568
 40
0.2999999999970863
 50
99.70279131881028
 51
131.8976912061983
 73
     1
 72
     1
 10
132.3823938708647
 20
152.4477504439477
 11
131.8129269795537
 21
151.9368384446271
 72
     2
 10
132.4139492854536
 20
151.2669338336481
 40
0.9000000000000001
 50
131.897691206199
 51
212.8003241014184
 73
     1
 97
        0
 75
     0
 76
     1
 98
        0
  0
CIRCLE
  5
142
330
13A
100
AcDbEntity
  8
10472_AUSLÖSERKN
  6
Continuous
 62
     7
100
AcDbCircle
 10
130.6940308359
 20
160.4635599908
 30
0.0
 40
4.6
  0
ARC
  5
143
330
13A
100
AcDbEntity
  8
10472_AUSLÖSERKN
  6
Continuous
 62
     7
100
AcDbCircle
 10
130.6940308359
 20
160.4635599908
 30
0.0
 40
2.999999999999997
100
AcDbArc
 50
260.4059317731
 51
279.5940682269
  0
ARC
  5
144
330
13A
100
AcDbEntity
  8
10472_AUSLÖSERKN
  6
Continuous
 62
     7
100
AcDbCircle
 10
130.6940308359
 20
160.4635599908
 30
0.0
 40
3.000000000000001
100
AcDbArc
 50
350.4059317731
 51
9.5940682269
  0
ARC
  5
145
330
13A
100
AcDbEntity
  8
10472_AUSLÖSERKN
  6
Continuous
 62
     7
100
AcDbCircle
 10
130.6940308359
 20
160.4635599908
 30
0.0
 40
3.0
100
AcDbArc
 50
80.4059317731
 51
99.5940682269
  0
ARC
  5
146
330
13A
100
AcDbEntity
  8
10472_AUSLÖSERKN
  6
Continuous
 62
     7
100
AcDbCircle
 10
130.6940308359
 20
160.4635599908
 30
0.0
 40
3.0
100
AcDbArc
 50
170.4059317731
 51
189.5940682269
  0
LINE
  5
147
330
13A
100
AcDbEntity
  8
10472_AUSLÖSERKN
  6
Continuous
 62
     7
100
AcDbLine
 10
127.7359909443
 20
160.9635599908
 30
0.0
 11
129.1940308359
 21
160.9635599908
 31
0.0
  0
LINE
  5
148
330
13A
100
AcDbEntity
  8
10472_AUSLÖSERKN
  6
Continuous
 62
     7
100
AcDbLine
 10
131.1940308359
 20
163.4215998823
 30
0.0
 11
131.1940308359
 21
161.9635599908
 31
0.0
  0
LINE
  5
149
330
13A
100
AcDbEntity
  8
10472_AUSLÖSERKN
  6
Continuous
 62
     7
100
AcDbLine
 10
133.6520707274
 20
159.9635599908
 30
0.0
 11
132.1940308359
 21
159.9635599908
 31
0.0
  0
LINE
  5
14A
330
13A
100
AcDbEntity
  8
10472_AUSLÖSERKN
  6
Continuous
 62
     7
100
AcDbLine
 10
130.1940308359
 20
157.5055200992
 30
0.0
 11
130.1940308359
 21
158.9635599908
 31
0.0
  0
LINE
  5
14B
330
13A
100
AcDbEntity
  8
10472_AUSLÖSERKN
  6
Continuous
 62
     7
100
AcDbLine
 10
129.1940308359
 20
159.9635599908
 30
0.0
 11
127.7359909443
 21
159.9635599908
 31
0.0
  0
ARC
  5
14C
330
13A
100
AcDbEntity
  8
10472_AUSLÖSERKN
  6
Continuous
 62
     7
100
AcDbCircle
 10
129.1940308359
 20
158.9635599908
 30
0.0
 40
0.9999999999999996
100
AcDbArc
 50
0.0
 51
90.0
  0
LINE
  5
14D
330
13A
100
AcDbEntity
  8
10472_AUSLÖSERKN
  6
Continuous
 62
     7
100
AcDbLine
 10
131.1940308359
 20
158.9635599908
 30
0.0
 11
131.1940308359
 21
157.5055201077
 31
0.0
  0
ARC
  5
14E
330
13A
100
AcDbEntity
  8
10472_AUSLÖSERKN
  6
Continuous
 62
     7
100
AcDbCircle
 10
132.1940308359
 20
158.9635599908
 30
0.0
 40
1.000000000000005
100
AcDbArc
 50
90.0
 51
180.0
  0
LINE
  5
14F
330
13A
100
AcDbEntity
  8
10472_AUSLÖSERKN
  6
Continuous
 62
     7
100
AcDbLine
 10
132.1940308359
 20
160.9635599908
 30
0.0
 11
133.6520706775
 21
160.9635599908
 31
0.0
  0
ARC
  5
150
330
13A
100
AcDbEntity
  8
10472_AUSLÖSERKN
  6
Continuous
 62
     7
100
AcDbCircle
 10
132.1940308359
 20
161.9635599908
 30
0.0
 40
1.000000000000006
100
AcDbArc
 50
180.0
 51
270.0
  0
LINE
  5
151
330
13A
100
AcDbEntity
  8
10472_AUSLÖSERKN
  6
Continuous
 62
     7
100
AcDbLine
 10
130.1940308359
 20
161.9635599908
 30
0.0
 11
130.1940308359
 21
163.4215998908
 31
0.0
  0
ARC
  5
152
330
13A
100
AcDbEntity
  8
10472_AUSLÖSERKN
  6
Continuous
 62
     7
100
AcDbCircle
 10
129.1940308359
 20
161.9635599908
 30
0.0
 40
1.000000000000004
100
AcDbArc
 50
270.0
 51
0.0
  0
ARC
  5
153
330
13A
100
AcDbEntity
  8
11113_AUSSENPROF
  6
Continuous
 62
     7
100
AcDbCircle
 10
126.9531740404
 20
155.8968939502
 30
0.0
 40
0.1999999999999988
100
AcDbArc
 50
305.0
 51
90.0
  0
LINE
  5
154
330
13A
100
AcDbEntity
  8
11113_AUSSENPROF
  6
Continuous
 62
     7
100
AcDbLine
 10
127.0678893277
 20
155.7330635414
 30
0.0
 11
125.7440308359
 21
154.9687334848
 31
0.0
  0
ARC
  5
155
330
13A
100
AcDbEntity
  8
11113_AUSSENPROF
  6
Continuous
 62
     7
100
AcDbCircle
 10
125.8440308359
 20
154.795528404
 30
0.0
 40
0.1999999999999986
100
AcDbArc
 50
120.0
 51
180.0
  0
LINE
  5
156
330
13A
100
AcDbEntity
  8
11113_AUSSENPROF
  6
Continuous
 62
     7
100
AcDbLine
 10
125.6440308359
 20
154.795528404
 30
0.0
 11
125.6440308359
 21
146.8968939502
 31
0.0
  0
ARC
  5
157
330
13A
100
AcDbEntity
  8
11113_AUSSENPROF
  6
Continuous
 62
     7
100
AcDbCircle
 10
125.2440308359
 20
146.8968939502
 30
0.0
 40
0.3999999999999976
100
AcDbArc
 50
270.0
 51
0.0
  0
LINE
  5
158
330
13A
100
AcDbEntity
  8
11113_AUSSENPROF
  6
Continuous
 62
     7
100
AcDbLine
 10
125.2440308359
 20
146.4968939502
 30
0.0
 11
125.0440308359
 21
146.4968939502
 31
0.0
  0
ARC
  5
159
330
13A
100
AcDbEntity
  8
11113_AUSSENPROF
  6
Continuous
 62
     7
100
AcDbCircle
 10
125.0440308359
 20
146.8968939502
 30
0.0
 40
0.3999999999999976
100
AcDbArc
 50
180.0
 51
270.0
  0
LINE
  5
15A
330
13A
100
AcDbEntity
  8
11113_AUSSENPROF
  6
Continuous
 62
     7
100
AcDbLine
 10
124.6440308359
 20
146.8968939502
 30
0.0
 11
124.6440308359
 21
154.0968939502
 31
0.0
  0
ARC
  5
15B
330
13A
100
AcDbEntity
  8
11113_AUSSENPROF
  6
Continuous
 62
     7
100
AcDbCircle
 10
124.4440308359
 20
154.0968939502
 30
0.0
 40
0.1999999999999988
100
AcDbArc
 50
0.0
 51
90.0
  0
LINE
  5
15C
330
13A
100
AcDbEntity
  8
11113_AUSSENPROF
  6
Continuous
 62
     7
100
AcDbLine
 10
124.4440308359
 20
154.2968939502
 30
0.0
 11
118.8440308359
 21
154.2968939502
 31
0.0
  0
ARC
  5
15D
330
13A
100
AcDbEntity
  8
11113_AUSSENPROF
  6
Continuous
 62
     7
100
AcDbCircle
 10
118.8440308359
 20
154.4968939502
 30
0.0
 40
0.2000000000000023
100
AcDbArc
 50
180.0
 51
270.0
  0
LINE
  5
15E
330
13A
100
AcDbEntity
  8
11113_AUSSENPROF
  6
Continuous
 62
     7
100
AcDbLine
 10
118.6440308359
 20
154.4968939502
 30
0.0
 11
118.6440308359
 21
155.0968939502
 31
0.0
  0
ARC
  5
15F
330
13A
100
AcDbEntity
  8
11113_AUSSENPROF
  6
Continuous
 62
     7
100
AcDbCircle
 10
118.8440308359
 20
155.0968939502
 30
0.0
 40
0.2000000000000005
100
AcDbArc
 50
90.0
 51
180.0
  0
LINE
  5
160
330
13A
100
AcDbEntity
  8
11113_AUSSENPROF
  6
Continuous
 62
     7
100
AcDbLine
 10
118.8440308359
 20
155.2968939502
 30
0.0
 11
124.4440308359
 21
155.2968939502
 31
0.0
  0
ARC
  5
161
330
13A
100
AcDbEntity
  8
11113_AUSSENPROF
  6
Continuous
 62
     7
100
AcDbCircle
 10
124.4440308359
 20
155.4968939502
 30
0.0
 40
0.1999999999999988
100
AcDbArc
 50
270.0
 51
360.0
  0
LINE
  5
162
330
13A
100
AcDbEntity
  8
11113_AUSSENPROF
  6
Continuous
 62
     7
100
AcDbLine
 10
124.6440308359
 20
155.4968939502
 30
0.0
 11
124.6440308359
 21
166.3968939502
 31
0.0
  0
ARC
  5
163
330
13A
100
AcDbEntity
  8
11113_AUSSENPROF
  6
Continuous
 62
     7
100
AcDbCircle
 10
125.0440308359
 20
166.3968939502
 30
0.0
 40
0.3999999999999976
100
AcDbArc
 50
90.0
 51
180.0
  0
LINE
  5
164
330
13A
100
AcDbEntity
  8
11113_AUSSENPROF
  6
Continuous
 62
     7
100
AcDbLine
 10
125.0440308359
 20
166.7968939502
 30
0.0
 11
136.2440308359
 21
166.7968939502
 31
0.0
  0
ARC
  5
165
330
13A
100
AcDbEntity
  8
11113_AUSSENPROF
  6
Continuous
 62
     7
100
AcDbCircle
 10
136.2440308359
 20
166.3968939502
 30
0.0
 40
0.400000000000001
100
AcDbArc
 50
0.0
 51
90.0
  0
LINE
  5
166
330
13A
100
AcDbEntity
  8
11113_AUSSENPROF
  6
Continuous
 62
     7
100
AcDbLine
 10
136.6440308359
 20
166.3968939502
 30
0.0
 11
136.6440308359
 21
155.4968939502
 31
0.0
  0
ARC
  5
167
330
13A
100
AcDbEntity
  8
11113_AUSSENPROF
  6
Continuous
 62
     7
100
AcDbCircle
 10
136.8440308359
 20
155.4968939502
 30
0.0
 40
0.2000000000000023
100
AcDbArc
 50
180.0
 51
270.0
  0
LINE
  5
168
330
13A
100
AcDbEntity
  8
11113_AUSSENPROF
  6
Continuous
 62
     7
100
AcDbLine
 10
136.8440308359
 20
155.2968939502
 30
0.0
 11
142.4440308359
 21
155.2968939502
 31
0.0
  0
ARC
  5
169
330
13A
100
AcDbEntity
  8
11113_AUSSENPROF
  6
Continuous
 62
     7
100
AcDbCircle
 10
142.4440308359
 20
155.0968939502
 30
0.0
 40
0.1999999999999988
100
AcDbArc
 50
0.0
 51
90.0
  0
LINE
  5
16A
330
13A
100
AcDbEntity
  8
11113_AUSSENPROF
  6
Continuous
 62
     7
100
AcDbLine
 10
142.6440308359
 20
155.0968939502
 30
0.0
 11
142.6440308359
 21
154.4968939502
 31
0.0
  0
ARC
  5
16B
330
13A
100
AcDbEntity
  8
11113_AUSSENPROF
  6
Continuous
 62
     7
100
AcDbCircle
 10
142.4440308359
 20
154.4968939502
 30
0.0
 40
0.1999999999999988
100
AcDbArc
 50
270.0
 51
0.0
  0
LINE
  5
16C
330
13A
100
AcDbEntity
  8
11113_AUSSENPROF
  6
Continuous
 62
     7
100
AcDbLine
 10
142.4440308359
 20
154.2968939502
 30
0.0
 11
136.8440308359
 21
154.2968939502
 31
0.0
  0
ARC
  5
16D
330
13A
100
AcDbEntity
  8
11113_AUSSENPROF
  6
Continuous
 62
     7
100
AcDbCircle
 10
136.8440308359
 20
154.0968939502
 30
0.0
 40
0.1999999999999988
100
AcDbArc
 50
90.0
 51
180.0
  0
LINE
  5
16E
330
13A
100
AcDbEntity
  8
11113_AUSSENPROF
  6
Continuous
 62
     7
100
AcDbLine
 10
136.6440308359
 20
154.0968939502
 30
0.0
 11
136.6440308359
 21
146.8968939502
 31
0.0
  0
ARC
  5
16F
330
13A
100
AcDbEntity
  8
11113_AUSSENPROF
  6
Continuous
 62
     7
100
AcDbCircle
 10
136.2440308359
 20
146.8968939502
 30
0.0
 40
0.3999999999999976
100
AcDbArc
 50
270.0
 51
0.0
  0
LINE
  5
170
330
13A
100
AcDbEntity
  8
11113_AUSSENPROF
  6
Continuous
 62
     7
100
AcDbLine
 10
136.2440308359
 20
146.4968939502
 30
0.0
 11
136.0440308359
 21
146.4968939502
 31
0.0
  0
ARC
  5
171
330
13A
100
AcDbEntity
  8
11113_AUSSENPROF
  6
Continuous
 62
     7
100
AcDbCircle
 10
136.0440308359
 20
146.8968939502
 30
0.0
 40
0.3999999999999976
100
AcDbArc
 50
180.0
 51
270.0
  0
LINE
  5
172
330
13A
100
AcDbEntity
  8
11113_AUSSENPROF
  6
Continuous
 62
     7
100
AcDbLine
 10
135.6440308359
 20
146.8968939502
 30
0.0
 11
135.6440308359
 21
154.795528404
 31
0.0
  0
ARC
  5
173
330
13A
100
AcDbEntity
  8
11113_AUSSENPROF
  6
Continuous
 62
     7
100
AcDbCircle
 10
135.4440308359
 20
154.795528404
 30
0.0
 40
0.2000000000000023
100
AcDbArc
 50
0.0
 51
60.0
  0
LINE
  5
174
330
13A
100
AcDbEntity
  8
11113_AUSSENPROF
  6
Continuous
 62
     7
100
AcDbLine
 10
135.5440308359
 20
154.9687334848
 30
0.0
 11
134.2201723441
 21
155.7330635414
 31
0.0
  0
ARC
  5
175
330
13A
100
AcDbEntity
  8
11113_AUSSENPROF
  6
Continuous
 62
     7
100
AcDbCircle
 10
134.3348876314
 20
155.8968939502
 30
0.0
 40
0.1999999999999992
100
AcDbArc
 50
90.0
 51
235.0
  0
LINE
  5
176
330
13A
100
AcDbEntity
  8
11113_AUSSENPROF
  6
Continuous
 62
     7
100
AcDbLine
 10
134.3348876314
 20
156.0968939502
 30
0.0
 11
135.4440308359
 21
156.0968939502
 31
0.0
  0
ARC
  5
177
330
13A
100
AcDbEntity
  8
11113_AUSSENPROF
  6
Continuous
 62
     7
100
AcDbCircle
 10
135.4440308359
 20
156.2968939502
 30
0.0
 40
0.1999999999999988
100
AcDbArc
 50
270.0
 51
0.0
  0
LINE
  5
178
330
13A
100
AcDbEntity
  8
11113_AUSSENPROF
  6
Continuous
 62
     7
100
AcDbLine
 10
135.6440308359
 20
156.2968939502
 30
0.0
 11
135.6440308359
 21
165.5968939502
 31
0.0
  0
ARC
  5
179
330
13A
100
AcDbEntity
  8
11113_AUSSENPROF
  6
Continuous
 62
     7
100
AcDbCircle
 10
135.4440308359
 20
165.5968939502
 30
0.0
 40
0.1999999999999988
100
AcDbArc
 50
0.0
 51
90.0
  0
LINE
  5
17A
330
13A
100
AcDbEntity
  8
11113_AUSSENPROF
  6
Continuous
 62
     7
100
AcDbLine
 10
135.4440308359
 20
165.7968939502
 30
0.0
 11
125.8440308359
 21
165.7968939502
 31
0.0
  0
ARC
  5
17B
330
13A
100
AcDbEntity
  8
11113_AUSSENPROF
  6
Continuous
 62
     7
100
AcDbCircle
 10
125.8440308359
 20
165.5968939502
 30
0.0
 40
0.1999999999999988
100
AcDbArc
 50
90.0
 51
180.0
  0
LINE
  5
17C
330
13A
100
AcDbEntity
  8
11113_AUSSENPROF
  6
Continuous
 62
     7
100
AcDbLine
 10
125.6440308359
 20
165.5968939502
 30
0.0
 11
125.6440308359
 21
156.2968939502
 31
0.0
  0
ARC
  5
17D
330
13A
100
AcDbEntity
  8
11113_AUSSENPROF
  6
Continuous
 62
     7
100
AcDbCircle
 10
125.8440308359
 20
156.2968939502
 30
0.0
 40
0.1999999999999988
100
AcDbArc
 50
180.0
 51
270.0
  0
LINE
  5
17E
330
13A
100
AcDbEntity
  8
11113_AUSSENPROF
  6
Continuous
 62
     7
100
AcDbLine
 10
125.8440308359
 20
156.0968939502
 30
0.0
 11
126.9531740404
 21
156.0968939502
 31
0.0
  0
LINE
  5
17F
330
13A
100
AcDbEntity
  8
11115_INNENPROFI
  6
Continuous
 62
     7
100
AcDbLine
 10
133.9640164699
 20
150.3216997093
 30
0.0
 11
133.5360046829
 21
149.8116151244
 31
0.0
  0
ARC
  5
180
330
13A
100
AcDbEntity
  8
11115_INNENPROFI
  6
Continuous
 62
     7
100
AcDbCircle
 10
133.3827957942
 20
149.9401726463
 30
0.0
 40
0.2000000000000014
100
AcDbArc
 50
270.0
 51
320.0
  0
LINE
  5
181
330
13A
100
AcDbEntity
  8
11115_INNENPROFI
  6
Continuous
 62
     7
100
AcDbLine
 10
133.3827957942
 20
149.7401726463
 30
0.0
 11
131.7681209861
 21
149.7401726463
 31
0.0
  0
ARC
  5
182
330
13A
100
AcDbEntity
  8
11115_INNENPROFI
  6
Continuous
 62
     7
100
AcDbCircle
 10
131.7681209861
 20
150.2401726463
 30
0.0
 40
0.5000000000000004
100
AcDbArc
 50
180.0
 51
270.0
  0
LINE
  5
183
330
13A
100
AcDbEntity
  8
11115_INNENPROFI
  6
Continuous
 62
     7
100
AcDbLine
 10
131.2681209861
 20
150.2401726463
 30
0.0
 11
131.2681209861
 21
152.0401839571
 31
0.0
  0
ARC
  5
184
330
13A
100
AcDbEntity
  8
11115_INNENPROFI
  6
Continuous
 62
     7
100
AcDbCircle
 10
131.7681209861
 20
152.0401839571
 30
0.0
 40
0.5000000000000004
100
AcDbArc
 50
90.0
 51
180.0
  0
LINE
  5
185
330
13A
100
AcDbEntity
  8
11115_INNENPROFI
  6
Continuous
 62
     7
100
AcDbLine
 10
131.7681209861
 20
152.5401839571
 30
0.0
 11
133.3727957942
 21
152.5401839571
 31
0.0
  0
ARC
  5
186
330
13A
100
AcDbEntity
  8
11115_INNENPROFI
  6
Continuous
 62
     7
100
AcDbCircle
 10
133.3727957942
 20
152.3401839571
 30
0.0
 40
0.1999999999999988
100
AcDbArc
 50
49.5450245006
 51
90.0
  0
LINE
  5
187
330
13A
100
AcDbEntity
  8
11115_INNENPROFI
  6
Continuous
 62
     7
100
AcDbLine
 10
133.5025658545
 20
152.4923671738
 30
0.0
 11
133.8418062215
 21
152.203089264
 31
0.0
  0
ARC
  5
188
330
13A
100
AcDbEntity
  8
11115_INNENPROFI
  6
Continuous
 62
     7
100
AcDbCircle
 10
133.933450419
 20
152.3808569243
 30
0.0
 40
0.199999999999999
100
AcDbArc
 50
242.7276294579
 51
297.8758291659
  0
LINE
  5
189
330
13A
100
AcDbEntity
  8
11115_INNENPROFI
  6
Continuous
 62
     7
100
AcDbLine
 10
135.2928563473
 20
153.4576563189
 30
0.0
 11
135.3861539839
 21
153.5509539555
 31
0.0
  0
ARC
  5
18A
330
13A
100
AcDbEntity
  8
11115_INNENPROFI
  6
Continuous
 62
     7
100
AcDbCircle
 10
135.2447326277
 20
153.6923753117
 30
0.0
 40
0.1999999999999978
100
AcDbArc
 50
314.9999999996
 51
359.9942488121
  0
LINE
  5
18B
330
13A
100
AcDbEntity
  8
11115_INNENPROFI
  6
Continuous
 62
     7
100
AcDbLine
 10
135.4447326267
 20
153.6923552363
 30
0.0
 11
135.4448448637
 21
154.8105084026
 31
0.0
  0
ARC
  5
18C
330
13A
100
AcDbEntity
  8
11115_INNENPROFI
  6
Continuous
 62
     7
100
AcDbCircle
 10
135.2448448647
 20
154.810528478
 30
0.0
 40
0.1999999999999977
100
AcDbArc
 50
359.9942488121
 51
60.0
  0
LINE
  5
18D
330
13A
100
AcDbEntity
  8
11115_INNENPROFI
  6
Continuous
 62
     7
100
AcDbLine
 10
135.3448448647
 20
154.9837335587
 30
0.0
 11
133.9828199136
 21
155.7700990309
 31
0.0
  0
ARC
  5
18E
330
13A
100
AcDbEntity
  8
11115_INNENPROFI
  6
Continuous
 62
     7
100
AcDbCircle
 10
133.8828199136
 20
155.5968939501
 30
0.0
 40
0.2000000000000034
100
AcDbArc
 50
60.0
 51
90.0
  0
LINE
  5
18F
330
13A
100
AcDbEntity
  8
11115_INNENPROFI
  6
Continuous
 62
     7
100
AcDbLine
 10
133.8828199136
 20
155.7968939501
 30
0.0
 11
133.2440308359
 21
155.7968939501
 31
0.0
  0
ARC
  5
190
330
13A
100
AcDbEntity
  8
11115_INNENPROFI
  6
Continuous
 62
     7
100
AcDbCircle
 10
133.2440308359
 20
155.5968939501
 30
0.0
 40
0.1999999999999988
100
AcDbArc
 50
90.0
 51
180.0
  0
LINE
  5
191
330
13A
100
AcDbEntity
  8
11115_INNENPROFI
  6
Continuous
 62
     7
100
AcDbLine
 10
133.0440308359
 20
155.5968939501
 30
0.0
 11
133.0440308359
 21
155.0968939502
 31
0.0
  0
ARC
  5
192
330
13A
100
AcDbEntity
  8
11115_INNENPROFI
  6
Continuous
 62
     7
100
AcDbCircle
 10
133.2440308359
 20
155.0968939502
 30
0.0
 40
0.1999999999999988
100
AcDbArc
 50
180.0
 51
270.0
  0
LINE
  5
193
330
13A
100
AcDbEntity
  8
11115_INNENPROFI
  6
Continuous
 62
     7
100
AcDbLine
 10
133.2440308359
 20
154.8968939502
 30
0.0
 11
133.8440308359
 21
154.8968939502
 31
0.0
  0
ARC
  5
194
330
13A
100
AcDbEntity
  8
11115_INNENPROFI
  6
Continuous
 62
     7
100
AcDbCircle
 10
133.8440308359
 20
154.6968939503
 30
0.0
 40
0.1999999999911448
100
AcDbArc
 50
0.0
 51
90.0
  0
LINE
  5
195
330
13A
100
AcDbEntity
  8
11115_INNENPROFI
  6
Continuous
 62
     7
100
AcDbLine
 10
134.0440308359
 20
154.6968939503
 30
0.0
 11
134.0440308359
 21
153.7968939502
 31
0.0
  0
ARC
  5
196
330
13A
100
AcDbEntity
  8
11115_INNENPROFI
  6
Continuous
 62
     7
100
AcDbCircle
 10
133.8440308359
 20
153.7968939502
 30
0.0
 40
0.1999999999999988
100
AcDbArc
 50
270.0
 51
0.0
  0
LINE
  5
197
330
13A
100
AcDbEntity
  8
11115_INNENPROFI
  6
Continuous
 62
     7
100
AcDbLine
 10
133.8440308359
 20
153.5968939502
 30
0.0
 11
127.4440308359
 21
153.5968939502
 31
0.0
  0
ARC
  5
198
330
13A
100
AcDbEntity
  8
11115_INNENPROFI
  6
Continuous
 62
     7
100
AcDbCircle
 10
127.4440308359
 20
153.7968939502
 30
0.0
 40
0.1999999999999988
100
AcDbArc
 50
180.0
 51
270.0
  0
LINE
  5
199
330
13A
100
AcDbEntity
  8
11115_INNENPROFI
  6
Continuous
 62
     7
100
AcDbLine
 10
127.2440308359
 20
153.7968939502
 30
0.0
 11
127.2440308359
 21
154.6968939503
 31
0.0
  0
ARC
  5
19A
330
13A
100
AcDbEntity
  8
11115_INNENPROFI
  6
Continuous
 62
     7
100
AcDbCircle
 10
127.4440308359
 20
154.6968939503
 30
0.0
 40
0.1999999999911448
100
AcDbArc
 50
90.0
 51
180.0
  0
LINE
  5
19B
330
13A
100
AcDbEntity
  8
11115_INNENPROFI
  6
Continuous
 62
     7
100
AcDbLine
 10
127.4440308359
 20
154.8968939503
 30
0.0
 11
128.0440308359
 21
154.8968939503
 31
0.0
  0
ARC
  5
19C
330
13A
100
AcDbEntity
  8
11115_INNENPROFI
  6
Continuous
 62
     7
100
AcDbCircle
 10
128.0440308359
 20
155.0968939502
 30
0.0
 40
0.199999999993497
100
AcDbArc
 50
269.9999999981
 51
0.0
  0
LINE
  5
19D
330
13A
100
AcDbEntity
  8
11115_INNENPROFI
  6
Continuous
 62
     7
100
AcDbLine
 10
128.2440308359
 20
155.0968939502
 30
0.0
 11
128.2440308359
 21
155.5968939501
 31
0.0
  0
ARC
  5
19E
330
13A
100
AcDbEntity
  8
11115_INNENPROFI
  6
Continuous
 62
     7
100
AcDbCircle
 10
128.0440308359
 20
155.5968939501
 30
0.0
 40
0.200000000006504
100
AcDbArc
 50
0.0
 51
89.999999999
  0
LINE
  5
19F
330
13A
100
AcDbEntity
  8
11115_INNENPROFI
  6
Continuous
 62
     7
100
AcDbLine
 10
128.0440308359
 20
155.7968939501
 30
0.0
 11
127.4052417581
 21
155.7968939501
 31
0.0
  0
ARC
  5
1A0
330
13A
100
AcDbEntity
  8
11115_INNENPROFI
  6
Continuous
 62
     7
100
AcDbCircle
 10
127.4052417581
 20
155.5968939501
 30
0.0
 40
0.2000000000000023
100
AcDbArc
 50
90.0000000008
 51
120.0000000007
  0
LINE
  5
1A1
330
13A
100
AcDbEntity
  8
11115_INNENPROFI
  6
Continuous
 62
     7
100
AcDbLine
 10
127.3052417581
 20
155.7700990309
 30
0.0
 11
125.9432110131
 21
154.9837302136
 31
0.0
  0
ARC
  5
1A2
330
13A
100
AcDbEntity
  8
11115_INNENPROFI
  6
Continuous
 62
     7
100
AcDbCircle
 10
126.0432110131
 20
154.8105251328
 30
0.0
 40
0.199999999999999
100
AcDbArc
 50
120.0000000007
 51
180.0
  0
LINE
  5
1A3
330
13A
100
AcDbEntity
  8
11115_INNENPROFI
  6
Continuous
 62
     7
100
AcDbLine
 10
125.8432110131
 20
154.8105251328
 30
0.0
 11
125.8432110131
 21
153.6924933427
 31
0.0
  0
ARC
  5
1A4
330
13A
100
AcDbEntity
  8
11115_INNENPROFI
  6
Continuous
 62
     7
100
AcDbCircle
 10
126.0432110131
 20
153.6924933427
 30
0.0
 40
0.1999999999999988
100
AcDbArc
 50
180.0
 51
225.0
  0
LINE
  5
1A5
330
13A
100
AcDbEntity
  8
11115_INNENPROFI
  6
Continuous
 62
     7
100
AcDbLine
 10
125.9017896569
 20
153.5510719865
 30
0.0
 11
125.9952053245
 21
153.4576563189
 31
0.0
  0
ARC
  5
1A6
330
13A
100
AcDbEntity
  8
11115_INNENPROFI
  6
Continuous
 62
     7
100
AcDbCircle
 10
127.3546112527
 20
152.3808569243
 30
0.0
 40
0.2000000000000002
100
AcDbArc
 50
242.124170844
 51
297.2723705456
  0
LINE
  5
1A7
330
13A
100
AcDbEntity
  8
11115_INNENPROFI
  6
Continuous
 62
     7
100
AcDbLine
 10
127.4462554503
 20
152.203089264
 30
0.0
 11
127.7854958173
 21
152.4923671738
 31
0.0
  0
ARC
  5
1A8
330
13A
100
AcDbEntity
  8
11115_INNENPROFI
  6
Continuous
 62
     7
100
AcDbCircle
 10
127.9152658775
 20
152.3401839571
 30
0.0
 40
0.1999999999999994
100
AcDbArc
 50
90.0
 51
130.4549754999
  0
LINE
  5
1A9
330
13A
100
AcDbEntity
  8
11115_INNENPROFI
  6
Continuous
 62
     7
100
AcDbLine
 10
127.9152658775
 20
152.5401839571
 30
0.0
 11
129.5199406856
 21
152.5401839571
 31
0.0
  0
ARC
  5
1AA
330
13A
100
AcDbEntity
  8
11115_INNENPROFI
  6
Continuous
 62
     7
100
AcDbCircle
 10
129.5199406856
 20
152.0401839571
 30
0.0
 40
0.5000000000000004
100
AcDbArc
 50
0.0
 51
90.0
  0
LINE
  5
1AB
330
13A
100
AcDbEntity
  8
11115_INNENPROFI
  6
Continuous
 62
     7
100
AcDbLine
 10
130.0199406856
 20
152.0401839571
 30
0.0
 11
130.0199406856
 21
150.2401726463
 31
0.0
  0
ARC
  5
1AC
330
13A
100
AcDbEntity
  8
11115_INNENPROFI
  6
Continuous
 62
     7
100
AcDbCircle
 10
129.5199406856
 20
150.2401726463
 30
0.0
 40
0.5000000000000004
100
AcDbArc
 50
270.0
 51
0.0
  0
LINE
  5
1AD
330
13A
100
AcDbEntity
  8
11115_INNENPROFI
  6
Continuous
 62
     7
100
AcDbLine
 10
129.5199406856
 20
149.7401726463
 30
0.0
 11
127.9052658775
 21
149.7401726463
 31
0.0
  0
ARC
  5
1AE
330
13A
100
AcDbEntity
  8
11115_INNENPROFI
  6
Continuous
 62
     7
100
AcDbCircle
 10
127.9052658775
 20
149.9401726463
 30
0.0
 40
0.1999999999999988
100
AcDbArc
 50
220.0
 51
270.0
  0
LINE
  5
1AF
330
13A
100
AcDbEntity
  8
11115_INNENPROFI
  6
Continuous
 62
     7
100
AcDbLine
 10
127.7520569889
 20
149.8116151244
 30
0.0
 11
127.3240452018
 21
150.3216997093
 31
0.0
  0
ARC
  5
1B0
330
13A
100
AcDbEntity
  8
11115_INNENPROFI
  6
Continuous
 62
     7
100
AcDbCircle
 10
127.1708363132
 20
150.1931421873
 30
0.0
 40
0.1999999999999987
100
AcDbArc
 50
40.0
 51
113.9481997803
  0
ARC
  5
1B1
330
13A
100
AcDbEntity
  8
11115_INNENPROFI
  6
Continuous
 62
     7
100
AcDbCircle
 10
127.2926094796
 20
149.9189683448
 30
0.0
 40
0.5000000000000017
100
AcDbArc
 50
113.9481997803
 51
168.5217120109
  0
ARC
  5
1B2
330
13A
100
AcDbEntity
  8
11115_INNENPROFI
  6
Continuous
 62
     7
100
AcDbCircle
 10
126.9926094796
 20
148.9369022871
 30
0.0
 40
0.2000000000000023
100
AcDbArc
 50
198.1947879513
 51
270.0
  0
LINE
  5
1B3
330
13A
100
AcDbEntity
  8
11115_INNENPROFI
  6
Continuous
 62
     7
100
AcDbLine
 10
126.9926094796
 20
148.7369022871
 30
0.0
 11
130.4440308359
 21
148.7369022871
 31
0.0
  0
ARC
  5
1B4
330
13A
100
AcDbEntity
  8
11115_INNENPROFI
  6
Continuous
 62
     7
100
AcDbCircle
 10
134.2954521921
 20
148.9369022871
 30
0.0
 40
0.1999999999999988
100
AcDbArc
 50
270.0
 51
341.8052120487
  0
ARC
  5
1B5
330
13A
100
AcDbEntity
  8
11115_INNENPROFI
  6
Continuous
 62
     7
100
AcDbCircle
 10
133.9954521921
 20
149.9189683448
 30
0.0
 40
0.499999999999997
100
AcDbArc
 50
11.4782879891
 51
66.0518002197
  0
ARC
  5
1B6
330
13A
100
AcDbEntity
  8
11115_INNENPROFI
  6
Continuous
 62
     7
100
AcDbCircle
 10
134.1172253586
 20
150.1931421873
 30
0.0
 40
0.2000000000000001
100
AcDbArc
 50
66.0518002197
 51
140.0
  0
LINE
  5
1B7
330
13A
100
AcDbEntity
  8
11115_INNENPROFI
  6
Continuous
 62
     7
100
AcDbLine
 10
130.8440308359
 20
148.7369022871
 30
0.0
 11
134.2954521921
 21
148.7369022871
 31
0.0
  0
ARC
  5
1B8
330
13A
100
AcDbEntity
  8
11115_INNENPROFI
  6
Continuous
 62
     7
100
AcDbCircle
 10
130.6440308359
 20
148.7369022871
 30
0.0
 40
0.1999999999999988
100
AcDbArc
 50
0.0
 51
180.0
  0
ARC
  5
1B9
330
13A
100
AcDbEntity
  8
20647_SILIKON-DI
  6
Continuous
 62
     7
100
AcDbCircle
 10
126.6940307445
 20
147.2008174482
 30
0.0
 40
0.799999999999794
100
AcDbArc
 50
180.0
 51
265.6062790803
  0
LINE
  5
1BA
330
13A
100
AcDbEntity
  8
20647_SILIKON-DI
  6
Continuous
 62
     7
100
AcDbLine
 10
125.8940307445
 20
153.2837783837
 30
0.0
 11
125.8940307445
 21
147.2008174482
 31
0.0
  0
ARC
  5
1BB
330
13A
100
AcDbEntity
  8
20647_SILIKON-DI
  6
Continuous
 62
     7
100
AcDbCircle
 10
126.0940307445
 20
153.2837783837
 30
0.0
 40
0.1999999999999992
100
AcDbArc
 50
39.9999999999
 51
180.0
  0
LINE
  5
1BC
330
13A
100
AcDbEntity
  8
20647_SILIKON-DI
  6
Continuous
 62
     7
100
AcDbLine
 10
127.2943968403
 20
152.164382542
 30
0.0
 11
126.2472396331
 21
153.4123359056
 31
0.0
  0
ARC
  5
1BD
330
13A
100
AcDbEntity
  8
20647_SILIKON-DI
  6
Continuous
 62
     7
100
AcDbCircle
 10
127.4297704076
 20
152.3745586521
 30
0.0
 40
0.2500000000000019
100
AcDbArc
 50
237.214581736
 51
319.8309057066
  0
ARC
  5
1BE
330
13A
100
AcDbEntity
  8
20647_SILIKON-DI
  6
Continuous
 62
     7
100
AcDbCircle
 10
128.5199349385
 20
151.1401785471
 30
0.0
 40
1.400005655341844
100
AcDbArc
 50
80.2972086809
 51
129.9584603724
  0
ARC
  5
1BF
330
13A
100
AcDbEntity
  8
20647_SILIKON-DI
  6
Continuous
 62
     7
100
AcDbCircle
 10
128.7053270323
 20
152.224448907
 30
0.0
 40
0.2999999999970873
100
AcDbArc
 50
48.1023087938
 51
80.2972086812
  0
LINE
  5
1C0
330
13A
100
AcDbEntity
  8
20647_SILIKON-DI
  6
Continuous
 62
     7
100
AcDbLine
 10
129.4751346922
 20
151.9368384446
 30
0.0
 11
128.9056678009
 21
152.4477504439
 31
0.0
  0
ARC
  5
1C1
330
13A
100
AcDbEntity
  8
20647_SILIKON-DI
  6
Continuous
 62
     7
100
AcDbCircle
 10
128.8741123863
 20
151.2669338336
 30
0.0
 40
0.9000000000000007
100
AcDbArc
 50
327.1996758986
 51
48.1023087938
  0
LINE
  5
1C2
330
13A
100
AcDbEntity
  8
20647_SILIKON-DI
  6
Continuous
 62
     7
100
AcDbLine
 10
129.1693416197
 20
150.0636377844
 30
0.0
 11
129.6306195716
 21
150.7793921651
 31
0.0
  0
ARC
  5
1C3
330
13A
100
AcDbEntity
  8
20647_SILIKON-DI
  6
Continuous
 62
     7
100
AcDbCircle
 10
128.5809471423
 20
150.4428368599
 30
0.0
 40
0.6999999999930374
100
AcDbArc
 50
275.0002210973
 51
327.1996758986
  0
ARC
  5
1C4
330
13A
100
AcDbEntity
  8
20647_SILIKON-DI
  6
Continuous
 62
     7
100
AcDbCircle
 10
128.5199349385
 20
151.1401785471
 30
0.0
 40
1.400005655396394
100
AcDbArc
 50
207.2164420213
 51
275.0002210973
  0
ARC
  5
1C5
330
13A
100
AcDbEntity
  8
20647_SILIKON-DI
  6
Continuous
 62
     7
100
AcDbCircle
 10
127.0526093878
 20
150.3855432766
 30
0.0
 40
0.2500000001045971
100
AcDbArc
 50
27.2164420213
 51
180.0
  0
LINE
  5
1C6
330
13A
100
AcDbEntity
  8
20647_SILIKON-DI
  6
Continuous
 62
     7
100
AcDbLine
 10
126.8026093877
 20
147.6512231347
 30
0.0
 11
126.8026093877
 21
150.3855432766
 31
0.0
  0
ARC
  5
1C7
330
13A
100
AcDbEntity
  8
20647_SILIKON-DI
  6
Continuous
 62
     7
100
AcDbCircle
 10
126.6026093877
 20
147.6512231347
 30
0.0
 40
0.2
100
AcDbArc
 50
291.043174221
 51
0.0
  0
ARC
  5
1C8
330
13A
100
AcDbEntity
  8
20647_SILIKON-DI
  6
Continuous
 62
     7
100
AcDbCircle
 10
126.7641914865
 20
147.2312335809
 30
0.0
 40
0.2500000000000007
100
AcDbArc
 50
111.0431742211
 51
312.6063620732
  0
ARC
  5
1C9
330
13A
100
AcDbEntity
  8
20647_SILIKON-DI
  6
Continuous
 62
     7
100
AcDbCircle
 10
127.068822452
 20
146.9000237156
 30
0.0
 40
0.2
100
AcDbArc
 50
68.9724254282
 51
132.6063620732
  0
LINE
  5
1CA
330
13A
100
AcDbEntity
  8
20647_SILIKON-DI
  6
Continuous
 62
     7
100
AcDbLine
 10
128.1335449089
 20
146.7049956351
 30
0.0
 11
127.1405858939
 21
147.0867052852
 31
0.0
  0
ARC
  5
1CB
330
13A
100
AcDbEntity
  8
20647_SILIKON-DI
  6
Continuous
 62
     7
100
AcDbCircle
 10
128.2053083508
 20
146.8916772046
 30
0.0
 40
0.1999999999996733
100
AcDbArc
 50
248.9724254282
 51
305.5198836949
  0
ARC
  5
1CC
330
13A
100
AcDbEntity
  8
20647_SILIKON-DI
  6
Continuous
 62
     7
100
AcDbCircle
 10
128.6237696301
 20
146.3054465655
 30
0.0
 40
0.520261205741981
100
AcDbArc
 50
39.2140627545
 51
125.5198836949
  0
ARC
  5
1CD
330
13A
100
AcDbEntity
  8
20647_SILIKON-DI
  6
Continuous
 62
     7
100
AcDbCircle
 10
129.1818203338
 20
146.7608097356
 30
0.0
 40
0.2000000000000008
100
AcDbArc
 50
219.2140627545
 51
309.6210712194
  0
ARC
  5
1CE
330
13A
100
AcDbEntity
  8
20647_SILIKON-DI
  6
Continuous
 62
     7
100
AcDbCircle
 10
129.6438208093
 20
146.2027650789
 30
0.0
 40
0.5244710333300915
100
AcDbArc
 50
42.9552094742
 51
129.6210712195
  0
ARC
  5
1CF
330
13A
100
AcDbEntity
  8
20647_SILIKON-DI
  6
Continuous
 62
     7
100
AcDbCircle
 10
130.1667326025
 20
146.6896245186
 30
0.0
 40
0.1900000000000028
100
AcDbArc
 50
222.9552094742
 51
314.1394909016
  0
ARC
  5
1D0
330
13A
100
AcDbEntity
  8
20647_SILIKON-DI
  6
Continuous
 62
     7
100
AcDbCircle
 10
130.6512852828
 20
146.1902940648
 30
0.0
 40
0.5057889062096297
100
AcDbArc
 50
47.5287743239
 51
134.1394909016
  0
ARC
  5
1D1
330
13A
100
AcDbEntity
  8
20647_SILIKON-DI
  6
Continuous
 62
     7
100
AcDbCircle
 10
131.127847967
 20
146.7108956286
 30
0.0
 40
0.2000000000000015
100
AcDbArc
 50
227.5287743239
 51
315.4620560819
  0
ARC
  5
1D2
330
13A
100
AcDbEntity
  8
20647_SILIKON-DI
  6
Continuous
 62
     7
100
AcDbCircle
 10
131.6442408626
 20
146.2027650789
 30
0.0
 40
0.5244710333300955
100
AcDbArc
 50
50.3789293167
 51
135.4620560819
  0
ARC
  5
1D3
330
13A
100
AcDbEntity
  8
20647_SILIKON-DI
  6
Continuous
 62
     7
100
AcDbCircle
 10
132.1062413328
 20
146.7608097399
 30
0.0
 40
0.2000000000000015
100
AcDbArc
 50
230.3789293167
 51
320.7859386036
  0
ARC
  5
1D4
330
13A
100
AcDbEntity
  8
20647_SILIKON-DI
  6
Continuous
 62
     7
100
AcDbCircle
 10
132.6642920473
 20
146.3054465831
 30
0.0
 40
0.5202612057419722
100
AcDbArc
 50
54.4801158611
 51
140.7859386036
  0
ARC
  5
1D5
330
13A
100
AcDbEntity
  8
20647_SILIKON-DI
  6
Continuous
 62
     7
100
AcDbCircle
 10
133.0827533312
 20
146.8916772189
 30
0.0
 40
0.1999999999999982
100
AcDbArc
 50
234.4801158611
 51
302.4895261933
  0
LINE
  5
1D6
330
13A
100
AcDbEntity
  8
20647_SILIKON-DI
  6
Continuous
 62
     7
100
AcDbLine
 10
134.1479021031
 20
147.0871893001
 30
0.0
 11
133.1901824162
 21
146.7229792886
 31
0.0
  0
ARC
  5
1D7
330
13A
100
AcDbEntity
  8
20647_SILIKON-DI
  6
Continuous
 62
     7
100
AcDbCircle
 10
134.2189928187
 20
146.9002505129
 30
0.0
 40
0.1999999999998766
100
AcDbArc
 50
47.3509985617
 51
110.8212456664
  0
ARC
  5
1D8
330
13A
100
AcDbEntity
  8
20647_SILIKON-DI
  6
Continuous
 62
     7
100
AcDbCircle
 10
134.5238701853
 20
147.2312335809
 30
0.0
 40
0.2500000000036746
100
AcDbArc
 50
227.3509985562
 51
64.9654816866
  0
ARC
  5
1D9
330
13A
100
AcDbEntity
  8
20647_SILIKON-DI
  6
Continuous
 62
     7
100
AcDbCircle
 10
134.7354522841
 20
147.6842600872
 30
0.0
 40
0.2500000000000037
100
AcDbArc
 50
180.0
 51
244.9654816811
  0
LINE
  5
1DA
330
13A
100
AcDbEntity
  8
20647_SILIKON-DI
  6
Continuous
 62
     7
100
AcDbLine
 10
134.4854522841
 20
150.3855432766
 30
0.0
 11
134.4854522841
 21
147.6842600872
 31
0.0
  0
ARC
  5
1DB
330
13A
100
AcDbEntity
  8
20647_SILIKON-DI
  6
Continuous
 62
     7
100
AcDbCircle
 10
134.235452284
 20
150.3855432766
 30
0.0
 40
0.250000000104593
100
AcDbArc
 50
0.0
 51
152.7835579787
  0
ARC
  5
1DC
330
13A
100
AcDbEntity
  8
20647_SILIKON-DI
  6
Continuous
 62
     7
100
AcDbCircle
 10
132.7681267333
 20
151.1401785471
 30
0.0
 40
1.400005655396388
100
AcDbArc
 50
264.9997789027
 51
332.7835579787
  0
ARC
  5
1DD
330
13A
100
AcDbEntity
  8
20647_SILIKON-DI
  6
Continuous
 62
     7
100
AcDbCircle
 10
132.7071145295
 20
150.4428368599
 30
0.0
 40
0.6999999999930412
100
AcDbArc
 50
212.8003241014
 51
264.9997789027
  0
LINE
  5
1DE
330
13A
100
AcDbEntity
  8
20647_SILIKON-DI
  6
Continuous
 62
     7
100
AcDbLine
 10
131.6574421001
 20
150.7793921651
 30
0.0
 11
132.118720052
 21
150.0636377844
 31
0.0
  0
ARC
  5
1DF
330
13A
100
AcDbEntity
  8
20647_SILIKON-DI
  6
Continuous
 62
     7
100
AcDbCircle
 10
132.4139492855
 20
151.2669338336
 30
0.0
 40
0.9000000000000001
100
AcDbArc
 50
131.8976912062
 51
212.8003241014
  0
LINE
  5
1E0
330
13A
100
AcDbEntity
  8
20647_SILIKON-DI
  6
Continuous
 62
     7
100
AcDbLine
 10
132.3823938709
 20
152.4477504439
 30
0.0
 11
131.8129269796
 21
151.9368384446
 31
0.0
  0
ARC
  5
1E1
330
13A
100
AcDbEntity
  8
20647_SILIKON-DI
  6
Continuous
 62
     7
100
AcDbCircle
 10
132.5827346395
 20
152.224448907
 30
0.0
 40
0.2999999999970863
100
AcDbArc
 50
99.7027913188
 51
131.8976912062
  0
ARC
  5
1E2
330
13A
100
AcDbEntity
  8
20647_SILIKON-DI
  6
Continuous
 62
     7
100
AcDbCircle
 10
132.7681267333
 20
151.1401785471
 30
0.0
 40
1.400005655341845
100
AcDbArc
 50
50.0415396276
 51
99.7027913191
  0
ARC
  5
1E3
330
13A
100
AcDbEntity
  8
20647_SILIKON-DI
  6
Continuous
 62
     7
100
AcDbCircle
 10
133.8582912642
 20
152.3745586521
 30
0.0
 40
0.25
100
AcDbArc
 50
220.1690942934
 51
302.785418264
  0
LINE
  5
1E4
330
13A
100
AcDbEntity
  8
20647_SILIKON-DI
  6
Continuous
 62
     7
100
AcDbLine
 10
135.0408220387
 20
153.4123359056
 30
0.0
 11
133.9936648315
 21
152.164382542
 31
0.0
  0
ARC
  5
1E5
330
13A
100
AcDbEntity
  8
20647_SILIKON-DI
  6
Continuous
 62
     7
100
AcDbCircle
 10
135.1940309273
 20
153.2837783837
 30
0.0
 40
0.1999999999999988
100
AcDbArc
 50
0.0
 51
140.0000000001
  0
LINE
  5
1E6
330
13A
100
AcDbEntity
  8
20647_SILIKON-DI
  6
Continuous
 62
     7
100
AcDbLine
 10
135.3940309273
 20
147.200817446
 30
0.0
 11
135.3940309273
 21
153.2837783837
 31
0.0
  0
ARC
  5
1E7
330
13A
100
AcDbEntity
  8
20647_SILIKON-DI
  6
Continuous
 62
     7
100
AcDbCircle
 10
134.5940309273
 20
147.200817446
 30
0.0
 40
0.7999999999999209
100
AcDbArc
 50
274.3937208963
 51
0.0
  0
ARC
  5
1E8
330
13A
100
AcDbEntity
  8
20647_SILIKON-DI
  6
Continuous
 62
     7
100
AcDbCircle
 10
130.6440308401
 20
162.0275288973
 30
0.0
 40
16.13105909995037
100
AcDbArc
 50
255.6012591461
 51
284.398740822
  0
ENDBLK
  5
1EA
330
13A
100
AcDbEntity
  8
0
100
AcDbBlockEnd
  0
BLOCK
  5
1F5
330
1F3
100
AcDbEntity
  8
0
100
AcDbBlockBegin
  2
SEANNOT_GROUP
 70
     0
 10
0.0
 20
0.0
 30
0.0
  3
SEANNOT_GROUP
  1

  0
ENDBLK
  5
1F6
330
1F3
100
AcDbEntity
  8
0
100
AcDbBlockEnd
  0
BLOCK
  5
1F8
330
1F7
100
AcDbEntity
  8
0
100
AcDbBlockBegin
  2
_NONE
 70
     0
 10
0.0
 20
0.0
 30
0.0
  3
_NONE
  1

  0
ENDBLK
  5
1F9
330
1F7
100
AcDbEntity
  8
0
100
AcDbBlockEnd
  0
ENDSEC
  0
SECTION
  2
ENTITIES
  0
INSERT
  5
70
330
1F
100
AcDbEntity
  8
Standard
100
AcDbBlockReference
  2
SE
 10
0.0
 20
0.0
 30
0.0
  0
DIMENSION
  5
136
330
1F
100
AcDbEntity
  8
Standard
  6
Continuous
 62
     7
100
AcDbDimension
 10
55.4308557255
 20
172.1242158503
 30
0.0
 11
61.4308557777
 21
172.1242158503
 31
0.0
 70
   161
  1
\A1;<>
 71
     5
 42
-1.0
 73
     0
 74
     0
 75
     0
  3
E-Katalog
100
AcDbAlignedDimension
 13
55.4308557255
 23
156.3581242056
 33
0.0
 14
67.4308557255
 24
156.3581242056
 34
0.0
  0
DIMENSION
  5
137
330
1F
100
AcDbEntity
  8
Standard
  6
Continuous
 62
     7
100
AcDbDimension
 10
49.4308557255
 20
177.6769791336
 30
0.0
 11
61.4308558298
 21
177.6769791336
 31
0.0
 70
   161
  1
\A1;<>
 71
     5
 42
-1.0
 73
     0
 74
     0
 75
     0
  3
E-Katalog
100
AcDbAlignedDimension
 13
49.4308557255
 23
155.3581242056
 33
0.0
 14
73.4308557255
 24
155.3581242056
 34
0.0
1001
ACAD
1000
DSTYLE
1002
{
1070
   271
1070
     2
1070
     0
1002
}
  0
DIMENSION
  5
138
330
1F
100
AcDbEntity
  8
Standard
  6
Continuous
 62
     7
100
AcDbDimension
 10
86.2882968886
 20
167.6581242056
 30
0.0
 11
86.2882968886
 21
157.5081237526
 31
0.0
 70
   161
  1
\A1;<>
 71
     5
 42
-1.0
 73
     0
 74
     0
 75
     0
  3
E-Katalog
100
AcDbAlignedDimension
 13
67.0308557255
 23
167.6581242056
 33
0.0
 14
67.0308557255
 24
147.3581242056
 34
0.0
  0
DIMENSION
  5
139
330
1F
100
AcDbEntity
  8
Standard
  6
Continuous
 62
     7
100
AcDbDimension
 10
78.7882965906
 20
156.1581242056
 30
0.0
 11
78.7882965906
 21
162.6978764244
 31
0.0
 70
   160
  1
\A1;11 {}
 71
     5
 42
-1.0
 73
     0
 74
     0
 75
     0
  3
E-Katalog
100
AcDbAlignedDimension
 13
67.0308557255
 23
167.6581242056
 33
0.0
 14
70.4308557255
 24
156.1581242056
 34
0.0
 50
90.0
100
AcDbRotatedDimension
  0
INSERT
  5
13B
330
1F
100
AcDbEntity
  8
Standard
100
AcDbBlockReference
  2
SE1
 10
0.0
 20
0.0
 30
0.0
  0
MTEXT
  5
1EC
330
1F
100
AcDbEntity
  8
Default
100
AcDbMText
 10
139.6221177889
 20
28.161474171
 30
0.0
 40
2.5
 41
60.0887616677
 46
5.4782708696
 71
     4
 72
     1
  1
{\fSolid Edge ISO|b0||i0||c0|p34;\C7;\H2.5;\W1.;Unidicht S-12 Duo}
 73
     1
 44
1.0
1001
ACAD
1000
ACAD_MTEXT_DEFINED_HEIGHT_BEGIN
1070
    46
1040
5.4782708696
1000
ACAD_MTEXT_DEFINED_HEIGHT_END
  0
LINE
  5
1ED
330
1F
100
AcDbEntity
  8
Default
  6
Continuous
 62
     7
100
AcDbLine
 10
138.2000000051
 20
9.9999999541
 30
0.0
 11
138.2000000051
 21
34.3502211504
 31
0.0
  0
MTEXT
  5
1EE
330
1F
100
AcDbEntity
  8
Default
100
AcDbMText
 10
122.5168744495
 20
17.5485405285
 30
0.0
 40
2.2
 41
15.7520375387
 46
4.0615484615
 71
     1
 72
     1
  1
{\fSolid Edge ANSI|b0||i0||c0|p34;\C7;\H2.2;\W1.;Maßst.}{\fSolid Edge ANSI|b0||i0||c0|p34;\C7;\H1.5;\W1.;/ scale}
 73
     1
 44
1.0
1001
ACAD
1000
ACAD_MTEXT_DEFINED_HEIGHT_BEGIN
1070
    46
1040
4.0615484615
1000
ACAD_MTEXT_DEFINED_HEIGHT_END
  0
MTEXT
  5
1EF
330
1F
100
AcDbEntity
  8
Default
100
AcDbMText
 10
148.2238718478
 20
15.907103298
 30
0.0
 40
2.2
 41
18.1206027323
 46
4.0615484615
 71
     5
 72
     1
  1
{\fSolid Edge ANSI|b0||i0||c0|p34;\C7;\H2.2;\W1.;Art. Nr.}{\fSolid Edge ANSI|b0||i0||c0|p34;\C7;\H1.5;\W1.;/ art. no.}
 73
     1
 44
1.0
1001
ACAD
1000
ACAD_MTEXT_DEFINED_HEIGHT_BEGIN
1070
    46
1040
4.0615484615
1000
ACAD_MTEXT_DEFINED_HEIGHT_END
  0
MTEXT
  5
1F0
330
1F
100
AcDbEntity
  8
Default
100
AcDbMText
 10
139.5512791446
 20
32.9682471949
 30
0.0
 40
2.2
 41
21.7100432289
 46
4.0615484615
 71
     1
 72
     1
  1
{\fSolid Edge ANSI|b0||i0||c0|p34;\C7;\H2.2;\W1.;Benennung}{\fSolid Edge ANSI|b0||i0||c0|p34;\C7;\H1.5;\W1.;/ title}
 73
     1
 44
1.0
1001
ACAD
1000
ACAD_MTEXT_DEFINED_HEIGHT_BEGIN
1070
    46
1040
4.0615484615
1000
ACAD_MTEXT_DEFINED_HEIGHT_END
  0
LINE
  5
1F1
330
1F
100
AcDbEntity
  8
Default
  6
Continuous
 62
     7
100
AcDbLine
 10
9.9999999859
 20
25.9987912971
 30
0.0
 11
199.9999999859
 21
25.9987912971
 31
0.0
  0
LINE
  5
1F2
330
1F
100
AcDbEntity
  8
Default
  6
Continuous
 62
     7
100
AcDbLine
 10
138.2000000051
 20
34.3502211504
 30
0.0
 11
199.9999999859
 21
34.3502211504
 31
0.0
  0
INSERT
  5
1F4
330
1F
100
AcDbEntity
  8
Standard
100
AcDbBlockReference
  2
SEANNOT_GROUP
 10
0.0
 20
0.0
 30
0.0
  0
MULTILEADER
  5
1FA
330
1F
100
AcDbEntity
  8
Standard
  6
Continuous
 62
     7
 92
      224
310
E0000000020000000C00000013000000993A0000CC0000002600000024AC20655A0D60407E6F6387C31D2640000000000000000000000000000000000000000000000000000000000000F03F000000000000F03F0000000000000000000000000000000031003A003100000003000000010000003333333333330940000000
310
000000F03F0000000000000000000000000000F03F00000000000000000000000000000000000000000000000000000000000000002200000053006F006C0069006400200045006400670065002000490053004F00000000000000000000000000
100
AcDbMLeader
300
CONTEXT_DATA{
 40
1.0
 10
126.5558845495
 20
12.6331323918
 30
0.0
 41
3.15
140
4.725
145
1.1025
174
     1
175
     1
176
     0
177
     0
290
     1
304
{\pxsm1.;\fSolid Edge ISO|b0||i0||c0|p34;\W1.;1:1\P}
 11
0.0
 21
0.0
 31
1.0
340
11
 12
128.5558845495
 22
14.2112823918
 32
0.0
 13
1.0
 23
0.0
 33
0.0
 42
0.0
 43
0.0
 44
0.0
 45
1.0
170
     1
 90
-1023410169
171
     1
172
     1
 91
-939524096
141
1.5
 92
        0
291
     0
292
     0
173
     0
293
     0
142
0.0
143
0.0
294
     0
295
     0
296
     0
110
0.0
120
0.0
130
0.0
111
1.0
121
0.0
131
0.0
112
0.0
122
1.0
132
0.0
297
     0
301
}
340
6C
 90
 35119009
170
     0
 91
-1056964608
341
14
171
    -2
290
     1
291
     1
 41
0.0
342
1F7
 42
4.725
172
     2
343
11
173
     1
 95
        1
174
     1
175
     0
 92
-1023410169
292
     0
 93
-1023410169
 10
1.0
 20
1.0
 30
1.0
 43
0.0
176
     0
293
     0
294
     0
178
     0
179
     1
 45
1.0
1001
ACAD_MLEADERVER
1070
     2
  0
MTEXT
  5
1FB
330
1F
100
AcDbEntity
  8
Default
100
AcDbMText
 10
139.7786414766
 20
12.1030055624
 30
0.0
 40
3.0
 41
18.7991063348
 46
5.0845858028
 71
     4
 72
     1
  1
{\fSolid Edge ISO|b0||i0||c0|p34;\C7;\H3.;\W1.;1-375}
 73
     1
 44
1.0
1001
ACAD
1000
ACAD_MTEXT_DEFINED_HEIGHT_BEGIN
1070
    46
1040
5.0845858028
1000
ACAD_MTEXT_DEFINED_HEIGHT_END
  0
MTEXT
  5
1FC
330
1F
100
AcDbEntity
  8
Standard
100
AcDbMText
 10
128.2243715112
 20
21.9523050455
 30
0.0
 40
2.5
 41
4.125011
 46
4.0909190909
 71
     1
 72
     1
  1
{\fSolid Edge ISO|b0||i0||c0|p34;\C7;\H2.5;\W1.;mm}
 73
     1
 44
1.0
1001
ACAD
1000
ACAD_MTEXT_DEFINED_HEIGHT_BEGIN
1070
    46
1040
4.0909190909
1000
ACAD_MTEXT_DEFINED_HEIGHT_END
  0
LINE
  5
1FD
330
1F
100
AcDbEntity
  8
Standard
  6
Continuous
 62
     7
100
AcDbLine
 10
138.2000000051
 20
18.2287912793
 30
0.0
 11
106.3095894048
 21
18.2287912793
 31
0.0
  0
LINE
  5
1FE
330
1F
100
AcDbEntity
  8
Standard
  6
Continuous
 62
     7
100
AcDbLine
 10
106.3095894048
 20
25.9987912971
 30
0.0
 11
106.3095894048
 21
9.9999999541
 31
0.0
  0
MTEXT
  5
1FF
330
1F
100
AcDbEntity
  8
Standard
100
AcDbMText
 10
106.9145404388
 20
25.2290846617
 30
0.0
 40
2.2
 41
14.4015494615
 46
4.0615484615
 71
     1
 72
     1
  1
{\fSolid Edge ANSI|b0||i0||c0|p34;\C7;\H2.2;\W1.;freig.}{\fSolid Edge ANSI|b0||i0||c0|p34;\C7;\H1.5;\W1.;/ appr.}
 73
     1
 44
1.0
1001
ACAD
1000
ACAD_MTEXT_DEFINED_HEIGHT_BEGIN
1070
    46
1040
4.0615484615
1000
ACAD_MTEXT_DEFINED_HEIGHT_END
  0
MTEXT
  5
200
330
1F
100
AcDbEntity
  8
Default
100
AcDbMText
 10
107.6188207159
 20
17.6037681847
 30
0.0
 40
2.2
 41
13.1956831311
 46
4.0615484615
 71
     1
 72
     1
  1
{\fSolid Edge ANSI|b0||i0||c0|p34;\C7;\H2.2;\W1.;Blatt}{\fSolid Edge ANSI|b0||i0||c0|p34;\C7;\H1.5;\W1.;/ sheet}
 73
     1
 44
1.0
1001
ACAD
1000
ACAD_MTEXT_DEFINED_HEIGHT_BEGIN
1070
    46
1040
4.0615484615
1000
ACAD_MTEXT_DEFINED_HEIGHT_END
  0
MTEXT
  5
201
330
1F
100
AcDbEntity
  8
Standard
100
AcDbMText
 10
112.0531670475
 20
14.2192192227
 30
0.0
 40
3.0
 41
3.750011
 46
4.9091009091
 71
     1
 72
     1
  1
{\fSolid Edge ISO|b0||i0||c0|p34;\C7;\H3.;\W1.;A4}
 73
     1
 44
1.0
1001
ACAD
1000
ACAD_MTEXT_DEFINED_HEIGHT_BEGIN
1070
    46
1040
4.9091009091
1000
ACAD_MTEXT_DEFINED_HEIGHT_END
  0
MTEXT
  5
202
330
1F
100
AcDbEntity
  8
Default
100
AcDbMText
 10
107.1395513873
 20
20.4081738308
 30
0.0
 40
2.2
 41
14.7330465525
 46
3.6
 71
     4
 72
     1
  1
{\fSolid Edge ISO|b0||i0||c0|p34;\C7;\H2.2;\W1.;29.06.2023}
 73
     1
 44
1.0
1001
ACAD
1000
ACAD_MTEXT_DEFINED_HEIGHT_BEGIN
1070
    46
1040
3.6
1000
ACAD_MTEXT_DEFINED_HEIGHT_END
  0
MTEXT
  5
203
330
1F
100
AcDbEntity
  8
Standard
100
AcDbMText
 10
10.6587314417
 20
33.7981133176
 30
0.0
 40
1.2
 41
127.5412685634
 46
8.1685527897
 71
     1
 72
     1
  3
{\fSolid Edge ANSI|b0||i0||c0|p34;\C7;\H1.2;\W1.;Weitergabe sowie Vervielfältigung dieser vertraulichen Unterlage(n), Verwertung und Mitteilung ihres Inhalts nicht ohne unsere vorherige schriftliche Genehmigung gestattet. \P}{\fSolid Edge ANSI|b0||i0
  3
||c0|p34;\C7;\H1.2;\W1.;Zuwiderhandlungen verpflichten zu Schadenersatz. Alle Rechte für den Fall der Patenterteilung oder Gebrauchsmuster-Eintragung vorbehalten.\P}{\fSolid Edge ANSI|b0||i0||c0|p34;\C7;\H1.;\W1.;The copying, use, distribution or dis
  3
closure of the confidential and proprietary information contained in this document(s) is strictly prohibited without prior written consent. Any breach shall subject the \P}{\fSolid Edge ANSI|b0||i0||c0|p34;\C7;\H1.;\W1.;infringing party to remedies. 
  1
The owner reserves all rights in the event of the grant of a patent or the registration of a utility model or design.}
 73
     1
 44
1.0
1001
ACAD
1000
ACAD_MTEXT_DEFINED_HEIGHT_BEGIN
1070
    46
1040
8.1685527897
1000
ACAD_MTEXT_DEFINED_HEIGHT_END
  0
MTEXT
  5
204
330
1F
100
AcDbEntity
  8
Default
100
AcDbMText
 10
139.5531289039
 20
20.5520608538
 30
0.0
 40
2.5
 41
59.872727305
 46
4.6153946154
 71
     4
 72
     1
  1
{\fSolid Edge ISO|b0||i0||c0|p34;\C7;\H2.5;\W1.;technische Zeichnung_mkt}
 73
     1
 44
1.0
1001
ACAD
1000
ACAD_MTEXT_DEFINED_HEIGHT_BEGIN
1070
    46
1040
4.6153946154
1000
ACAD_MTEXT_DEFINED_HEIGHT_END
  0
MTEXT
  5
205
330
1F
100
AcDbEntity
  8
Default
100
AcDbMText
 10
139.645932934
 20
25.5772390452
 30
0.0
 40
2.2
 41
33.0612482929
 46
4.0615484615
 71
     1
 72
     1
  1
{\fSolid Edge ANSI|b0||i0||c0|p34;\C7;\H2.2;\W1.;Zeichnungsart}{\fSolid Edge ANSI|b0||i0||c0|p34;\C7;\H1.5;\W1.;/ drawing type}
 73
     1
 44
1.0
1001
ACAD
1000
ACAD_MTEXT_DEFINED_HEIGHT_BEGIN
1070
    46
1040
4.0615484615
1000
ACAD_MTEXT_DEFINED_HEIGHT_END
  0
MTEXT
  5
206
330
1F
100
AcDbEntity
  8
Standard
100
AcDbMText
 10
122.722860057
 20
25.1473558409
 30
0.0
 40
2.2
 41
15.8428315128
 46
4.0615484615
 71
     1
 72
     1
  1
{\fSolid Edge ANSI|b0||i0||c0|p34;\C7;\H2.2;\W1.;Einheit}{\fSolid Edge ANSI|b0||i0||c0|p34;\C7;\H1.5;\W1.;/ unit}
 73
     1
 44
1.0
1001
ACAD
1000
ACAD_MTEXT_DEFINED_HEIGHT_BEGIN
1070
    46
1040
4.0615484615
1000
ACAD_MTEXT_DEFINED_HEIGHT_END
  0
LINE
  5
207
330
1F
100
AcDbEntity
  8
Standard
  6
Continuous
 62
     7
100
AcDbLine
 10
122.1841943695
 20
25.9987912971
 30
0.0
 11
122.1841943695
 21
10.0
 31
0.0
  0
LINE
  5
208
330
1F
100
AcDbEntity
  8
Standard
  6
Continuous
 62
     7
100
AcDbLine
 10
138.2000000051
 20
18.2287912793
 30
0.0
 11
200.0
 21
18.2287912793
 31
0.0
  0
LINE
  5
209
330
1F
100
AcDbEntity
  8
Standard
  6
Continuous
 62
     7
100
AcDbLine
 10
138.2000000051
 20
34.3502211504
 30
0.0
 11
10.0
 21
34.3502211504
 31
0.0
  0
LINE
  5
20B
330
1F
100
AcDbEntity
  8
Skizziergeometrie(DIN)
  6
Continuous
 62
     7
100
AcDbLine
 10
10.0
 20
287.0
 30
0.0
 11
200.0
 21
287.0
 31
0.0
  0
LINE
  5
20C
330
1F
100
AcDbEntity
  8
Skizziergeometrie(DIN)
  6
Continuous
 62
     7
100
AcDbLine
 10
200.0
 20
287.0
 30
0.0
 11
200.0
 21
9.9999926436
 31
0.0
  0
LINE
  5
20D
330
1F
100
AcDbEntity
  8
Skizziergeometrie(DIN)
  6
Continuous
 62
     7
100
AcDbLine
 10
200.0
 20
9.9999926436
 30
0.0
 11
10.0
 21
9.9999926436
 31
0.0
  0
LINE
  5
20E
330
1F
100
AcDbEntity
  8
Skizziergeometrie(DIN)
  6
Continuous
 62
     7
100
AcDbLine
 10
10.0
 20
10.0
 30
0.0
 11
10.0
 21
287.0
 31
0.0
  0
IMAGE
  5
212
330
1F
100
AcDbEntity
  8
0
 92
      140
310
8C000000010000008400000006000000050000000E64D78BE9972B40BC01B030F29425400000000000000000559114E8E5774740BC01B030F29425400000000000000000559114E8E5774740017F9619FA7E384000000000000000000E64D78BE9972B40017F9619FA7E384000000000000000000E64D78BE9972B40BC01B0
310
30F29425400000000000000000
100
AcDbRasterImage
 90
        0
 10
13.7967036915
 20
10.7909102645
 30
0.0
 11
0.07742990654205607
 21
0.0
 31
0.0
 12
0.0
 22
0.07742990654205609
 32
0.0
 13
428.0
 23
177.0
340
211
 70
     7
280
     0
281
    50
282
    50
283
     0
360
213
 71
     1
 91
        2
 14
-0.5
 24
-0.5
 14
427.5
 24
176.5
  0
ENDSEC
  0
SECTION
  2
OBJECTS
  0
DICTIONARY
  5
C
330
0
100
AcDbDictionary
281
     1
  3
ACAD_DETAILVIEWSTYLE
350
24F
  3
ACAD_GROUP
350
D
  3
ACAD_IMAGE_DICT
350
210
  3
ACAD_IMAGE_VARS
350
20F
  3
ACAD_LAYOUT
350
1A
  3
ACAD_MATERIAL
350
43
  3
ACAD_MLEADERSTYLE
350
6B
  3
ACAD_MLINESTYLE
350
17
  3
ACAD_PLOTSETTINGS
350
19
  3
ACAD_PLOTSTYLENAME
350
E
  3
ACAD_SCALELIST
350
47
  3
ACAD_SECTIONVIEWSTYLE
350
250
  3
ACAD_TABLESTYLE
350
69
  3
ACAD_VISUALSTYLE
350
2A
  3
ACDB_RECOMPOSE_DATA
350
24C
  3
AcDbVariableDictionary
350
215
  0
SUN
  5
6D
330
29
100
AcDbSun
 90
        1
290
     0
 63
     7
421
 16777215
 40
1.0
291
     1
 91
  2455826
 92
 54000000
292
     0
 70
     2
 71
   256
280
     1
  0
IMAGEDEF_REACTOR
  5
213
330
212
100
AcDbRasterImageDefReactor
 90
        2
330
212
  0
DICTIONARY
  5
24F
102
{ACAD_REACTORS
330
C
102
}
330
C
100
AcDbDictionary
281
     1
  0
DICTIONARY
  5
D
102
{ACAD_REACTORS
330
C
102
}
330
C
100
AcDbDictionary
281
     1
  0
DICTIONARY
  5
210
102
{ACAD_REACTORS
330
C
102
}
330
C
100
AcDbDictionary
281
     1
  3
1-375-1x_1.bmp
350
211
  0
RASTERVARIABLES
  5
20F
102
{ACAD_REACTORS
330
C
102
}
330
C
100
AcDbRasterVariables
 90
        0
 70
     1
 71
     1
 72
     1
  0
DICTIONARY
  5
1A
102
{ACAD_REACTORS
330
C
102
}
330
C
100
AcDbDictionary
281
     1
  3
Layout1
350
1E
  3
Model
350
22
  0
DICTIONARY
  5
43
102
{ACAD_REACTORS
330
C
102
}
330
C
100
AcDbDictionary
281
     1
  3
ByBlock
350
45
  3
ByLayer
350
44
  3
Global
350
46
  0
DICTIONARY
  5
6B
102
{ACAD_REACTORS
330
C
102
}
330
C
100
AcDbDictionary
281
     1
  3
Standard
350
6C
  0
DICTIONARY
  5
17
102
{ACAD_REACTORS
330
C
102
}
330
C
100
AcDbDictionary
281
     1
  3
Standard
350
18
  0
DICTIONARY
  5
19
102
{ACAD_REACTORS
330
C
102
}
330
C
100
AcDbDictionary
281
     1
  0
ACDBDICTIONARYWDFLT
  5
E
102
{ACAD_REACTORS
330
C
102
}
330
C
100
AcDbDictionary
281
     1
  3
Normal
350
F
100
AcDbDictionaryWithDefault
340
F
  0
DICTIONARY
  5
47
102
{ACAD_REACTORS
330
C
102
}
330
C
100
AcDbDictionary
281
     1
  3
A0
350
48
  3
A1
350
49
  3
A2
350
4A
  3
A3
350
4B
  3
A4
350
4C
  3
A5
350
4D
  3
A6
350
4E
  3
A7
350
4F
  3
A8
350
50
  3
A9
350
51
  3
B0
350
52
  3
B1
350
53
  3
B2
350
54
  3
B3
350
55
  3
B4
350
56
  3
B5
350
57
  3
B6
350
58
  3
B7
350
59
  3
B8
350
5A
  3
B9
350
5B
  3
C0
350
5C
  3
C1
350
5D
  3
C2
350
5E
  3
C3
350
5F
  3
C4
350
60
  3
C5
350
61
  3
C6
350
62
  3
C7
350
63
  3
C8
350
64
  3
C9
350
65
  3
D0
350
66
  3
D1
350
67
  3
D2
350
68
  0
DICTIONARY
  5
250
102
{ACAD_REACTORS
330
C
102
}
330
C
100
AcDbDictionary
281
     1
  0
DICTIONARY
  5
69
102
{ACAD_REACTORS
330
C
102
}
330
C
100
AcDbDictionary
281
     1
  3
Standard
350
6A
  0
DICTIONARY
  5
2A
102
{ACAD_REACTORS
330
C
102
}
330
C
100
AcDbDictionary
281
     1
  3
2dWireframe
350
2F
  3
Basic
350
32
  3
Brighten
350
36
  3
ColorChange
350
3A
  3
Conceptual
350
34
  3
Dim
350
35
  3
EdgeColorOff
350
3D
  3
Facepattern
350
39
  3
Flat
350
2B
  3
FlatWithEdges
350
2C
  3
Gouraud
350
2D
  3
GouraudWithEdges
350
2E
  3
Hidden
350
31
  3
JitterOff
350
3B
  3
Linepattern
350
38
  3
OverhangOff
350
3C
  3
Realistic
350
33
  3
Shaded
350
42
  3
Shaded with edges
350
41
  3
Shades of Gray
350
3E
  3
Sketchy
350
3F
  3
Thicken
350
37
  3
Wireframe
350
30
  3
X-Ray
350
40
  0
XRECORD
  5
24C
102
{ACAD_REACTORS
330
C
102
}
330
C
100
AcDbXrecord
280
     1
 90
        1
330
6A
  0
DICTIONARY
  5
215
102
{ACAD_REACTORS
330
C
102
}
330
C
100
AcDbDictionary
281
     1
  3
CANNOSCALE
350
216
  3
CENTEREXE
350
251
  3
CENTERLTYPEFILE
350
252
  3
CMLEADERSTYLE
350
24E
  3
CTABLESTYLE
350
24D
  3
XCLIPFRAME
350
217
  0
IMAGEDEF
  5
211
102
{ACAD_REACTORS
330
210
330
213
102
}
330
210
100
AcDbRasterImageDef
 90
        0
  1
1-375-1x_1.bmp
 10
428.0
 20
177.0
 11
0.002336448598130841
 21
0.002336448598130841
280
     1
281
     5
  0
LAYOUT
  5
1E
102
{ACAD_REACTORS
330
1A
102
}
330
1A
100
AcDbPlotSettings
  1

  2
none_device
  4

  6

 40
0.0
 41
0.0
 42
0.0
 43
0.0
 44
0.0
 45
0.0
 46
0.0
 47
0.0
 48
0.0
 49
0.0
140
0.0
141
0.0
142
1.0
143
1.0
 70
   688
 72
     1
 73
     0
 74
     5
  7

 75
    16
 76
     0
 77
     2
 78
   300
147
1.0
148
0.0
149
0.0
100
AcDbLayout
  1
Layout1
 70
     1
 71
     1
 10
0.0
 20
0.0
 11
210.0
 21
297.0
 12
0.0
 22
0.0
 32
0.0
 14
0.0
 24
0.0
 34
0.0
 15
210.0
 25
297.0
 35
0.0
146
0.0
 13
0.0
 23
0.0
 33
0.0
 16
1.0
 26
0.0
 36
0.0
 17
0.0
 27
1.0
 37
0.0
 76
     0
330
1B
  0
LAYOUT
  5
22
102
{ACAD_REACTORS
330
1A
102
}
330
1A
100
AcDbPlotSettings
  1

  2
none_device
  4
Letter_(8.50_x_11.00_Inches)
  6

 40
6.35
 41
6.35
 42
6.35000508
 43
6.35000508
 44
215.9
 45
279.4
 46
0.0
 47
0.0
 48
0.0
 49
0.0
140
0.0
141
0.0
142
1.0
143
1.0
 70
  1712
 72
     1
 73
     0
 74
     0
  7

 75
     0
 76
     0
 77
     2
 78
   300
147
1.0
148
0.0
149
0.0
100
AcDbLayout
  1
Model
 70
     1
 71
     0
 10
0.0
 20
0.0
 11
210.0
 21
297.0
 12
0.0
 22
0.0
 32
0.0
 14
0.0
 24
0.0
 34
0.0
 15
210.0
 25
297.0
 35
0.0
146
0.0
 13
0.0
 23
0.0
 33
0.0
 16
1.0
 26
0.0
 36
0.0
 17
0.0
 27
1.0
 37
0.0
 76
     0
330
1F
331
29
  0
MATERIAL
  5
45
102
{ACAD_REACTORS
330
43
102
}
330
43
100
AcDbMaterial
  1
ByBlock
 72
     1
 94
      127
  0
MATERIAL
  5
44
102
{ACAD_REACTORS
330
43
102
}
330
43
100
AcDbMaterial
  1
ByLayer
 72
     1
 94
      127
  0
MATERIAL
  5
46
102
{ACAD_REACTORS
330
43
102
}
330
43
100
AcDbMaterial
  1
Global
 72
     1
 94
      127
  0
MLEADERSTYLE
  5
6C
102
{ACAD_REACTORS
330
6B
102
}
102
{ACAD_XDICTIONARY
360
24A
102
}
330
6B
100
AcDbMLeaderStyle
170
     2
171
     1
172
     0
 90
        2
 40
0.0
 41
0.0
173
     1
 91
-1056964608
340
14
 92
       -2
290
     1
 42
2.0
291
     1
 43
8.0
  3
Standard
341
0
 44
4.0
300

342
11
174
     1
178
     6
175
     1
176
     0
 93
-1056964608
 45
4.0
292
     0
297
     0
 46
4.0
343
0
 94
-1056964608
 47
1.0
 49
1.0
140
1.0
293
     1
141
0.0
294
     1
177
     0
142
1.0
295
     0
296
     0
143
3.75
1001
ACAD_MLEADERVER
1070
     2
  0
MLINESTYLE
  5
18
102
{ACAD_REACTORS
330
17
102
}
330
17
100
AcDbMlineStyle
  2
Standard
 70
     0
  3

 62
   256
 51
90.0
 52
90.0
 71
     2
 49
0.5
 62
   256
  6
BYLAYER
 49
-0.5
 62
   256
  6
BYLAYER
  0
ACDBPLACEHOLDER
  5
F
102
{ACAD_REACTORS
330
E
102
}
330
E
  0
SCALE
  5
48
102
{ACAD_REACTORS
330
47
102
}
330
47
100
AcDbScale
 70
     0
300
1:1
140
1.0
141
1.0
290
     1
  0
SCALE
  5
49
102
{ACAD_REACTORS
330
47
102
}
330
47
100
AcDbScale
 70
     0
300
1:2
140
1.0
141
2.0
290
     0
  0
SCALE
  5
4A
102
{ACAD_REACTORS
330
47
102
}
330
47
100
AcDbScale
 70
     0
300
1:4
140
1.0
141
4.0
290
     0
  0
SCALE
  5
4B
102
{ACAD_REACTORS
330
47
102
}
330
47
100
AcDbScale
 70
     0
300
1:5
140
1.0
141
5.0
290
     0
  0
SCALE
  5
4C
102
{ACAD_REACTORS
330
47
102
}
330
47
100
AcDbScale
 70
     0
300
1:8
140
1.0
141
8.0
290
     0
  0
SCALE
  5
4D
102
{ACAD_REACTORS
330
47
102
}
330
47
100
AcDbScale
 70
     0
300
1:10
140
1.0
141
10.0
290
     0
  0
SCALE
  5
4E
102
{ACAD_REACTORS
330
47
102
}
330
47
100
AcDbScale
 70
     0
300
1:16
140
1.0
141
16.0
290
     0
  0
SCALE
  5
4F
102
{ACAD_REACTORS
330
47
102
}
330
47
100
AcDbScale
 70
     0
300
1:20
140
1.0
141
20.0
290
     0
  0
SCALE
  5
50
102
{ACAD_REACTORS
330
47
102
}
330
47
100
AcDbScale
 70
     0
300
1:30
140
1.0
141
30.0
290
     0
  0
SCALE
  5
51
102
{ACAD_REACTORS
330
47
102
}
330
47
100
AcDbScale
 70
     0
300
1:40
140
1.0
141
40.0
290
     0
  0
SCALE
  5
52
102
{ACAD_REACTORS
330
47
102
}
330
47
100
AcDbScale
 70
     0
300
1:50
140
1.0
141
50.0
290
     0
  0
SCALE
  5
53
102
{ACAD_REACTORS
330
47
102
}
330
47
100
AcDbScale
 70
     0
300
1:100
140
1.0
141
100.0
290
     0
  0
SCALE
  5
54
102
{ACAD_REACTORS
330
47
102
}
330
47
100
AcDbScale
 70
     0
300
2:1
140
2.0
141
1.0
290
     0
  0
SCALE
  5
55
102
{ACAD_REACTORS
330
47
102
}
330
47
100
AcDbScale
 70
     0
300
4:1
140
4.0
141
1.0
290
     0
  0
SCALE
  5
56
102
{ACAD_REACTORS
330
47
102
}
330
47
100
AcDbScale
 70
     0
300
8:1
140
8.0
141
1.0
290
     0
  0
SCALE
  5
57
102
{ACAD_REACTORS
330
47
102
}
330
47
100
AcDbScale
 70
     0
300
10:1
140
10.0
141
1.0
290
     0
  0
SCALE
  5
58
102
{ACAD_REACTORS
330
47
102
}
330
47
100
AcDbScale
 70
     0
300
100:1
140
100.0
141
1.0
290
     0
  0
SCALE
  5
59
102
{ACAD_REACTORS
330
47
102
}
330
47
100
AcDbScale
 70
     0
300
1/128" = 1'-0"
140
0.0078125
141
12.0
290
     0
  0
SCALE
  5
5A
102
{ACAD_REACTORS
330
47
102
}
330
47
100
AcDbScale
 70
     0
300
1/64" = 1'-0"
140
0.015625
141
12.0
290
     0
  0
SCALE
  5
5B
102
{ACAD_REACTORS
330
47
102
}
330
47
100
AcDbScale
 70
     0
300
1/32" = 1'-0"
140
0.03125
141
12.0
290
     0
  0
SCALE
  5
5C
102
{ACAD_REACTORS
330
47
102
}
330
47
100
AcDbScale
 70
     0
300
1/16" = 1'-0"
140
0.0625
141
12.0
290
     0
  0
SCALE
  5
5D
102
{ACAD_REACTORS
330
47
102
}
330
47
100
AcDbScale
 70
     0
300
3/32" = 1'-0"
140
0.09375
141
12.0
290
     0
  0
SCALE
  5
5E
102
{ACAD_REACTORS
330
47
102
}
330
47
100
AcDbScale
 70
     0
300
1/8" = 1'-0"
140
0.125
141
12.0
290
     0
  0
SCALE
  5
5F
102
{ACAD_REACTORS
330
47
102
}
330
47
100
AcDbScale
 70
     0
300
3/16" = 1'-0"
140
0.1875
141
12.0
290
     0
  0
SCALE
  5
60
102
{ACAD_REACTORS
330
47
102
}
330
47
100
AcDbScale
 70
     0
300
1/4" = 1'-0"
140
0.25
141
12.0
290
     0
  0
SCALE
  5
61
102
{ACAD_REACTORS
330
47
102
}
330
47
100
AcDbScale
 70
     0
300
3/8" = 1'-0"
140
0.375
141
12.0
290
     0
  0
SCALE
  5
62
102
{ACAD_REACTORS
330
47
102
}
330
47
100
AcDbScale
 70
     0
300
1/2" = 1'-0"
140
0.5
141
12.0
290
     0
  0
SCALE
  5
63
102
{ACAD_REACTORS
330
47
102
}
330
47
100
AcDbScale
 70
     0
300
3/4" = 1'-0"
140
0.75
141
12.0
290
     0
  0
SCALE
  5
64
102
{ACAD_REACTORS
330
47
102
}
330
47
100
AcDbScale
 70
     0
300
1" = 1'-0"
140
1.0
141
12.0
290
     0
  0
SCALE
  5
65
102
{ACAD_REACTORS
330
47
102
}
330
47
100
AcDbScale
 70
     0
300
1-1/2" = 1'-0"
140
1.5
141
12.0
290
     0
  0
SCALE
  5
66
102
{ACAD_REACTORS
330
47
102
}
330
47
100
AcDbScale
 70
     0
300
3" = 1'-0"
140
3.0
141
12.0
290
     0
  0
SCALE
  5
67
102
{ACAD_REACTORS
330
47
102
}
330
47
100
AcDbScale
 70
     0
300
6" = 1'-0"
140
6.0
141
12.0
290
     0
  0
SCALE
  5
68
102
{ACAD_REACTORS
330
47
102
}
330
47
100
AcDbScale
 70
     0
300
1'-0" = 1'-0"
140
12.0
141
12.0
290
     0
  0
TABLESTYLE
  5
6A
102
{ACAD_REACTORS
330
69
102
}
102
{ACAD_XDICTIONARY
360
248
102
}
330
69
100
AcDbTableStyle
  3
Standard
 70
     0
 71
     0
 40
0.06
 41
0.06
280
     0
281
     0
  7
Standard
140
4.5
170
     2
 62
     0
 63
   257
283
     0
 90
        4
 91
        0
  1

274
    -2
284
     1
 64
     0
275
    -2
285
     1
 65
     0
276
    -2
286
     1
 66
     0
277
    -2
287
     1
 67
     0
278
    -2
288
     1
 68
     0
279
    -2
289
     1
 69
     0
  7
Standard
140
6.0
170
     5
 62
     0
 63
   257
283
     0
 90
        4
 91
        0
  1

274
    -2
284
     1
 64
     0
275
    -2
285
     1
 65
     0
276
    -2
286
     1
 66
     0
277
    -2
287
     1
 67
     0
278
    -2
288
     1
 68
     0
279
    -2
289
     1
 69
     0
  7
Standard
140
4.5
170
     5
 62
     0
 63
   257
283
     0
 90
        4
 91
        0
  1

274
    -2
284
     1
 64
     0
275
    -2
285
     1
 65
     0
276
    -2
286
     1
 66
     0
277
    -2
287
     1
 67
     0
278
    -2
288
     1
 68
     0
279
    -2
289
     1
 69
     0
  0
VISUALSTYLE
  5
2F
102
{ACAD_REACTORS
330
2A
102
}
102
{ACAD_XDICTIONARY
360
220
102
}
330
2A
100
AcDbVisualStyle
  2
2dWireframe
 70
     4
 71
     0
 72
     2
 73
     0
 90
        0
 40
0.6
 41
30.0
 62
     5
 63
     7
421
 16777215
 74
     1
 91
        4
 64
     7
 65
   257
 75
     1
175
     1
 42
1.0
 92
        0
 66
   257
 43
1.0
 76
     1
 77
     6
 78
     2
 67
     7
 79
     5
170
     0
171
     0
290
     0
174
     0
 93
        1
 44
0.0
173
     0
291
     0
 45
0.0
  0
VISUALSTYLE
  5
32
102
{ACAD_REACTORS
330
2A
102
}
102
{ACAD_XDICTIONARY
360
226
102
}
330
2A
100
AcDbVisualStyle
  2
Basic
 70
     7
 71
     1
 72
     0
 73
     1
 90
        0
 40
0.6
 41
30.0
 62
     5
 63
     7
421
 16777215
 74
     0
 91
        4
 64
     7
 65
   257
 75
     1
175
     1
 42
1.0
 92
        8
 66
     7
 43
1.0
 76
     1
 77
     6
 78
     2
 67
     7
 79
     5
170
     0
171
     0
290
     0
174
     0
 93
        1
 44
0.0
173
     0
291
     1
 45
0.0
  0
VISUALSTYLE
  5
36
102
{ACAD_REACTORS
330
2A
102
}
102
{ACAD_XDICTIONARY
360
22E
102
}
330
2A
100
AcDbVisualStyle
  2
Brighten
 70
    12
 71
     2
 72
     2
 73
     0
 90
        0
 40
0.6
 41
30.0
 62
     5
 63
     7
421
 16777215
 74
     1
 91
        4
 64
     7
 65
   257
 75
     1
175
     1
 42
1.0
 92
        8
 66
     7
 43
1.0
 76
     1
 77
     6
 78
     2
 67
     7
 79
     5
170
     0
171
     0
290
     0
174
     0
 93
        1
 44
50.0
173
     0
291
     1
 45
0.0
  0
VISUALSTYLE
  5
3A
102
{ACAD_REACTORS
330
2A
102
}
102
{ACAD_XDICTIONARY
360
236
102
}
330
2A
100
AcDbVisualStyle
  2
ColorChange
 70
    16
 71
     2
 72
     2
 73
     3
 90
        0
 40
0.6
 41
30.0
 62
     5
 63
     8
421
  8421504
 74
     1
 91
        4
 64
     7
 65
   257
 75
     1
175
     1
 42
1.0
 92
        8
 66
     8
424
  8421504
 43
1.0
 76
     1
 77
     6
 78
     2
 67
     7
 79
     5
170
     0
171
     0
290
     0
174
     0
 93
        1
 44
0.0
173
     0
291
     1
 45
0.0
  0
VISUALSTYLE
  5
34
102
{ACAD_REACTORS
330
2A
102
}
102
{ACAD_XDICTIONARY
360
22A
102
}
330
2A
100
AcDbVisualStyle
  2
Conceptual
 70
     9
 71
     3
 72
     2
 73
     0
 90
        0
 40
0.6
 41
30.0
 62
     5
 63
     7
421
 16777215
 74
     2
 91
        2
 64
     7
 65
   257
 75
     1
175
     1
 42
179.0
 92
        8
 66
     7
 43
1.0
 76
     1
 77
     6
 78
     2
 67
     7
 79
     3
170
     0
171
     0
290
     0
174
     0
 93
        1
 44
0.0
173
     0
291
     0
 45
0.0
  0
VISUALSTYLE
  5
35
102
{ACAD_REACTORS
330
2A
102
}
102
{ACAD_XDICTIONARY
360
22C
102
}
330
2A
100
AcDbVisualStyle
  2
Dim
 70
    11
 71
     2
 72
     2
 73
     0
 90
        0
 40
0.6
 41
30.0
 62
     5
 63
     7
421
 16777215
 74
     1
 91
        4
 64
     7
 65
   257
 75
     1
175
     1
 42
1.0
 92
        8
 66
     7
 43
1.0
 76
     1
 77
     6
 78
     2
 67
     7
 79
     5
170
     0
171
     0
290
     0
174
     0
 93
        1
 44
-50.0
173
     0
291
     1
 45
0.0
  0
VISUALSTYLE
  5
3D
102
{ACAD_REACTORS
330
2A
102
}
102
{ACAD_XDICTIONARY
360
23C
102
}
330
2A
100
AcDbVisualStyle
  2
EdgeColorOff
 70
    22
 71
     2
 72
     2
 73
     0
 90
        0
 40
0.6
 41
30.0
 62
     5
 63
     7
421
 16777215
 74
     1
 91
        4
 64
     7
 65
   257
 75
     1
175
     1
 42
1.0
 92
        8
 66
     7
 43
1.0
 76
     1
 77
     6
 78
     2
 67
     7
 79
     5
170
     0
171
     0
290
     0
174
     0
 93
        1
 44
0.0
173
     0
291
     1
 45
0.0
  0
VISUALSTYLE
  5
39
102
{ACAD_REACTORS
330
2A
102
}
102
{ACAD_XDICTIONARY
360
234
102
}
330
2A
100
AcDbVisualStyle
  2
Facepattern
 70
    15
 71
     2
 72
     2
 73
     0
 90
        0
 40
0.6
 41
30.0
 62
     5
 63
     7
421
 16777215
 74
     1
 91
        4
 64
     7
 65
   257
 75
     1
175
     1
 42
1.0
 92
        8
 66
     7
 43
1.0
 76
     1
 77
     6
 78
     2
 67
     7
 79
     5
170
     0
171
     0
290
     0
174
     0
 93
        1
 44
0.0
173
     0
291
     1
 45
0.0
  0
VISUALSTYLE
  5
2B
102
{ACAD_REACTORS
330
2A
102
}
102
{ACAD_XDICTIONARY
360
218
102
}
330
2A
100
AcDbVisualStyle
  2
Flat
 70
     0
 71
     2
 72
     1
 73
     1
 90
        2
 40
0.6
 41
30.0
 62
     5
 63
     7
421
 16777215
 74
     0
 91
        0
 64
     7
 65
   257
 75
     1
175
     1
 42
1.0
 92
        8
 66
     7
 43
1.0
 76
     1
 77
     6
 78
     2
 67
     7
 79
     5
170
     0
171
     0
290
     0
174
     0
 93
       13
 44
0.0
173
     0
291
     1
 45
0.0
  0
VISUALSTYLE
  5
2C
102
{ACAD_REACTORS
330
2A
102
}
102
{ACAD_XDICTIONARY
360
21A
102
}
330
2A
100
AcDbVisualStyle
  2
FlatWithEdges
 70
     1
 71
     2
 72
     1
 73
     1
 90
        2
 40
0.6
 41
30.0
 62
     5
 63
     7
421
 16777215
 74
     1
 91
        0
 64
     7
 65
   257
 75
     1
175
     1
 42
1.0
 92
        0
 66
   257
 43
1.0
 76
     1
 77
     6
 78
     2
 67
     7
 79
     5
170
     0
171
     0
290
     0
174
     0
 93
       13
 44
0.0
173
     0
291
     1
 45
0.0
  0
VISUALSTYLE
  5
2D
102
{ACAD_REACTORS
330
2A
102
}
102
{ACAD_XDICTIONARY
360
21C
102
}
330
2A
100
AcDbVisualStyle
  2
Gouraud
 70
     2
 71
     2
 72
     2
 73
     1
 90
        2
 40
0.6
 41
30.0
 62
     5
 63
     7
421
 16777215
 74
     0
 91
        0
 64
     7
 65
   257
 75
     1
175
     1
 42
1.0
 92
        0
 66
     7
 43
1.0
 76
     1
 77
     6
 78
     2
 67
     7
 79
     5
170
     0
171
     0
290
     0
174
     0
 93
       13
 44
0.0
173
     0
291
     1
 45
0.0
  0
VISUALSTYLE
  5
2E
102
{ACAD_REACTORS
330
2A
102
}
102
{ACAD_XDICTIONARY
360
21E
102
}
330
2A
100
AcDbVisualStyle
  2
GouraudWithEdges
 70
     3
 71
     2
 72
     2
 73
     1
 90
        2
 40
0.6
 41
30.0
 62
     5
 63
     7
421
 16777215
 74
     1
 91
        0
 64
     7
 65
   257
 75
     1
175
     1
 42
1.0
 92
        0
 66
   257
 43
1.0
 76
     1
 77
     6
 78
     2
 67
     7
 79
     5
170
     0
171
     0
290
     0
174
     0
 93
       13
 44
0.0
173
     0
291
     1
 45
0.0
  0
VISUALSTYLE
  5
31
102
{ACAD_REACTORS
330
2A
102
}
102
{ACAD_XDICTIONARY
360
224
102
}
330
2A
100
AcDbVisualStyle
  2
Hidden
 70
     6
 71
     1
 72
     2
 73
     2
 90
        0
 40
0.6
 41
30.0
 62
     5
 63
     7
421
 16777215
 74
     2
 91
        2
 64
     7
 65
   257
 75
     2
175
     1
 42
40.0
 92
        0
 66
   257
 43
1.0
 76
     1
 77
     6
 78
     2
 67
     7
 79
     3
170
     0
171
     0
290
     0
174
     0
 93
        1
 44
0.0
173
     0
291
     0
 45
0.0
  0
VISUALSTYLE
  5
3B
102
{ACAD_REACTORS
330
2A
102
}
102
{ACAD_XDICTIONARY
360
238
102
}
330
2A
100
AcDbVisualStyle
  2
JitterOff
 70
    20
 71
     2
 72
     2
 73
     0
 90
        0
 40
0.6
 41
30.0
 62
     5
 63
     7
421
 16777215
 74
     1
 91
        4
 64
     7
 65
   257
 75
     1
175
     1
 42
1.0
 92
       10
 66
     7
 43
1.0
 76
     1
 77
     6
 78
     2
 67
     7
 79
     5
170
     0
171
     0
290
     0
174
     0
 93
        1
 44
0.0
173
     0
291
     1
 45
0.0
  0
VISUALSTYLE
  5
38
102
{ACAD_REACTORS
330
2A
102
}
102
{ACAD_XDICTIONARY
360
232
102
}
330
2A
100
AcDbVisualStyle
  2
Linepattern
 70
    14
 71
     2
 72
     2
 73
     0
 90
        0
 40
0.6
 41
30.0
 62
     5
 63
     7
421
 16777215
 74
     1
 91
        4
 64
     7
 65
   257
 75
     7
175
     7
 42
1.0
 92
        8
 66
     7
 43
1.0
 76
     1
 77
     6
 78
     2
 67
     7
 79
     5
170
     0
171
     0
290
     0
174
     0
 93
        1
 44
0.0
173
     0
291
     1
 45
0.0
  0
VISUALSTYLE
  5
3C
102
{ACAD_REACTORS
330
2A
102
}
102
{ACAD_XDICTIONARY
360
23A
102
}
330
2A
100
AcDbVisualStyle
  2
OverhangOff
 70
    21
 71
     2
 72
     2
 73
     0
 90
        0
 40
0.6
 41
30.0
 62
     5
 63
     7
421
 16777215
 74
     1
 91
        4
 64
     7
 65
   257
 75
     1
175
     1
 42
1.0
 92
        9
 66
     7
 43
1.0
 76
     1
 77
     6
 78
     2
 67
     7
 79
     5
170
     0
171
     0
290
     0
174
     0
 93
        1
 44
0.0
173
     0
291
     1
 45
0.0
  0
VISUALSTYLE
  5
33
102
{ACAD_REACTORS
330
2A
102
}
102
{ACAD_XDICTIONARY
360
228
102
}
330
2A
100
AcDbVisualStyle
  2
Realistic
 70
     8
 71
     2
 72
     3
 73
     0
 90
        2
 40
0.6
 41
30.0
 62
     5
 63
     7
421
 16777215
 74
     0
 91
        0
 64
     7
 65
   257
 75
     1
175
     1
 42
1.0
 92
        8
 66
   257
 43
1.0
 76
     1
 77
     6
 78
     2
 67
     7
 79
     3
170
     0
171
     0
290
     0
174
     0
 93
       13
 44
0.0
173
     0
291
     0
 45
0.0
  0
VISUALSTYLE
  5
42
102
{ACAD_REACTORS
330
2A
102
}
102
{ACAD_XDICTIONARY
360
246
102
}
330
2A
100
AcDbVisualStyle
  2
Shaded
 70
    27
 71
     2
 72
     2
 73
     1
 90
        2
 40
0.6
 41
30.0
 62
     5
 63
     7
421
 16777215
 74
     0
 91
        4
 64
     7
 65
   257
 75
     1
175
     1
 42
1.0
 92
        8
 66
   257
 43
1.0
 76
     1
 77
     6
 78
     2
 67
     8
425
  7895160
 79
     3
170
     0
171
     0
290
     0
174
     0
 93
        5
 44
0.0
173
     0
291
     0
 45
0.0
  0
VISUALSTYLE
  5
41
102
{ACAD_REACTORS
330
2A
102
}
102
{ACAD_XDICTIONARY
360
244
102
}
330
2A
100
AcDbVisualStyle
  2
Shaded with edges
 70
    26
 71
     2
 72
     2
 73
     1
 90
        2
 40
0.6
 41
30.0
 62
     5
 63
     7
421
 16777215
 74
     1
 91
       10
 64
     7
 65
   257
 75
     2
175
     1
 42
1.0
 92
        8
 66
   257
 43
1.0
 76
     1
 77
     6
 78
     2
 67
     7
 79
     3
170
     0
171
     0
290
     0
174
     0
 93
        5
 44
0.0
173
     0
291
     0
 45
0.0
  0
VISUALSTYLE
  5
3E
102
{ACAD_REACTORS
330
2A
102
}
102
{ACAD_XDICTIONARY
360
23E
102
}
330
2A
100
AcDbVisualStyle
  2
Shades of Gray
 70
    23
 71
     2
 72
     2
 73
     3
 90
        0
 40
0.6
 41
30.0
 62
     5
 63
     7
421
 16777215
 74
     2
 91
        2
 64
     7
 65
     7
 75
     1
175
     1
 42
40.0
 92
        8
 66
     7
 43
1.0
 76
     1
 77
     6
 78
     2
 67
     7
 79
     3
170
     0
171
     0
290
     0
174
     0
 93
        1
 44
0.0
173
     0
291
     0
 45
0.0
  0
VISUALSTYLE
  5
3F
102
{ACAD_REACTORS
330
2A
102
}
102
{ACAD_XDICTIONARY
360
240
102
}
330
2A
100
AcDbVisualStyle
  2
Sketchy
 70
    24
 71
     1
 72
     2
 73
     2
 90
        0
 40
0.6
 41
30.0
 62
     5
 63
     7
421
 16777215
 74
     2
 91
        2
 64
     7
 65
     7
 75
     1
175
     1
 42
40.0
 92
       11
 66
     7
 43
1.0
 76
     1
 77
     6
 78
     2
 67
     7
 79
     6
170
     0
171
     0
290
     0
174
     0
 93
        1
 44
0.0
173
     0
291
     0
 45
0.0
  0
VISUALSTYLE
  5
37
102
{ACAD_REACTORS
330
2A
102
}
102
{ACAD_XDICTIONARY
360
230
102
}
330
2A
100
AcDbVisualStyle
  2
Thicken
 70
    13
 71
     2
 72
     2
 73
     0
 90
        0
 40
0.6
 41
30.0
 62
     5
 63
     7
421
 16777215
 74
     1
 91
        4
 64
     7
 65
   257
 75
     1
175
     1
 42
1.0
 92
       12
 66
     7
 43
1.0
 76
     1
 77
     6
 78
     2
 67
     7
 79
     5
170
     0
171
     0
290
     0
174
     0
 93
        1
 44
0.0
173
     0
291
     1
 45
0.0
  0
VISUALSTYLE
  5
30
102
{ACAD_REACTORS
330
2A
102
}
102
{ACAD_XDICTIONARY
360
222
102
}
330
2A
100
AcDbVisualStyle
  2
Wireframe
 70
     5
 71
     0
 72
     2
 73
     0
 90
        0
 40
0.6
 41
30.0
 62
     5
 63
     7
421
 16777215
 74
     1
 91
        4
 64
     7
 65
   257
 75
     1
175
     1
 42
1.0
 92
        0
 66
   257
 43
1.0
 76
     1
 77
     6
 78
     2
 67
     7
 79
     3
170
     0
171
     0
290
     0
174
     0
 93
        1
 44
0.0
173
     0
291
     0
 45
0.0
  0
VISUALSTYLE
  5
40
102
{ACAD_REACTORS
330
2A
102
}
102
{ACAD_XDICTIONARY
360
242
102
}
330
2A
100
AcDbVisualStyle
  2
X-Ray
 70
    25
 71
     2
 72
     2
 73
     1
 90
        1
 40
0.5
 41
30.0
 62
     5
 63
     7
421
 16777215
 74
     1
 91
        0
 64
     7
 65
   257
 75
     1
175
     1
 42
1.0
 92
        8
 66
     7
 43
1.0
 76
     1
 77
     6
 78
     2
 67
     7
 79
     3
170
     0
171
     0
290
     0
174
     0
 93
       13
 44
0.0
173
     0
291
     0
 45
0.0
  0
DICTIONARYVAR
  5
216
102
{ACAD_REACTORS
330
215
102
}
330
215
100
DictionaryVariables
280
     0
  1
1:1
  0
DICTIONARYVAR
  5
251
102
{ACAD_REACTORS
330
215
102
}
330
215
100
DictionaryVariables
280
     0
  1
3.500000
  0
DICTIONARYVAR
  5
252
102
{ACAD_REACTORS
330
215
102
}
330
215
100
DictionaryVariables
280
     0
  1
acadiso.lin
  0
DICTIONARYVAR
  5
24E
102
{ACAD_REACTORS
330
215
102
}
330
215
100
DictionaryVariables
280
     0
  1
Standard
  0
DICTIONARYVAR
  5
24D
102
{ACAD_REACTORS
330
215
102
}
330
215
100
DictionaryVariables
280
     0
  1
Standard
  0
DICTIONARYVAR
  5
217
102
{ACAD_REACTORS
330
215
102
}
330
215
100
DictionaryVariables
280
     0
  1
2
  0
DICTIONARY
  5
24A
330
6C
100
AcDbDictionary
280
     1
281
     1
  3
ACAD_XREC_ROUNDTRIP
360
24B
  0
DICTIONARY
  5
248
330
6A
100
AcDbDictionary
280
     1
281
     1
  3
ACAD_ROUNDTRIP_2008_TABLESTYLE_CELLSTYLEMAP
360
249
  0
DICTIONARY
  5
220
330
2F
100
AcDbDictionary
280
     1
281
     1
  3
ACAD_XREC_ROUNDTRIP
360
221
  0
DICTIONARY
  5
226
330
32
100
AcDbDictionary
280
     1
281
     1
  3
ACAD_XREC_ROUNDTRIP
360
227
  0
DICTIONARY
  5
22E
330
36
100
AcDbDictionary
280
     1
281
     1
  3
ACAD_XREC_ROUNDTRIP
360
22F
  0
DICTIONARY
  5
236
330
3A
100
AcDbDictionary
280
     1
281
     1
  3
ACAD_XREC_ROUNDTRIP
360
237
  0
DICTIONARY
  5
22A
330
34
100
AcDbDictionary
280
     1
281
     1
  3
ACAD_XREC_ROUNDTRIP
360
22B
  0
DICTIONARY
  5
22C
330
35
100
AcDbDictionary
280
     1
281
     1
  3
ACAD_XREC_ROUNDTRIP
360
22D
  0
DICTIONARY
  5
23C
330
3D
100
AcDbDictionary
280
     1
281
     1
  3
ACAD_XREC_ROUNDTRIP
360
23D
  0
DICTIONARY
  5
234
330
39
100
AcDbDictionary
280
     1
281
     1
  3
ACAD_XREC_ROUNDTRIP
360
235
  0
DICTIONARY
  5
218
330
2B
100
AcDbDictionary
280
     1
281
     1
  3
ACAD_XREC_ROUNDTRIP
360
219
  0
DICTIONARY
  5
21A
330
2C
100
AcDbDictionary
280
     1
281
     1
  3
ACAD_XREC_ROUNDTRIP
360
21B
  0
DICTIONARY
  5
21C
330
2D
100
AcDbDictionary
280
     1
281
     1
  3
ACAD_XREC_ROUNDTRIP
360
21D
  0
DICTIONARY
  5
21E
330
2E
100
AcDbDictionary
280
     1
281
     1
  3
ACAD_XREC_ROUNDTRIP
360
21F
  0
DICTIONARY
  5
224
330
31
100
AcDbDictionary
280
     1
281
     1
  3
ACAD_XREC_ROUNDTRIP
360
225
  0
DICTIONARY
  5
238
330
3B
100
AcDbDictionary
280
     1
281
     1
  3
ACAD_XREC_ROUNDTRIP
360
239
  0
DICTIONARY
  5
232
330
38
100
AcDbDictionary
280
     1
281
     1
  3
ACAD_XREC_ROUNDTRIP
360
233
  0
DICTIONARY
  5
23A
330
3C
100
AcDbDictionary
280
     1
281
     1
  3
ACAD_XREC_ROUNDTRIP
360
23B
  0
DICTIONARY
  5
228
330
33
100
AcDbDictionary
280
     1
281
     1
  3
ACAD_XREC_ROUNDTRIP
360
229
  0
DICTIONARY
  5
246
330
42
100
AcDbDictionary
280
     1
281
     1
  3
ACAD_XREC_ROUNDTRIP
360
247
  0
DICTIONARY
  5
244
330
41
100
AcDbDictionary
280
     1
281
     1
  3
ACAD_XREC_ROUNDTRIP
360
245
  0
DICTIONARY
  5
23E
330
3E
100
AcDbDictionary
280
     1
281
     1
  3
ACAD_XREC_ROUNDTRIP
360
23F
  0
DICTIONARY
  5
240
330
3F
100
AcDbDictionary
280
     1
281
     1
  3
ACAD_XREC_ROUNDTRIP
360
241
  0
DICTIONARY
  5
230
330
37
100
AcDbDictionary
280
     1
281
     1
  3
ACAD_XREC_ROUNDTRIP
360
231
  0
DICTIONARY
  5
222
330
30
100
AcDbDictionary
280
     1
281
     1
  3
ACAD_XREC_ROUNDTRIP
360
223
  0
DICTIONARY
  5
242
330
40
100
AcDbDictionary
280
     1
281
     1
  3
ACAD_XREC_ROUNDTRIP
360
243
  0
XRECORD
  5
24B
102
{ACAD_REACTORS
330
24A
102
}
330
24A
100
AcDbXrecord
280
     1
102
ACAD_ROUNDTRIP_2010_MLEADER_STYLE
  0
CELLSTYLEMAP
  5
249
102
{ACAD_REACTORS
330
248
102
}
330
248
100
AcDbCellStyleMap
 90
        3
300
CELLSTYLE
  1
TABLEFORMAT_BEGIN
 90
        5
170
     1
 91
        0
 92
    32768
 62
   257
 93
        1
300
CONTENTFORMAT
  1
CONTENTFORMAT_BEGIN
 90
        0
 91
        0
 92
        4
 93
        0
300

 40
0.0
140
1.0
 94
        5
 62
     0
340
11
144
6.0
309
CONTENTFORMAT_END
171
     1
301
MARGIN
  1
CELLMARGIN_BEGIN
 40
1.5
 40
1.5
 40
1.5
 40
1.5
 40
1.5
 40
1.5
309
CELLMARGIN_END
 94
        6
 95
        1
302
GRIDFORMAT
  1
GRIDFORMAT_BEGIN
 90
        0
 91
        1
 62
     0
 92
       -2
340
14
 93
        0
 40
0.045
309
GRIDFORMAT_END
 95
        2
302
GRIDFORMAT
  1
GRIDFORMAT_BEGIN
 90
        0
 91
        1
 62
     0
 92
       -2
340
14
 93
        0
 40
0.045
309
GRIDFORMAT_END
 95
        4
302
GRIDFORMAT
  1
GRIDFORMAT_BEGIN
 90
        0
 91
        1
 62
     0
 92
       -2
340
14
 93
        0
 40
0.045
309
GRIDFORMAT_END
 95
        8
302
GRIDFORMAT
  1
GRIDFORMAT_BEGIN
 90
        0
 91
        1
 62
     0
 92
       -2
340
14
 93
        0
 40
0.045
309
GRIDFORMAT_END
 95
       16
302
GRIDFORMAT
  1
GRIDFORMAT_BEGIN
 90
        0
 91
        1
 62
     0
 92
       -2
340
14
 93
        0
 40
0.045
309
GRIDFORMAT_END
 95
       32
302
GRIDFORMAT
  1
GRIDFORMAT_BEGIN
 90
        0
 91
        1
 62
     0
 92
       -2
340
14
 93
        0
 40
0.045
309
GRIDFORMAT_END
309
TABLEFORMAT_END
  1
CELLSTYLE_BEGIN
 90
        1
 91
        1
300
_TITLE
309
CELLSTYLE_END
300
CELLSTYLE
  1
TABLEFORMAT_BEGIN
 90
        5
170
     1
 91
        0
 92
        0
 62
   257
 93
        1
300
CONTENTFORMAT
  1
CONTENTFORMAT_BEGIN
 90
        0
 91
        0
 92
        4
 93
        0
300

 40
0.0
140
1.0
 94
        5
 62
     0
340
11
144
4.5
309
CONTENTFORMAT_END
171
     1
301
MARGIN
  1
CELLMARGIN_BEGIN
 40
1.5
 40
1.5
 40
1.5
 40
1.5
 40
1.5
 40
1.5
309
CELLMARGIN_END
 94
        6
 95
        1
302
GRIDFORMAT
  1
GRIDFORMAT_BEGIN
 90
        0
 91
        1
 62
     0
 92
       -2
340
14
 93
        0
 40
0.045
309
GRIDFORMAT_END
 95
        2
302
GRIDFORMAT
  1
GRIDFORMAT_BEGIN
 90
        0
 91
        1
 62
     0
 92
       -2
340
14
 93
        0
 40
0.045
309
GRIDFORMAT_END
 95
        4
302
GRIDFORMAT
  1
GRIDFORMAT_BEGIN
 90
        0
 91
        1
 62
     0
 92
       -2
340
14
 93
        0
 40
0.045
309
GRIDFORMAT_END
 95
        8
302
GRIDFORMAT
  1
GRIDFORMAT_BEGIN
 90
        0
 91
        1
 62
     0
 92
       -2
340
14
 93
        0
 40
0.045
309
GRIDFORMAT_END
 95
       16
302
GRIDFORMAT
  1
GRIDFORMAT_BEGIN
 90
        0
 91
        1
 62
     0
 92
       -2
340
14
 93
        0
 40
0.045
309
GRIDFORMAT_END
 95
       32
302
GRIDFORMAT
  1
GRIDFORMAT_BEGIN
 90
        0
 91
        1
 62
     0
 92
       -2
340
14
 93
        0
 40
0.045
309
GRIDFORMAT_END
309
TABLEFORMAT_END
  1
CELLSTYLE_BEGIN
 90
        2
 91
        1
300
_HEADER
309
CELLSTYLE_END
300
CELLSTYLE
  1
TABLEFORMAT_BEGIN
 90
        5
170
     1
 91
        0
 92
        0
 62
   257
 93
        1
300
CONTENTFORMAT
  1
CONTENTFORMAT_BEGIN
 90
        0
 91
        0
 92
        4
 93
        0
300

 40
0.0
140
1.0
 94
        2
 62
     0
340
11
144
4.5
309
CONTENTFORMAT_END
171
     1
301
MARGIN
  1
CELLMARGIN_BEGIN
 40
1.5
 40
1.5
 40
1.5
 40
1.5
 40
1.5
 40
1.5
309
CELLMARGIN_END
 94
        6
 95
        1
302
GRIDFORMAT
  1
GRIDFORMAT_BEGIN
 90
        0
 91
        1
 62
     0
 92
       -2
340
14
 93
        0
 40
0.045
309
GRIDFORMAT_END
 95
        2
302
GRIDFORMAT
  1
GRIDFORMAT_BEGIN
 90
        0
 91
        1
 62
     0
 92
       -2
340
14
 93
        0
 40
0.045
309
GRIDFORMAT_END
 95
        4
302
GRIDFORMAT
  1
GRIDFORMAT_BEGIN
 90
        0
 91
        1
 62
     0
 92
       -2
340
14
 93
        0
 40
0.045
309
GRIDFORMAT_END
 95
        8
302
GRIDFORMAT
  1
GRIDFORMAT_BEGIN
 90
        0
 91
        1
 62
     0
 92
       -2
340
14
 93
        0
 40
0.045
309
GRIDFORMAT_END
 95
       16
302
GRIDFORMAT
  1
GRIDFORMAT_BEGIN
 90
        0
 91
        1
 62
     0
 92
       -2
340
14
 93
        0
 40
0.045
309
GRIDFORMAT_END
 95
       32
302
GRIDFORMAT
  1
GRIDFORMAT_BEGIN
 90
        0
 91
        1
 62
     0
 92
       -2
340
14
 93
        0
 40
0.045
309
GRIDFORMAT_END
309
TABLEFORMAT_END
  1
CELLSTYLE_BEGIN
 90
        3
 91
        2
300
_DATA
309
CELLSTYLE_END
  0
XRECORD
  5
221
102
{ACAD_REACTORS
330
220
102
}
330
220
100
AcDbXrecord
280
     1
102
RTVSPropertyOp0
 70
     1
102
RTVSPropertyOp1
 70
     1
102
RTVSPropertyOp2
 70
     1
102
RTVSPropertyOp3
 70
     1
102
RTVSPropertyOp4
 70
     1
102
RTVSPropertyOp5
 70
     1
102
RTVSPropertyOp6
 70
     1
102
RTVSPropertyOp7
 70
     1
102
RTVSPropertyOp8
 70
     1
102
RTVSPropertyOp9
 70
     1
102
RTVSPropertyOp10
 70
     1
102
RTVSPropertyOp11
 70
     1
102
RTVSPropertyOp12
 70
     1
102
RTVSPropertyOp13
 70
     1
102
RTVSPropertyOp14
 70
     1
102
RTVSPropertyOp15
 70
     1
102
RTVSPropertyOp16
 70
     1
102
RTVSPropertyOp17
 70
     1
102
RTVSPropertyOp18
 70
     1
102
RTVSPropertyOp19
 70
     1
102
RTVSPropertyOp20
 70
     1
102
RTVSPropertyOp21
 70
     1
102
RTVSPropertyOp22
 70
     1
102
RTVSPropertyOp23
 70
     1
102
RTVSPropertyOp24
 70
     1
102
RTVSPropertyOp25
 70
     1
102
RTVSPropertyOp26
 70
     1
102
RTVSPropertyOp27
 70
     1
102
RTVSPropertyOp28
 70
     1
102
RTVSPropertyOp29
 70
     1
102
RTVSPropertyOp30
 70
     1
102
RTVSPropertyOp31
 70
     1
102
RTVSPropertyOp32
 70
     1
102
RTVSPropertyOp33
 70
     1
102
RTVSPropertyOp34
 70
     1
102
RTVSPropertyOp35
 70
     1
102
RTVSPropertyOp36
 70
     1
102
RTVSPropertyOp37
 70
     1
102
RTVSPropertyOp38
 70
     1
102
RTVSPropertyOp39
 70
     1
102
RTVSPropertyOp40
 70
     1
102
RTVSPropertyOp41
 70
     1
102
RTVSPropertyOp42
 70
     1
102
RTVSPropertyOp43
 70
     1
102
RTVSPropertyOp44
 70
     1
102
RTVSPropertyOp45
 70
     1
102
RTVSPropertyOp46
 70
     1
102
RTVSPropertyOp47
 70
     1
102
RTVSPropertyOp48
 70
     1
102
RTVSPropertyOp49
 70
     1
102
RTVSPropertyOp50
 70
     1
102
RTVSPropertyOp51
 70
     0
102
RTVSPropertyOp52
 70
     0
102
RTVSPropertyOp53
 70
     1
102
RTVSPropertyOp54
 70
     1
102
RTVSPropertyOp55
 70
     1
102
RTVSPropertyOp56
 70
     1
102
RTVSPropertyOp57
 70
     1
102
RTVSPost2010Prop28
280
     1
102
RTVSPost2010PropOp28
 70
     1
102
RTVSPost2010Prop29
280
     1
102
RTVSPost2010PropOp29
 70
     1
102
RTVSPost2010Prop30
280
     0
102
RTVSPost2010PropOp30
 70
     1
102
RTVSPost2010Prop31
280
     0
102
RTVSPost2010PropOp31
 70
     1
102
RTVSPost2010Prop32
280
     0
102
RTVSPost2010PropOp32
 70
     1
102
RTVSPost2010Prop33
280
     0
102
RTVSPost2010PropOp33
 70
     1
102
RTVSPost2010Prop34
280
     0
102
RTVSPost2010PropOp34
 70
     1
102
RTVSPost2010Prop35
280
     0
102
RTVSPost2010PropOp35
 70
     1
102
RTVSPost2010Prop36
280
     0
102
RTVSPost2010PropOp36
 70
     1
102
RTVSPost2010Prop37
 90
       50
102
RTVSPost2010PropOp37
 70
     1
102
RTVSPost2010Prop38
140
0.0
102
RTVSPost2010PropOp38
 70
     1
102
RTVSPost2010Prop39
140
1.0
102
RTVSPost2010PropOp39
 70
     1
102
RTVSPost2010Prop40
 90
        0
102
RTVSPost2010PropOp40
 70
     1
102
RTVSPost2010Prop41ColorIndex
 90
       18
102
RTVSPost2010Prop41ColorRGB
 90
        0
102
RTVSPost2010PropOp41
 70
     1
102
RTVSPost2010Prop42
 90
       50
102
RTVSPost2010PropOp42
 70
     1
102
RTVSPost2010Prop43
 90
        3
102
RTVSPost2010PropOp43
 70
     1
102
RTVSPost2010Prop44ColorIndex
 90
        5
102
RTVSPost2010Prop44ColorRGB
 90
      255
102
RTVSPost2010PropOp44
 70
     1
102
RTVSPost2010Prop45
280
     0
102
RTVSPost2010PropOp45
 70
     1
102
RTVSPost2010Prop46
 90
       50
102
RTVSPost2010PropOp46
 70
     1
102
RTVSPost2010Prop47
 90
       50
102
RTVSPost2010PropOp47
 70
     1
102
RTVSPost2010Prop48
 90
       50
102
RTVSPost2010PropOp48
 70
     1
102
RTVSPost2010Prop49
280
     0
102
RTVSPost2010PropOp49
 70
     1
102
RTVSPost2010Prop50
 90
       50
102
RTVSPost2010PropOp50
 70
     1
102
RTVSPost2010Prop51ColorIndex
 90
      256
102
RTVSPost2010Prop51ColorRGB
 90
-16777216
102
RTVSPost2010PropOp51
 70
     0
102
RTVSPost2010Prop52
140
1.0
102
RTVSPost2010PropOp52
 70
     0
102
RTVSPost2010Prop53
 90
        2
102
RTVSPost2010PropOp53
 70
     1
102
RTVSPost2010Prop54
  1
strokes_ogs.tif
102
RTVSPost2010PropOp54
 70
     1
102
RTVSPost2010Prop55
280
     0
102
RTVSPost2010PropOp55
 70
     1
102
RTVSPost2010Prop56
140
1.0
102
RTVSPost2010PropOp56
 70
     1
102
RTVSPost2010Prop57
140
1.0
102
RTVSPost2010PropOp57
 70
     1
  0
XRECORD
  5
227
102
{ACAD_REACTORS
330
226
102
}
330
226
100
AcDbXrecord
280
     1
102
RTVSPropertyOp0
 70
     1
102
RTVSPropertyOp1
 70
     1
102
RTVSPropertyOp2
 70
     1
102
RTVSPropertyOp3
 70
     1
102
RTVSPropertyOp4
 70
     1
102
RTVSPropertyOp5
 70
     1
102
RTVSPropertyOp6
 70
     1
102
RTVSPropertyOp7
 70
     1
102
RTVSPropertyOp8
 70
     1
102
RTVSPropertyOp9
 70
     1
102
RTVSPropertyOp10
 70
     1
102
RTVSPropertyOp11
 70
     1
102
RTVSPropertyOp12
 70
     1
102
RTVSPropertyOp13
 70
     1
102
RTVSPropertyOp14
 70
     1
102
RTVSPropertyOp15
 70
     1
102
RTVSPropertyOp16
 70
     1
102
RTVSPropertyOp17
 70
     1
102
RTVSPropertyOp18
 70
     1
102
RTVSPropertyOp19
 70
     1
102
RTVSPropertyOp20
 70
     1
102
RTVSPropertyOp21
 70
     1
102
RTVSPropertyOp22
 70
     1
102
RTVSPropertyOp23
 70
     1
102
RTVSPropertyOp24
 70
     1
102
RTVSPropertyOp25
 70
     1
102
RTVSPropertyOp26
 70
     1
102
RTVSPropertyOp27
 70
     1
102
RTVSPropertyOp28
 70
     1
102
RTVSPropertyOp29
 70
     1
102
RTVSPropertyOp30
 70
     1
102
RTVSPropertyOp31
 70
     1
102
RTVSPropertyOp32
 70
     1
102
RTVSPropertyOp33
 70
     1
102
RTVSPropertyOp34
 70
     1
102
RTVSPropertyOp35
 70
     1
102
RTVSPropertyOp36
 70
     1
102
RTVSPropertyOp37
 70
     1
102
RTVSPropertyOp38
 70
     1
102
RTVSPropertyOp39
 70
     1
102
RTVSPropertyOp40
 70
     1
102
RTVSPropertyOp41
 70
     1
102
RTVSPropertyOp42
 70
     1
102
RTVSPropertyOp43
 70
     1
102
RTVSPropertyOp44
 70
     1
102
RTVSPropertyOp45
 70
     1
102
RTVSPropertyOp46
 70
     1
102
RTVSPropertyOp47
 70
     1
102
RTVSPropertyOp48
 70
     1
102
RTVSPropertyOp49
 70
     1
102
RTVSPropertyOp50
 70
     1
102
RTVSPropertyOp51
 70
     0
102
RTVSPropertyOp52
 70
     0
102
RTVSPropertyOp53
 70
     1
102
RTVSPropertyOp54
 70
     1
102
RTVSPropertyOp55
 70
     1
102
RTVSPropertyOp56
 70
     1
102
RTVSPropertyOp57
 70
     1
102
RTVSPost2010Prop28
280
     0
102
RTVSPost2010PropOp28
 70
     1
102
RTVSPost2010Prop29
280
     1
102
RTVSPost2010PropOp29
 70
     1
102
RTVSPost2010Prop30
280
     1
102
RTVSPost2010PropOp30
 70
     1
102
RTVSPost2010Prop31
280
     0
102
RTVSPost2010PropOp31
 70
     1
102
RTVSPost2010Prop32
280
     0
102
RTVSPost2010PropOp32
 70
     1
102
RTVSPost2010Prop33
280
     0
102
RTVSPost2010PropOp33
 70
     1
102
RTVSPost2010Prop34
280
     0
102
RTVSPost2010PropOp34
 70
     1
102
RTVSPost2010Prop35
280
     0
102
RTVSPost2010PropOp35
 70
     1
102
RTVSPost2010Prop36
280
     0
102
RTVSPost2010PropOp36
 70
     1
102
RTVSPost2010Prop37
 90
       50
102
RTVSPost2010PropOp37
 70
     1
102
RTVSPost2010Prop38
140
0.0
102
RTVSPost2010PropOp38
 70
     1
102
RTVSPost2010Prop39
140
1.0
102
RTVSPost2010PropOp39
 70
     1
102
RTVSPost2010Prop40
 90
        0
102
RTVSPost2010PropOp40
 70
     1
102
RTVSPost2010Prop41ColorIndex
 90
       18
102
RTVSPost2010Prop41ColorRGB
 90
        0
102
RTVSPost2010PropOp41
 70
     1
102
RTVSPost2010Prop42
 90
       50
102
RTVSPost2010PropOp42
 70
     1
102
RTVSPost2010Prop43
 90
        3
102
RTVSPost2010PropOp43
 70
     1
102
RTVSPost2010Prop44ColorIndex
 90
        5
102
RTVSPost2010Prop44ColorRGB
 90
      255
102
RTVSPost2010PropOp44
 70
     1
102
RTVSPost2010Prop45
280
     0
102
RTVSPost2010PropOp45
 70
     1
102
RTVSPost2010Prop46
 90
       50
102
RTVSPost2010PropOp46
 70
     1
102
RTVSPost2010Prop47
 90
       50
102
RTVSPost2010PropOp47
 70
     1
102
RTVSPost2010Prop48
 90
       50
102
RTVSPost2010PropOp48
 70
     1
102
RTVSPost2010Prop49
280
     0
102
RTVSPost2010PropOp49
 70
     1
102
RTVSPost2010Prop50
 90
       50
102
RTVSPost2010PropOp50
 70
     1
102
RTVSPost2010Prop51ColorIndex
 90
      256
102
RTVSPost2010Prop51ColorRGB
 90
-16777216
102
RTVSPost2010PropOp51
 70
     0
102
RTVSPost2010Prop52
140
1.0
102
RTVSPost2010PropOp52
 70
     0
102
RTVSPost2010Prop53
 90
        2
102
RTVSPost2010PropOp53
 70
     1
102
RTVSPost2010Prop54
  1
strokes_ogs.tif
102
RTVSPost2010PropOp54
 70
     1
102
RTVSPost2010Prop55
280
     0
102
RTVSPost2010PropOp55
 70
     1
102
RTVSPost2010Prop56
140
1.0
102
RTVSPost2010PropOp56
 70
     1
102
RTVSPost2010Prop57
140
1.0
102
RTVSPost2010PropOp57
 70
     1
  0
XRECORD
  5
22F
102
{ACAD_REACTORS
330
22E
102
}
330
22E
100
AcDbXrecord
280
     1
102
RTVSPropertyOp0
 70
     1
102
RTVSPropertyOp1
 70
     1
102
RTVSPropertyOp2
 70
     1
102
RTVSPropertyOp3
 70
     1
102
RTVSPropertyOp4
 70
     1
102
RTVSPropertyOp5
 70
     1
102
RTVSPropertyOp6
 70
     1
102
RTVSPropertyOp7
 70
     1
102
RTVSPropertyOp8
 70
     1
102
RTVSPropertyOp9
 70
     1
102
RTVSPropertyOp10
 70
     1
102
RTVSPropertyOp11
 70
     1
102
RTVSPropertyOp12
 70
     1
102
RTVSPropertyOp13
 70
     1
102
RTVSPropertyOp14
 70
     1
102
RTVSPropertyOp15
 70
     1
102
RTVSPropertyOp16
 70
     1
102
RTVSPropertyOp17
 70
     1
102
RTVSPropertyOp18
 70
     1
102
RTVSPropertyOp19
 70
     1
102
RTVSPropertyOp20
 70
     1
102
RTVSPropertyOp21
 70
     1
102
RTVSPropertyOp22
 70
     1
102
RTVSPropertyOp23
 70
     1
102
RTVSPropertyOp24
 70
     1
102
RTVSPropertyOp25
 70
     1
102
RTVSPropertyOp26
 70
     1
102
RTVSPropertyOp27
 70
     1
102
RTVSPropertyOp28
 70
     1
102
RTVSPropertyOp29
 70
     1
102
RTVSPropertyOp30
 70
     1
102
RTVSPropertyOp31
 70
     1
102
RTVSPropertyOp32
 70
     1
102
RTVSPropertyOp33
 70
     1
102
RTVSPropertyOp34
 70
     1
102
RTVSPropertyOp35
 70
     1
102
RTVSPropertyOp36
 70
     1
102
RTVSPropertyOp37
 70
     1
102
RTVSPropertyOp38
 70
     1
102
RTVSPropertyOp39
 70
     1
102
RTVSPropertyOp40
 70
     1
102
RTVSPropertyOp41
 70
     1
102
RTVSPropertyOp42
 70
     1
102
RTVSPropertyOp43
 70
     1
102
RTVSPropertyOp44
 70
     1
102
RTVSPropertyOp45
 70
     1
102
RTVSPropertyOp46
 70
     1
102
RTVSPropertyOp47
 70
     1
102
RTVSPropertyOp48
 70
     1
102
RTVSPropertyOp49
 70
     1
102
RTVSPropertyOp50
 70
     1
102
RTVSPropertyOp51
 70
     0
102
RTVSPropertyOp52
 70
     0
102
RTVSPropertyOp53
 70
     1
102
RTVSPropertyOp54
 70
     1
102
RTVSPropertyOp55
 70
     1
102
RTVSPropertyOp56
 70
     1
102
RTVSPropertyOp57
 70
     1
102
RTVSPost2010Prop28
280
     0
102
RTVSPost2010PropOp28
 70
     1
102
RTVSPost2010Prop29
280
     1
102
RTVSPost2010PropOp29
 70
     1
102
RTVSPost2010Prop30
280
     1
102
RTVSPost2010PropOp30
 70
     1
102
RTVSPost2010Prop31
280
     0
102
RTVSPost2010PropOp31
 70
     1
102
RTVSPost2010Prop32
280
     0
102
RTVSPost2010PropOp32
 70
     1
102
RTVSPost2010Prop33
280
     0
102
RTVSPost2010PropOp33
 70
     1
102
RTVSPost2010Prop34
280
     0
102
RTVSPost2010PropOp34
 70
     1
102
RTVSPost2010Prop35
280
     0
102
RTVSPost2010PropOp35
 70
     1
102
RTVSPost2010Prop36
280
     0
102
RTVSPost2010PropOp36
 70
     1
102
RTVSPost2010Prop37
 90
       50
102
RTVSPost2010PropOp37
 70
     1
102
RTVSPost2010Prop38
140
0.0
102
RTVSPost2010PropOp38
 70
     1
102
RTVSPost2010Prop39
140
1.0
102
RTVSPost2010PropOp39
 70
     1
102
RTVSPost2010Prop40
 90
        0
102
RTVSPost2010PropOp40
 70
     1
102
RTVSPost2010Prop41ColorIndex
 90
       18
102
RTVSPost2010Prop41ColorRGB
 90
        0
102
RTVSPost2010PropOp41
 70
     1
102
RTVSPost2010Prop42
 90
       50
102
RTVSPost2010PropOp42
 70
     1
102
RTVSPost2010Prop43
 90
        3
102
RTVSPost2010PropOp43
 70
     1
102
RTVSPost2010Prop44ColorIndex
 90
        5
102
RTVSPost2010Prop44ColorRGB
 90
      255
102
RTVSPost2010PropOp44
 70
     1
102
RTVSPost2010Prop45
280
     0
102
RTVSPost2010PropOp45
 70
     1
102
RTVSPost2010Prop46
 90
       50
102
RTVSPost2010PropOp46
 70
     1
102
RTVSPost2010Prop47
 90
       50
102
RTVSPost2010PropOp47
 70
     1
102
RTVSPost2010Prop48
 90
       50
102
RTVSPost2010PropOp48
 70
     1
102
RTVSPost2010Prop49
280
     0
102
RTVSPost2010PropOp49
 70
     1
102
RTVSPost2010Prop50
 90
       50
102
RTVSPost2010PropOp50
 70
     1
102
RTVSPost2010Prop51ColorIndex
 90
      256
102
RTVSPost2010Prop51ColorRGB
 90
-16777216
102
RTVSPost2010PropOp51
 70
     0
102
RTVSPost2010Prop52
140
1.0
102
RTVSPost2010PropOp52
 70
     0
102
RTVSPost2010Prop53
 90
        2
102
RTVSPost2010PropOp53
 70
     1
102
RTVSPost2010Prop54
  1
strokes_ogs.tif
102
RTVSPost2010PropOp54
 70
     1
102
RTVSPost2010Prop55
280
     0
102
RTVSPost2010PropOp55
 70
     1
102
RTVSPost2010Prop56
140
1.0
102
RTVSPost2010PropOp56
 70
     1
102
RTVSPost2010Prop57
140
1.0
102
RTVSPost2010PropOp57
 70
     1
  0
XRECORD
  5
237
102
{ACAD_REACTORS
330
236
102
}
330
236
100
AcDbXrecord
280
     1
102
RTVSPropertyOp0
 70
     1
102
RTVSPropertyOp1
 70
     1
102
RTVSPropertyOp2
 70
     1
102
RTVSPropertyOp3
 70
     1
102
RTVSPropertyOp4
 70
     1
102
RTVSPropertyOp5
 70
     1
102
RTVSPropertyOp6
 70
     1
102
RTVSPropertyOp7
 70
     1
102
RTVSPropertyOp8
 70
     1
102
RTVSPropertyOp9
 70
     1
102
RTVSPropertyOp10
 70
     1
102
RTVSPropertyOp11
 70
     1
102
RTVSPropertyOp12
 70
     1
102
RTVSPropertyOp13
 70
     1
102
RTVSPropertyOp14
 70
     1
102
RTVSPropertyOp15
 70
     1
102
RTVSPropertyOp16
 70
     1
102
RTVSPropertyOp17
 70
     1
102
RTVSPropertyOp18
 70
     1
102
RTVSPropertyOp19
 70
     1
102
RTVSPropertyOp20
 70
     1
102
RTVSPropertyOp21
 70
     1
102
RTVSPropertyOp22
 70
     1
102
RTVSPropertyOp23
 70
     1
102
RTVSPropertyOp24
 70
     1
102
RTVSPropertyOp25
 70
     1
102
RTVSPropertyOp26
 70
     1
102
RTVSPropertyOp27
 70
     1
102
RTVSPropertyOp28
 70
     1
102
RTVSPropertyOp29
 70
     1
102
RTVSPropertyOp30
 70
     1
102
RTVSPropertyOp31
 70
     1
102
RTVSPropertyOp32
 70
     1
102
RTVSPropertyOp33
 70
     1
102
RTVSPropertyOp34
 70
     1
102
RTVSPropertyOp35
 70
     1
102
RTVSPropertyOp36
 70
     1
102
RTVSPropertyOp37
 70
     1
102
RTVSPropertyOp38
 70
     1
102
RTVSPropertyOp39
 70
     1
102
RTVSPropertyOp40
 70
     1
102
RTVSPropertyOp41
 70
     1
102
RTVSPropertyOp42
 70
     1
102
RTVSPropertyOp43
 70
     1
102
RTVSPropertyOp44
 70
     1
102
RTVSPropertyOp45
 70
     1
102
RTVSPropertyOp46
 70
     1
102
RTVSPropertyOp47
 70
     1
102
RTVSPropertyOp48
 70
     1
102
RTVSPropertyOp49
 70
     1
102
RTVSPropertyOp50
 70
     1
102
RTVSPropertyOp51
 70
     0
102
RTVSPropertyOp52
 70
     0
102
RTVSPropertyOp53
 70
     1
102
RTVSPropertyOp54
 70
     1
102
RTVSPropertyOp55
 70
     1
102
RTVSPropertyOp56
 70
     1
102
RTVSPropertyOp57
 70
     1
102
RTVSPost2010Prop28
280
     0
102
RTVSPost2010PropOp28
 70
     1
102
RTVSPost2010Prop29
280
     1
102
RTVSPost2010PropOp29
 70
     1
102
RTVSPost2010Prop30
280
     1
102
RTVSPost2010PropOp30
 70
     1
102
RTVSPost2010Prop31
280
     0
102
RTVSPost2010PropOp31
 70
     1
102
RTVSPost2010Prop32
280
     0
102
RTVSPost2010PropOp32
 70
     1
102
RTVSPost2010Prop33
280
     0
102
RTVSPost2010PropOp33
 70
     1
102
RTVSPost2010Prop34
280
     0
102
RTVSPost2010PropOp34
 70
     1
102
RTVSPost2010Prop35
280
     0
102
RTVSPost2010PropOp35
 70
     1
102
RTVSPost2010Prop36
280
     0
102
RTVSPost2010PropOp36
 70
     1
102
RTVSPost2010Prop37
 90
       50
102
RTVSPost2010PropOp37
 70
     1
102
RTVSPost2010Prop38
140
0.0
102
RTVSPost2010PropOp38
 70
     1
102
RTVSPost2010Prop39
140
1.0
102
RTVSPost2010PropOp39
 70
     1
102
RTVSPost2010Prop40
 90
        0
102
RTVSPost2010PropOp40
 70
     1
102
RTVSPost2010Prop41ColorIndex
 90
       18
102
RTVSPost2010Prop41ColorRGB
 90
        0
102
RTVSPost2010PropOp41
 70
     1
102
RTVSPost2010Prop42
 90
       50
102
RTVSPost2010PropOp42
 70
     1
102
RTVSPost2010Prop43
 90
        3
102
RTVSPost2010PropOp43
 70
     1
102
RTVSPost2010Prop44ColorIndex
 90
        5
102
RTVSPost2010Prop44ColorRGB
 90
      255
102
RTVSPost2010PropOp44
 70
     1
102
RTVSPost2010Prop45
280
     0
102
RTVSPost2010PropOp45
 70
     1
102
RTVSPost2010Prop46
 90
       50
102
RTVSPost2010PropOp46
 70
     1
102
RTVSPost2010Prop47
 90
       50
102
RTVSPost2010PropOp47
 70
     1
102
RTVSPost2010Prop48
 90
       50
102
RTVSPost2010PropOp48
 70
     1
102
RTVSPost2010Prop49
280
     0
102
RTVSPost2010PropOp49
 70
     1
102
RTVSPost2010Prop50
 90
       50
102
RTVSPost2010PropOp50
 70
     1
102
RTVSPost2010Prop51ColorIndex
 90
      256
102
RTVSPost2010Prop51ColorRGB
 90
-16777216
102
RTVSPost2010PropOp51
 70
     0
102
RTVSPost2010Prop52
140
1.0
102
RTVSPost2010PropOp52
 70
     0
102
RTVSPost2010Prop53
 90
        2
102
RTVSPost2010PropOp53
 70
     1
102
RTVSPost2010Prop54
  1
strokes_ogs.tif
102
RTVSPost2010PropOp54
 70
     1
102
RTVSPost2010Prop55
280
     0
102
RTVSPost2010PropOp55
 70
     1
102
RTVSPost2010Prop56
140
1.0
102
RTVSPost2010PropOp56
 70
     1
102
RTVSPost2010Prop57
140
1.0
102
RTVSPost2010PropOp57
 70
     1
  0
XRECORD
  5
22B
102
{ACAD_REACTORS
330
22A
102
}
330
22A
100
AcDbXrecord
280
     1
102
RTVSPropertyOp0
 70
     1
102
RTVSPropertyOp1
 70
     1
102
RTVSPropertyOp2
 70
     1
102
RTVSPropertyOp3
 70
     1
102
RTVSPropertyOp4
 70
     1
102
RTVSPropertyOp5
 70
     1
102
RTVSPropertyOp6
 70
     1
102
RTVSPropertyOp7
 70
     1
102
RTVSPropertyOp8
 70
     1
102
RTVSPropertyOp9
 70
     1
102
RTVSPropertyOp10
 70
     1
102
RTVSPropertyOp11
 70
     1
102
RTVSPropertyOp12
 70
     1
102
RTVSPropertyOp13
 70
     1
102
RTVSPropertyOp14
 70
     1
102
RTVSPropertyOp15
 70
     1
102
RTVSPropertyOp16
 70
     1
102
RTVSPropertyOp17
 70
     1
102
RTVSPropertyOp18
 70
     1
102
RTVSPropertyOp19
 70
     1
102
RTVSPropertyOp20
 70
     1
102
RTVSPropertyOp21
 70
     1
102
RTVSPropertyOp22
 70
     1
102
RTVSPropertyOp23
 70
     1
102
RTVSPropertyOp24
 70
     1
102
RTVSPropertyOp25
 70
     1
102
RTVSPropertyOp26
 70
     1
102
RTVSPropertyOp27
 70
     1
102
RTVSPropertyOp28
 70
     1
102
RTVSPropertyOp29
 70
     1
102
RTVSPropertyOp30
 70
     1
102
RTVSPropertyOp31
 70
     1
102
RTVSPropertyOp32
 70
     1
102
RTVSPropertyOp33
 70
     1
102
RTVSPropertyOp34
 70
     1
102
RTVSPropertyOp35
 70
     1
102
RTVSPropertyOp36
 70
     1
102
RTVSPropertyOp37
 70
     1
102
RTVSPropertyOp38
 70
     1
102
RTVSPropertyOp39
 70
     1
102
RTVSPropertyOp40
 70
     1
102
RTVSPropertyOp41
 70
     1
102
RTVSPropertyOp42
 70
     1
102
RTVSPropertyOp43
 70
     1
102
RTVSPropertyOp44
 70
     1
102
RTVSPropertyOp45
 70
     1
102
RTVSPropertyOp46
 70
     1
102
RTVSPropertyOp47
 70
     1
102
RTVSPropertyOp48
 70
     1
102
RTVSPropertyOp49
 70
     1
102
RTVSPropertyOp50
 70
     1
102
RTVSPropertyOp51
 70
     0
102
RTVSPropertyOp52
 70
     0
102
RTVSPropertyOp53
 70
     1
102
RTVSPropertyOp54
 70
     1
102
RTVSPropertyOp55
 70
     1
102
RTVSPropertyOp56
 70
     1
102
RTVSPropertyOp57
 70
     1
102
RTVSPost2010Prop28
280
     0
102
RTVSPost2010PropOp28
 70
     1
102
RTVSPost2010Prop29
280
     1
102
RTVSPost2010PropOp29
 70
     1
102
RTVSPost2010Prop30
280
     1
102
RTVSPost2010PropOp30
 70
     1
102
RTVSPost2010Prop31
280
     0
102
RTVSPost2010PropOp31
 70
     1
102
RTVSPost2010Prop32
280
     0
102
RTVSPost2010PropOp32
 70
     1
102
RTVSPost2010Prop33
280
     0
102
RTVSPost2010PropOp33
 70
     1
102
RTVSPost2010Prop34
280
     0
102
RTVSPost2010PropOp34
 70
     1
102
RTVSPost2010Prop35
280
     0
102
RTVSPost2010PropOp35
 70
     1
102
RTVSPost2010Prop36
280
     0
102
RTVSPost2010PropOp36
 70
     1
102
RTVSPost2010Prop37
 90
       50
102
RTVSPost2010PropOp37
 70
     1
102
RTVSPost2010Prop38
140
0.0
102
RTVSPost2010PropOp38
 70
     1
102
RTVSPost2010Prop39
140
1.0
102
RTVSPost2010PropOp39
 70
     1
102
RTVSPost2010Prop40
 90
        0
102
RTVSPost2010PropOp40
 70
     1
102
RTVSPost2010Prop41ColorIndex
 90
       18
102
RTVSPost2010Prop41ColorRGB
 90
        0
102
RTVSPost2010PropOp41
 70
     1
102
RTVSPost2010Prop42
 90
       50
102
RTVSPost2010PropOp42
 70
     1
102
RTVSPost2010Prop43
 90
        3
102
RTVSPost2010PropOp43
 70
     1
102
RTVSPost2010Prop44ColorIndex
 90
        5
102
RTVSPost2010Prop44ColorRGB
 90
      255
102
RTVSPost2010PropOp44
 70
     1
102
RTVSPost2010Prop45
280
     0
102
RTVSPost2010PropOp45
 70
     1
102
RTVSPost2010Prop46
 90
       50
102
RTVSPost2010PropOp46
 70
     1
102
RTVSPost2010Prop47
 90
       50
102
RTVSPost2010PropOp47
 70
     1
102
RTVSPost2010Prop48
 90
       50
102
RTVSPost2010PropOp48
 70
     1
102
RTVSPost2010Prop49
280
     0
102
RTVSPost2010PropOp49
 70
     1
102
RTVSPost2010Prop50
 90
       50
102
RTVSPost2010PropOp50
 70
     1
102
RTVSPost2010Prop51ColorIndex
 90
      256
102
RTVSPost2010Prop51ColorRGB
 90
-16777216
102
RTVSPost2010PropOp51
 70
     0
102
RTVSPost2010Prop52
140
1.0
102
RTVSPost2010PropOp52
 70
     0
102
RTVSPost2010Prop53
 90
        2
102
RTVSPost2010PropOp53
 70
     1
102
RTVSPost2010Prop54
  1
strokes_ogs.tif
102
RTVSPost2010PropOp54
 70
     1
102
RTVSPost2010Prop55
280
     0
102
RTVSPost2010PropOp55
 70
     1
102
RTVSPost2010Prop56
140
1.0
102
RTVSPost2010PropOp56
 70
     1
102
RTVSPost2010Prop57
140
1.0
102
RTVSPost2010PropOp57
 70
     1
  0
XRECORD
  5
22D
102
{ACAD_REACTORS
330
22C
102
}
330
22C
100
AcDbXrecord
280
     1
102
RTVSPropertyOp0
 70
     1
102
RTVSPropertyOp1
 70
     1
102
RTVSPropertyOp2
 70
     1
102
RTVSPropertyOp3
 70
     1
102
RTVSPropertyOp4
 70
     1
102
RTVSPropertyOp5
 70
     1
102
RTVSPropertyOp6
 70
     1
102
RTVSPropertyOp7
 70
     1
102
RTVSPropertyOp8
 70
     1
102
RTVSPropertyOp9
 70
     1
102
RTVSPropertyOp10
 70
     1
102
RTVSPropertyOp11
 70
     1
102
RTVSPropertyOp12
 70
     1
102
RTVSPropertyOp13
 70
     1
102
RTVSPropertyOp14
 70
     1
102
RTVSPropertyOp15
 70
     1
102
RTVSPropertyOp16
 70
     1
102
RTVSPropertyOp17
 70
     1
102
RTVSPropertyOp18
 70
     1
102
RTVSPropertyOp19
 70
     1
102
RTVSPropertyOp20
 70
     1
102
RTVSPropertyOp21
 70
     1
102
RTVSPropertyOp22
 70
     1
102
RTVSPropertyOp23
 70
     1
102
RTVSPropertyOp24
 70
     1
102
RTVSPropertyOp25
 70
     1
102
RTVSPropertyOp26
 70
     1
102
RTVSPropertyOp27
 70
     1
102
RTVSPropertyOp28
 70
     1
102
RTVSPropertyOp29
 70
     1
102
RTVSPropertyOp30
 70
     1
102
RTVSPropertyOp31
 70
     1
102
RTVSPropertyOp32
 70
     1
102
RTVSPropertyOp33
 70
     1
102
RTVSPropertyOp34
 70
     1
102
RTVSPropertyOp35
 70
     1
102
RTVSPropertyOp36
 70
     1
102
RTVSPropertyOp37
 70
     1
102
RTVSPropertyOp38
 70
     1
102
RTVSPropertyOp39
 70
     1
102
RTVSPropertyOp40
 70
     1
102
RTVSPropertyOp41
 70
     1
102
RTVSPropertyOp42
 70
     1
102
RTVSPropertyOp43
 70
     1
102
RTVSPropertyOp44
 70
     1
102
RTVSPropertyOp45
 70
     1
102
RTVSPropertyOp46
 70
     1
102
RTVSPropertyOp47
 70
     1
102
RTVSPropertyOp48
 70
     1
102
RTVSPropertyOp49
 70
     1
102
RTVSPropertyOp50
 70
     1
102
RTVSPropertyOp51
 70
     0
102
RTVSPropertyOp52
 70
     0
102
RTVSPropertyOp53
 70
     1
102
RTVSPropertyOp54
 70
     1
102
RTVSPropertyOp55
 70
     1
102
RTVSPropertyOp56
 70
     1
102
RTVSPropertyOp57
 70
     1
102
RTVSPost2010Prop28
280
     0
102
RTVSPost2010PropOp28
 70
     1
102
RTVSPost2010Prop29
280
     1
102
RTVSPost2010PropOp29
 70
     1
102
RTVSPost2010Prop30
280
     1
102
RTVSPost2010PropOp30
 70
     1
102
RTVSPost2010Prop31
280
     0
102
RTVSPost2010PropOp31
 70
     1
102
RTVSPost2010Prop32
280
     0
102
RTVSPost2010PropOp32
 70
     1
102
RTVSPost2010Prop33
280
     0
102
RTVSPost2010PropOp33
 70
     1
102
RTVSPost2010Prop34
280
     0
102
RTVSPost2010PropOp34
 70
     1
102
RTVSPost2010Prop35
280
     0
102
RTVSPost2010PropOp35
 70
     1
102
RTVSPost2010Prop36
280
     0
102
RTVSPost2010PropOp36
 70
     1
102
RTVSPost2010Prop37
 90
       50
102
RTVSPost2010PropOp37
 70
     1
102
RTVSPost2010Prop38
140
0.0
102
RTVSPost2010PropOp38
 70
     1
102
RTVSPost2010Prop39
140
1.0
102
RTVSPost2010PropOp39
 70
     1
102
RTVSPost2010Prop40
 90
        0
102
RTVSPost2010PropOp40
 70
     1
102
RTVSPost2010Prop41ColorIndex
 90
       18
102
RTVSPost2010Prop41ColorRGB
 90
        0
102
RTVSPost2010PropOp41
 70
     1
102
RTVSPost2010Prop42
 90
       50
102
RTVSPost2010PropOp42
 70
     1
102
RTVSPost2010Prop43
 90
        3
102
RTVSPost2010PropOp43
 70
     1
102
RTVSPost2010Prop44ColorIndex
 90
        5
102
RTVSPost2010Prop44ColorRGB
 90
      255
102
RTVSPost2010PropOp44
 70
     1
102
RTVSPost2010Prop45
280
     0
102
RTVSPost2010PropOp45
 70
     1
102
RTVSPost2010Prop46
 90
       50
102
RTVSPost2010PropOp46
 70
     1
102
RTVSPost2010Prop47
 90
       50
102
RTVSPost2010PropOp47
 70
     1
102
RTVSPost2010Prop48
 90
       50
102
RTVSPost2010PropOp48
 70
     1
102
RTVSPost2010Prop49
280
     0
102
RTVSPost2010PropOp49
 70
     1
102
RTVSPost2010Prop50
 90
       50
102
RTVSPost2010PropOp50
 70
     1
102
RTVSPost2010Prop51ColorIndex
 90
      256
102
RTVSPost2010Prop51ColorRGB
 90
-16777216
102
RTVSPost2010PropOp51
 70
     0
102
RTVSPost2010Prop52
140
1.0
102
RTVSPost2010PropOp52
 70
     0
102
RTVSPost2010Prop53
 90
        2
102
RTVSPost2010PropOp53
 70
     1
102
RTVSPost2010Prop54
  1
strokes_ogs.tif
102
RTVSPost2010PropOp54
 70
     1
102
RTVSPost2010Prop55
280
     0
102
RTVSPost2010PropOp55
 70
     1
102
RTVSPost2010Prop56
140
1.0
102
RTVSPost2010PropOp56
 70
     1
102
RTVSPost2010Prop57
140
1.0
102
RTVSPost2010PropOp57
 70
     1
  0
XRECORD
  5
23D
102
{ACAD_REACTORS
330
23C
102
}
330
23C
100
AcDbXrecord
280
     1
102
RTVSPropertyOp0
 70
     0
102
RTVSPropertyOp1
 70
     0
102
RTVSPropertyOp2
 70
     0
102
RTVSPropertyOp3
 70
     0
102
RTVSPropertyOp4
 70
     0
102
RTVSPropertyOp5
 70
     0
102
RTVSPropertyOp6
 70
     0
102
RTVSPropertyOp7
 70
     0
102
RTVSPropertyOp8
 70
     0
102
RTVSPropertyOp9
 70
     0
102
RTVSPropertyOp10
 70
     0
102
RTVSPropertyOp11
 70
     0
102
RTVSPropertyOp12
 70
     0
102
RTVSPropertyOp13
 70
     0
102
RTVSPropertyOp14
 70
     2
102
RTVSPropertyOp15
 70
     0
102
RTVSPropertyOp16
 70
     0
102
RTVSPropertyOp17
 70
     0
102
RTVSPropertyOp18
 70
     0
102
RTVSPropertyOp19
 70
     0
102
RTVSPropertyOp20
 70
     0
102
RTVSPropertyOp21
 70
     0
102
RTVSPropertyOp22
 70
     0
102
RTVSPropertyOp23
 70
     0
102
RTVSPropertyOp24
 70
     0
102
RTVSPropertyOp25
 70
     0
102
RTVSPropertyOp26
 70
     0
102
RTVSPropertyOp27
 70
     0
102
RTVSPropertyOp28
 70
     0
102
RTVSPropertyOp29
 70
     0
102
RTVSPropertyOp30
 70
     0
102
RTVSPropertyOp31
 70
     0
102
RTVSPropertyOp32
 70
     0
102
RTVSPropertyOp33
 70
     0
102
RTVSPropertyOp34
 70
     0
102
RTVSPropertyOp35
 70
     0
102
RTVSPropertyOp36
 70
     0
102
RTVSPropertyOp37
 70
     0
102
RTVSPropertyOp38
 70
     0
102
RTVSPropertyOp39
 70
     0
102
RTVSPropertyOp40
 70
     0
102
RTVSPropertyOp41
 70
     0
102
RTVSPropertyOp42
 70
     0
102
RTVSPropertyOp43
 70
     0
102
RTVSPropertyOp44
 70
     0
102
RTVSPropertyOp45
 70
     0
102
RTVSPropertyOp46
 70
     0
102
RTVSPropertyOp47
 70
     0
102
RTVSPropertyOp48
 70
     0
102
RTVSPropertyOp49
 70
     0
102
RTVSPropertyOp50
 70
     0
102
RTVSPropertyOp51
 70
     0
102
RTVSPropertyOp52
 70
     0
102
RTVSPropertyOp53
 70
     0
102
RTVSPropertyOp54
 70
     0
102
RTVSPropertyOp55
 70
     0
102
RTVSPropertyOp56
 70
     0
102
RTVSPropertyOp57
 70
     0
102
RTVSPost2010Prop28
280
     0
102
RTVSPost2010PropOp28
 70
     0
102
RTVSPost2010Prop29
280
     1
102
RTVSPost2010PropOp29
 70
     0
102
RTVSPost2010Prop30
280
     1
102
RTVSPost2010PropOp30
 70
     0
102
RTVSPost2010Prop31
280
     0
102
RTVSPost2010PropOp31
 70
     0
102
RTVSPost2010Prop32
280
     0
102
RTVSPost2010PropOp32
 70
     0
102
RTVSPost2010Prop33
280
     0
102
RTVSPost2010PropOp33
 70
     0
102
RTVSPost2010Prop34
280
     0
102
RTVSPost2010PropOp34
 70
     0
102
RTVSPost2010Prop35
280
     0
102
RTVSPost2010PropOp35
 70
     0
102
RTVSPost2010Prop36
280
     0
102
RTVSPost2010PropOp36
 70
     0
102
RTVSPost2010Prop37
 90
       50
102
RTVSPost2010PropOp37
 70
     0
102
RTVSPost2010Prop38
140
0.0
102
RTVSPost2010PropOp38
 70
     0
102
RTVSPost2010Prop39
140
1.0
102
RTVSPost2010PropOp39
 70
     0
102
RTVSPost2010Prop40
 90
        0
102
RTVSPost2010PropOp40
 70
     0
102
RTVSPost2010Prop41ColorIndex
 90
       18
102
RTVSPost2010Prop41ColorRGB
 90
        0
102
RTVSPost2010PropOp41
 70
     0
102
RTVSPost2010Prop42
 90
       50
102
RTVSPost2010PropOp42
 70
     0
102
RTVSPost2010Prop43
 90
        3
102
RTVSPost2010PropOp43
 70
     0
102
RTVSPost2010Prop44ColorIndex
 90
        5
102
RTVSPost2010Prop44ColorRGB
 90
      255
102
RTVSPost2010PropOp44
 70
     0
102
RTVSPost2010Prop45
280
     0
102
RTVSPost2010PropOp45
 70
     0
102
RTVSPost2010Prop46
 90
       50
102
RTVSPost2010PropOp46
 70
     0
102
RTVSPost2010Prop47
 90
       50
102
RTVSPost2010PropOp47
 70
     0
102
RTVSPost2010Prop48
 90
       50
102
RTVSPost2010PropOp48
 70
     0
102
RTVSPost2010Prop49
280
     0
102
RTVSPost2010PropOp49
 70
     0
102
RTVSPost2010Prop50
 90
       50
102
RTVSPost2010PropOp50
 70
     0
102
RTVSPost2010Prop51ColorIndex
 90
      256
102
RTVSPost2010Prop51ColorRGB
 90
-16777216
102
RTVSPost2010PropOp51
 70
     0
102
RTVSPost2010Prop52
140
1.0
102
RTVSPost2010PropOp52
 70
     0
102
RTVSPost2010Prop53
 90
        2
102
RTVSPost2010PropOp53
 70
     0
102
RTVSPost2010Prop54
  1
strokes_ogs.tif
102
RTVSPost2010PropOp54
 70
     0
102
RTVSPost2010Prop55
280
     0
102
RTVSPost2010PropOp55
 70
     0
102
RTVSPost2010Prop56
140
1.0
102
RTVSPost2010PropOp56
 70
     0
102
RTVSPost2010Prop57
140
1.0
102
RTVSPost2010PropOp57
 70
     0
  0
XRECORD
  5
235
102
{ACAD_REACTORS
330
234
102
}
330
234
100
AcDbXrecord
280
     1
102
RTVSPropertyOp0
 70
     1
102
RTVSPropertyOp1
 70
     1
102
RTVSPropertyOp2
 70
     1
102
RTVSPropertyOp3
 70
     1
102
RTVSPropertyOp4
 70
     1
102
RTVSPropertyOp5
 70
     1
102
RTVSPropertyOp6
 70
     1
102
RTVSPropertyOp7
 70
     1
102
RTVSPropertyOp8
 70
     1
102
RTVSPropertyOp9
 70
     1
102
RTVSPropertyOp10
 70
     1
102
RTVSPropertyOp11
 70
     1
102
RTVSPropertyOp12
 70
     1
102
RTVSPropertyOp13
 70
     1
102
RTVSPropertyOp14
 70
     1
102
RTVSPropertyOp15
 70
     1
102
RTVSPropertyOp16
 70
     1
102
RTVSPropertyOp17
 70
     1
102
RTVSPropertyOp18
 70
     1
102
RTVSPropertyOp19
 70
     1
102
RTVSPropertyOp20
 70
     1
102
RTVSPropertyOp21
 70
     1
102
RTVSPropertyOp22
 70
     1
102
RTVSPropertyOp23
 70
     1
102
RTVSPropertyOp24
 70
     1
102
RTVSPropertyOp25
 70
     1
102
RTVSPropertyOp26
 70
     1
102
RTVSPropertyOp27
 70
     1
102
RTVSPropertyOp28
 70
     1
102
RTVSPropertyOp29
 70
     1
102
RTVSPropertyOp30
 70
     1
102
RTVSPropertyOp31
 70
     1
102
RTVSPropertyOp32
 70
     1
102
RTVSPropertyOp33
 70
     1
102
RTVSPropertyOp34
 70
     1
102
RTVSPropertyOp35
 70
     1
102
RTVSPropertyOp36
 70
     1
102
RTVSPropertyOp37
 70
     1
102
RTVSPropertyOp38
 70
     1
102
RTVSPropertyOp39
 70
     1
102
RTVSPropertyOp40
 70
     1
102
RTVSPropertyOp41
 70
     1
102
RTVSPropertyOp42
 70
     1
102
RTVSPropertyOp43
 70
     1
102
RTVSPropertyOp44
 70
     1
102
RTVSPropertyOp45
 70
     1
102
RTVSPropertyOp46
 70
     1
102
RTVSPropertyOp47
 70
     1
102
RTVSPropertyOp48
 70
     1
102
RTVSPropertyOp49
 70
     1
102
RTVSPropertyOp50
 70
     1
102
RTVSPropertyOp51
 70
     0
102
RTVSPropertyOp52
 70
     0
102
RTVSPropertyOp53
 70
     1
102
RTVSPropertyOp54
 70
     1
102
RTVSPropertyOp55
 70
     1
102
RTVSPropertyOp56
 70
     1
102
RTVSPropertyOp57
 70
     1
102
RTVSPost2010Prop28
280
     0
102
RTVSPost2010PropOp28
 70
     1
102
RTVSPost2010Prop29
280
     1
102
RTVSPost2010PropOp29
 70
     1
102
RTVSPost2010Prop30
280
     1
102
RTVSPost2010PropOp30
 70
     1
102
RTVSPost2010Prop31
280
     0
102
RTVSPost2010PropOp31
 70
     1
102
RTVSPost2010Prop32
280
     0
102
RTVSPost2010PropOp32
 70
     1
102
RTVSPost2010Prop33
280
     0
102
RTVSPost2010PropOp33
 70
     1
102
RTVSPost2010Prop34
280
     0
102
RTVSPost2010PropOp34
 70
     1
102
RTVSPost2010Prop35
280
     0
102
RTVSPost2010PropOp35
 70
     1
102
RTVSPost2010Prop36
280
     0
102
RTVSPost2010PropOp36
 70
     1
102
RTVSPost2010Prop37
 90
       50
102
RTVSPost2010PropOp37
 70
     1
102
RTVSPost2010Prop38
140
0.0
102
RTVSPost2010PropOp38
 70
     1
102
RTVSPost2010Prop39
140
1.0
102
RTVSPost2010PropOp39
 70
     1
102
RTVSPost2010Prop40
 90
        0
102
RTVSPost2010PropOp40
 70
     1
102
RTVSPost2010Prop41ColorIndex
 90
       18
102
RTVSPost2010Prop41ColorRGB
 90
        0
102
RTVSPost2010PropOp41
 70
     1
102
RTVSPost2010Prop42
 90
       50
102
RTVSPost2010PropOp42
 70
     1
102
RTVSPost2010Prop43
 90
        3
102
RTVSPost2010PropOp43
 70
     1
102
RTVSPost2010Prop44ColorIndex
 90
        5
102
RTVSPost2010Prop44ColorRGB
 90
      255
102
RTVSPost2010PropOp44
 70
     1
102
RTVSPost2010Prop45
280
     0
102
RTVSPost2010PropOp45
 70
     1
102
RTVSPost2010Prop46
 90
       50
102
RTVSPost2010PropOp46
 70
     1
102
RTVSPost2010Prop47
 90
       50
102
RTVSPost2010PropOp47
 70
     1
102
RTVSPost2010Prop48
 90
       50
102
RTVSPost2010PropOp48
 70
     1
102
RTVSPost2010Prop49
280
     0
102
RTVSPost2010PropOp49
 70
     1
102
RTVSPost2010Prop50
 90
       50
102
RTVSPost2010PropOp50
 70
     1
102
RTVSPost2010Prop51ColorIndex
 90
      256
102
RTVSPost2010Prop51ColorRGB
 90
-16777216
102
RTVSPost2010PropOp51
 70
     0
102
RTVSPost2010Prop52
140
1.0
102
RTVSPost2010PropOp52
 70
     0
102
RTVSPost2010Prop53
 90
        2
102
RTVSPost2010PropOp53
 70
     1
102
RTVSPost2010Prop54
  1
strokes_ogs.tif
102
RTVSPost2010PropOp54
 70
     1
102
RTVSPost2010Prop55
280
     0
102
RTVSPost2010PropOp55
 70
     1
102
RTVSPost2010Prop56
140
1.0
102
RTVSPost2010PropOp56
 70
     1
102
RTVSPost2010Prop57
140
1.0
102
RTVSPost2010PropOp57
 70
     1
  0
XRECORD
  5
219
102
{ACAD_REACTORS
330
218
102
}
330
218
100
AcDbXrecord
280
     1
102
RTVSPropertyOp0
 70
     1
102
RTVSPropertyOp1
 70
     1
102
RTVSPropertyOp2
 70
     1
102
RTVSPropertyOp3
 70
     1
102
RTVSPropertyOp4
 70
     1
102
RTVSPropertyOp5
 70
     1
102
RTVSPropertyOp6
 70
     1
102
RTVSPropertyOp7
 70
     1
102
RTVSPropertyOp8
 70
     1
102
RTVSPropertyOp9
 70
     1
102
RTVSPropertyOp10
 70
     1
102
RTVSPropertyOp11
 70
     1
102
RTVSPropertyOp12
 70
     1
102
RTVSPropertyOp13
 70
     1
102
RTVSPropertyOp14
 70
     1
102
RTVSPropertyOp15
 70
     1
102
RTVSPropertyOp16
 70
     1
102
RTVSPropertyOp17
 70
     1
102
RTVSPropertyOp18
 70
     1
102
RTVSPropertyOp19
 70
     1
102
RTVSPropertyOp20
 70
     1
102
RTVSPropertyOp21
 70
     1
102
RTVSPropertyOp22
 70
     1
102
RTVSPropertyOp23
 70
     1
102
RTVSPropertyOp24
 70
     1
102
RTVSPropertyOp25
 70
     1
102
RTVSPropertyOp26
 70
     1
102
RTVSPropertyOp27
 70
     1
102
RTVSPropertyOp28
 70
     1
102
RTVSPropertyOp29
 70
     1
102
RTVSPropertyOp30
 70
     1
102
RTVSPropertyOp31
 70
     1
102
RTVSPropertyOp32
 70
     1
102
RTVSPropertyOp33
 70
     1
102
RTVSPropertyOp34
 70
     1
102
RTVSPropertyOp35
 70
     1
102
RTVSPropertyOp36
 70
     1
102
RTVSPropertyOp37
 70
     1
102
RTVSPropertyOp38
 70
     1
102
RTVSPropertyOp39
 70
     1
102
RTVSPropertyOp40
 70
     1
102
RTVSPropertyOp41
 70
     1
102
RTVSPropertyOp42
 70
     1
102
RTVSPropertyOp43
 70
     1
102
RTVSPropertyOp44
 70
     1
102
RTVSPropertyOp45
 70
     1
102
RTVSPropertyOp46
 70
     1
102
RTVSPropertyOp47
 70
     1
102
RTVSPropertyOp48
 70
     1
102
RTVSPropertyOp49
 70
     1
102
RTVSPropertyOp50
 70
     1
102
RTVSPropertyOp51
 70
     0
102
RTVSPropertyOp52
 70
     0
102
RTVSPropertyOp53
 70
     1
102
RTVSPropertyOp54
 70
     1
102
RTVSPropertyOp55
 70
     1
102
RTVSPropertyOp56
 70
     1
102
RTVSPropertyOp57
 70
     1
102
RTVSPost2010Prop28
280
     0
102
RTVSPost2010PropOp28
 70
     1
102
RTVSPost2010Prop29
280
     1
102
RTVSPost2010PropOp29
 70
     1
102
RTVSPost2010Prop30
280
     1
102
RTVSPost2010PropOp30
 70
     1
102
RTVSPost2010Prop31
280
     0
102
RTVSPost2010PropOp31
 70
     1
102
RTVSPost2010Prop32
280
     0
102
RTVSPost2010PropOp32
 70
     1
102
RTVSPost2010Prop33
280
     0
102
RTVSPost2010PropOp33
 70
     1
102
RTVSPost2010Prop34
280
     0
102
RTVSPost2010PropOp34
 70
     1
102
RTVSPost2010Prop35
280
     0
102
RTVSPost2010PropOp35
 70
     1
102
RTVSPost2010Prop36
280
     0
102
RTVSPost2010PropOp36
 70
     1
102
RTVSPost2010Prop37
 90
       50
102
RTVSPost2010PropOp37
 70
     1
102
RTVSPost2010Prop38
140
0.0
102
RTVSPost2010PropOp38
 70
     1
102
RTVSPost2010Prop39
140
1.0
102
RTVSPost2010PropOp39
 70
     1
102
RTVSPost2010Prop40
 90
        0
102
RTVSPost2010PropOp40
 70
     1
102
RTVSPost2010Prop41ColorIndex
 90
       18
102
RTVSPost2010Prop41ColorRGB
 90
        0
102
RTVSPost2010PropOp41
 70
     1
102
RTVSPost2010Prop42
 90
       50
102
RTVSPost2010PropOp42
 70
     1
102
RTVSPost2010Prop43
 90
        3
102
RTVSPost2010PropOp43
 70
     1
102
RTVSPost2010Prop44ColorIndex
 90
        5
102
RTVSPost2010Prop44ColorRGB
 90
      255
102
RTVSPost2010PropOp44
 70
     1
102
RTVSPost2010Prop45
280
     0
102
RTVSPost2010PropOp45
 70
     1
102
RTVSPost2010Prop46
 90
       50
102
RTVSPost2010PropOp46
 70
     1
102
RTVSPost2010Prop47
 90
       50
102
RTVSPost2010PropOp47
 70
     1
102
RTVSPost2010Prop48
 90
       50
102
RTVSPost2010PropOp48
 70
     1
102
RTVSPost2010Prop49
280
     0
102
RTVSPost2010PropOp49
 70
     1
102
RTVSPost2010Prop50
 90
       50
102
RTVSPost2010PropOp50
 70
     1
102
RTVSPost2010Prop51ColorIndex
 90
      256
102
RTVSPost2010Prop51ColorRGB
 90
-16777216
102
RTVSPost2010PropOp51
 70
     0
102
RTVSPost2010Prop52
140
1.0
102
RTVSPost2010PropOp52
 70
     0
102
RTVSPost2010Prop53
 90
        2
102
RTVSPost2010PropOp53
 70
     1
102
RTVSPost2010Prop54
  1
strokes_ogs.tif
102
RTVSPost2010PropOp54
 70
     1
102
RTVSPost2010Prop55
280
     0
102
RTVSPost2010PropOp55
 70
     1
102
RTVSPost2010Prop56
140
1.0
102
RTVSPost2010PropOp56
 70
     1
102
RTVSPost2010Prop57
140
1.0
102
RTVSPost2010PropOp57
 70
     1
  0
XRECORD
  5
21B
102
{ACAD_REACTORS
330
21A
102
}
330
21A
100
AcDbXrecord
280
     1
102
RTVSPropertyOp0
 70
     1
102
RTVSPropertyOp1
 70
     1
102
RTVSPropertyOp2
 70
     1
102
RTVSPropertyOp3
 70
     1
102
RTVSPropertyOp4
 70
     1
102
RTVSPropertyOp5
 70
     1
102
RTVSPropertyOp6
 70
     1
102
RTVSPropertyOp7
 70
     1
102
RTVSPropertyOp8
 70
     1
102
RTVSPropertyOp9
 70
     1
102
RTVSPropertyOp10
 70
     1
102
RTVSPropertyOp11
 70
     1
102
RTVSPropertyOp12
 70
     1
102
RTVSPropertyOp13
 70
     1
102
RTVSPropertyOp14
 70
     1
102
RTVSPropertyOp15
 70
     1
102
RTVSPropertyOp16
 70
     1
102
RTVSPropertyOp17
 70
     1
102
RTVSPropertyOp18
 70
     1
102
RTVSPropertyOp19
 70
     1
102
RTVSPropertyOp20
 70
     1
102
RTVSPropertyOp21
 70
     1
102
RTVSPropertyOp22
 70
     1
102
RTVSPropertyOp23
 70
     1
102
RTVSPropertyOp24
 70
     1
102
RTVSPropertyOp25
 70
     1
102
RTVSPropertyOp26
 70
     1
102
RTVSPropertyOp27
 70
     1
102
RTVSPropertyOp28
 70
     1
102
RTVSPropertyOp29
 70
     1
102
RTVSPropertyOp30
 70
     1
102
RTVSPropertyOp31
 70
     1
102
RTVSPropertyOp32
 70
     1
102
RTVSPropertyOp33
 70
     1
102
RTVSPropertyOp34
 70
     1
102
RTVSPropertyOp35
 70
     1
102
RTVSPropertyOp36
 70
     1
102
RTVSPropertyOp37
 70
     1
102
RTVSPropertyOp38
 70
     1
102
RTVSPropertyOp39
 70
     1
102
RTVSPropertyOp40
 70
     1
102
RTVSPropertyOp41
 70
     1
102
RTVSPropertyOp42
 70
     1
102
RTVSPropertyOp43
 70
     1
102
RTVSPropertyOp44
 70
     1
102
RTVSPropertyOp45
 70
     1
102
RTVSPropertyOp46
 70
     1
102
RTVSPropertyOp47
 70
     1
102
RTVSPropertyOp48
 70
     1
102
RTVSPropertyOp49
 70
     1
102
RTVSPropertyOp50
 70
     1
102
RTVSPropertyOp51
 70
     0
102
RTVSPropertyOp52
 70
     0
102
RTVSPropertyOp53
 70
     1
102
RTVSPropertyOp54
 70
     1
102
RTVSPropertyOp55
 70
     1
102
RTVSPropertyOp56
 70
     1
102
RTVSPropertyOp57
 70
     1
102
RTVSPost2010Prop28
280
     0
102
RTVSPost2010PropOp28
 70
     1
102
RTVSPost2010Prop29
280
     1
102
RTVSPost2010PropOp29
 70
     1
102
RTVSPost2010Prop30
280
     1
102
RTVSPost2010PropOp30
 70
     1
102
RTVSPost2010Prop31
280
     0
102
RTVSPost2010PropOp31
 70
     1
102
RTVSPost2010Prop32
280
     0
102
RTVSPost2010PropOp32
 70
     1
102
RTVSPost2010Prop33
280
     0
102
RTVSPost2010PropOp33
 70
     1
102
RTVSPost2010Prop34
280
     0
102
RTVSPost2010PropOp34
 70
     1
102
RTVSPost2010Prop35
280
     0
102
RTVSPost2010PropOp35
 70
     1
102
RTVSPost2010Prop36
280
     0
102
RTVSPost2010PropOp36
 70
     1
102
RTVSPost2010Prop37
 90
       50
102
RTVSPost2010PropOp37
 70
     1
102
RTVSPost2010Prop38
140
0.0
102
RTVSPost2010PropOp38
 70
     1
102
RTVSPost2010Prop39
140
1.0
102
RTVSPost2010PropOp39
 70
     1
102
RTVSPost2010Prop40
 90
        0
102
RTVSPost2010PropOp40
 70
     1
102
RTVSPost2010Prop41ColorIndex
 90
       18
102
RTVSPost2010Prop41ColorRGB
 90
        0
102
RTVSPost2010PropOp41
 70
     1
102
RTVSPost2010Prop42
 90
       50
102
RTVSPost2010PropOp42
 70
     1
102
RTVSPost2010Prop43
 90
        3
102
RTVSPost2010PropOp43
 70
     1
102
RTVSPost2010Prop44ColorIndex
 90
        5
102
RTVSPost2010Prop44ColorRGB
 90
      255
102
RTVSPost2010PropOp44
 70
     1
102
RTVSPost2010Prop45
280
     0
102
RTVSPost2010PropOp45
 70
     1
102
RTVSPost2010Prop46
 90
       50
102
RTVSPost2010PropOp46
 70
     1
102
RTVSPost2010Prop47
 90
       50
102
RTVSPost2010PropOp47
 70
     1
102
RTVSPost2010Prop48
 90
       50
102
RTVSPost2010PropOp48
 70
     1
102
RTVSPost2010Prop49
280
     0
102
RTVSPost2010PropOp49
 70
     1
102
RTVSPost2010Prop50
 90
       50
102
RTVSPost2010PropOp50
 70
     1
102
RTVSPost2010Prop51ColorIndex
 90
      256
102
RTVSPost2010Prop51ColorRGB
 90
-16777216
102
RTVSPost2010PropOp51
 70
     0
102
RTVSPost2010Prop52
140
1.0
102
RTVSPost2010PropOp52
 70
     0
102
RTVSPost2010Prop53
 90
        2
102
RTVSPost2010PropOp53
 70
     1
102
RTVSPost2010Prop54
  1
strokes_ogs.tif
102
RTVSPost2010PropOp54
 70
     1
102
RTVSPost2010Prop55
280
     0
102
RTVSPost2010PropOp55
 70
     1
102
RTVSPost2010Prop56
140
1.0
102
RTVSPost2010PropOp56
 70
     1
102
RTVSPost2010Prop57
140
1.0
102
RTVSPost2010PropOp57
 70
     1
  0
XRECORD
  5
21D
102
{ACAD_REACTORS
330
21C
102
}
330
21C
100
AcDbXrecord
280
     1
102
RTVSPropertyOp0
 70
     1
102
RTVSPropertyOp1
 70
     1
102
RTVSPropertyOp2
 70
     1
102
RTVSPropertyOp3
 70
     1
102
RTVSPropertyOp4
 70
     1
102
RTVSPropertyOp5
 70
     1
102
RTVSPropertyOp6
 70
     1
102
RTVSPropertyOp7
 70
     1
102
RTVSPropertyOp8
 70
     1
102
RTVSPropertyOp9
 70
     1
102
RTVSPropertyOp10
 70
     1
102
RTVSPropertyOp11
 70
     1
102
RTVSPropertyOp12
 70
     1
102
RTVSPropertyOp13
 70
     1
102
RTVSPropertyOp14
 70
     1
102
RTVSPropertyOp15
 70
     1
102
RTVSPropertyOp16
 70
     1
102
RTVSPropertyOp17
 70
     1
102
RTVSPropertyOp18
 70
     1
102
RTVSPropertyOp19
 70
     1
102
RTVSPropertyOp20
 70
     1
102
RTVSPropertyOp21
 70
     1
102
RTVSPropertyOp22
 70
     1
102
RTVSPropertyOp23
 70
     1
102
RTVSPropertyOp24
 70
     1
102
RTVSPropertyOp25
 70
     1
102
RTVSPropertyOp26
 70
     1
102
RTVSPropertyOp27
 70
     1
102
RTVSPropertyOp28
 70
     1
102
RTVSPropertyOp29
 70
     1
102
RTVSPropertyOp30
 70
     1
102
RTVSPropertyOp31
 70
     1
102
RTVSPropertyOp32
 70
     1
102
RTVSPropertyOp33
 70
     1
102
RTVSPropertyOp34
 70
     1
102
RTVSPropertyOp35
 70
     1
102
RTVSPropertyOp36
 70
     1
102
RTVSPropertyOp37
 70
     1
102
RTVSPropertyOp38
 70
     1
102
RTVSPropertyOp39
 70
     1
102
RTVSPropertyOp40
 70
     1
102
RTVSPropertyOp41
 70
     1
102
RTVSPropertyOp42
 70
     1
102
RTVSPropertyOp43
 70
     1
102
RTVSPropertyOp44
 70
     1
102
RTVSPropertyOp45
 70
     1
102
RTVSPropertyOp46
 70
     1
102
RTVSPropertyOp47
 70
     1
102
RTVSPropertyOp48
 70
     1
102
RTVSPropertyOp49
 70
     1
102
RTVSPropertyOp50
 70
     1
102
RTVSPropertyOp51
 70
     0
102
RTVSPropertyOp52
 70
     0
102
RTVSPropertyOp53
 70
     1
102
RTVSPropertyOp54
 70
     1
102
RTVSPropertyOp55
 70
     1
102
RTVSPropertyOp56
 70
     1
102
RTVSPropertyOp57
 70
     1
102
RTVSPost2010Prop28
280
     0
102
RTVSPost2010PropOp28
 70
     1
102
RTVSPost2010Prop29
280
     1
102
RTVSPost2010PropOp29
 70
     1
102
RTVSPost2010Prop30
280
     1
102
RTVSPost2010PropOp30
 70
     1
102
RTVSPost2010Prop31
280
     0
102
RTVSPost2010PropOp31
 70
     1
102
RTVSPost2010Prop32
280
     0
102
RTVSPost2010PropOp32
 70
     1
102
RTVSPost2010Prop33
280
     0
102
RTVSPost2010PropOp33
 70
     1
102
RTVSPost2010Prop34
280
     0
102
RTVSPost2010PropOp34
 70
     1
102
RTVSPost2010Prop35
280
     0
102
RTVSPost2010PropOp35
 70
     1
102
RTVSPost2010Prop36
280
     0
102
RTVSPost2010PropOp36
 70
     1
102
RTVSPost2010Prop37
 90
       50
102
RTVSPost2010PropOp37
 70
     1
102
RTVSPost2010Prop38
140
0.0
102
RTVSPost2010PropOp38
 70
     1
102
RTVSPost2010Prop39
140
1.0
102
RTVSPost2010PropOp39
 70
     1
102
RTVSPost2010Prop40
 90
        0
102
RTVSPost2010PropOp40
 70
     1
102
RTVSPost2010Prop41ColorIndex
 90
       18
102
RTVSPost2010Prop41ColorRGB
 90
        0
102
RTVSPost2010PropOp41
 70
     1
102
RTVSPost2010Prop42
 90
       50
102
RTVSPost2010PropOp42
 70
     1
102
RTVSPost2010Prop43
 90
        3
102
RTVSPost2010PropOp43
 70
     1
102
RTVSPost2010Prop44ColorIndex
 90
        5
102
RTVSPost2010Prop44ColorRGB
 90
      255
102
RTVSPost2010PropOp44
 70
     1
102
RTVSPost2010Prop45
280
     0
102
RTVSPost2010PropOp45
 70
     1
102
RTVSPost2010Prop46
 90
       50
102
RTVSPost2010PropOp46
 70
     1
102
RTVSPost2010Prop47
 90
       50
102
RTVSPost2010PropOp47
 70
     1
102
RTVSPost2010Prop48
 90
       50
102
RTVSPost2010PropOp48
 70
     1
102
RTVSPost2010Prop49
280
     0
102
RTVSPost2010PropOp49
 70
     1
102
RTVSPost2010Prop50
 90
       50
102
RTVSPost2010PropOp50
 70
     1
102
RTVSPost2010Prop51ColorIndex
 90
      256
102
RTVSPost2010Prop51ColorRGB
 90
-16777216
102
RTVSPost2010PropOp51
 70
     0
102
RTVSPost2010Prop52
140
1.0
102
RTVSPost2010PropOp52
 70
     0
102
RTVSPost2010Prop53
 90
        2
102
RTVSPost2010PropOp53
 70
     1
102
RTVSPost2010Prop54
  1
strokes_ogs.tif
102
RTVSPost2010PropOp54
 70
     1
102
RTVSPost2010Prop55
280
     0
102
RTVSPost2010PropOp55
 70
     1
102
RTVSPost2010Prop56
140
1.0
102
RTVSPost2010PropOp56
 70
     1
102
RTVSPost2010Prop57
140
1.0
102
RTVSPost2010PropOp57
 70
     1
  0
XRECORD
  5
21F
102
{ACAD_REACTORS
330
21E
102
}
330
21E
100
AcDbXrecord
280
     1
102
RTVSPropertyOp0
 70
     1
102
RTVSPropertyOp1
 70
     1
102
RTVSPropertyOp2
 70
     1
102
RTVSPropertyOp3
 70
     1
102
RTVSPropertyOp4
 70
     1
102
RTVSPropertyOp5
 70
     1
102
RTVSPropertyOp6
 70
     1
102
RTVSPropertyOp7
 70
     1
102
RTVSPropertyOp8
 70
     1
102
RTVSPropertyOp9
 70
     1
102
RTVSPropertyOp10
 70
     1
102
RTVSPropertyOp11
 70
     1
102
RTVSPropertyOp12
 70
     1
102
RTVSPropertyOp13
 70
     1
102
RTVSPropertyOp14
 70
     1
102
RTVSPropertyOp15
 70
     1
102
RTVSPropertyOp16
 70
     1
102
RTVSPropertyOp17
 70
     1
102
RTVSPropertyOp18
 70
     1
102
RTVSPropertyOp19
 70
     1
102
RTVSPropertyOp20
 70
     1
102
RTVSPropertyOp21
 70
     1
102
RTVSPropertyOp22
 70
     1
102
RTVSPropertyOp23
 70
     1
102
RTVSPropertyOp24
 70
     1
102
RTVSPropertyOp25
 70
     1
102
RTVSPropertyOp26
 70
     1
102
RTVSPropertyOp27
 70
     1
102
RTVSPropertyOp28
 70
     1
102
RTVSPropertyOp29
 70
     1
102
RTVSPropertyOp30
 70
     1
102
RTVSPropertyOp31
 70
     1
102
RTVSPropertyOp32
 70
     1
102
RTVSPropertyOp33
 70
     1
102
RTVSPropertyOp34
 70
     1
102
RTVSPropertyOp35
 70
     1
102
RTVSPropertyOp36
 70
     1
102
RTVSPropertyOp37
 70
     1
102
RTVSPropertyOp38
 70
     1
102
RTVSPropertyOp39
 70
     1
102
RTVSPropertyOp40
 70
     1
102
RTVSPropertyOp41
 70
     1
102
RTVSPropertyOp42
 70
     1
102
RTVSPropertyOp43
 70
     1
102
RTVSPropertyOp44
 70
     1
102
RTVSPropertyOp45
 70
     1
102
RTVSPropertyOp46
 70
     1
102
RTVSPropertyOp47
 70
     1
102
RTVSPropertyOp48
 70
     1
102
RTVSPropertyOp49
 70
     1
102
RTVSPropertyOp50
 70
     1
102
RTVSPropertyOp51
 70
     0
102
RTVSPropertyOp52
 70
     0
102
RTVSPropertyOp53
 70
     1
102
RTVSPropertyOp54
 70
     1
102
RTVSPropertyOp55
 70
     1
102
RTVSPropertyOp56
 70
     1
102
RTVSPropertyOp57
 70
     1
102
RTVSPost2010Prop28
280
     0
102
RTVSPost2010PropOp28
 70
     1
102
RTVSPost2010Prop29
280
     1
102
RTVSPost2010PropOp29
 70
     1
102
RTVSPost2010Prop30
280
     1
102
RTVSPost2010PropOp30
 70
     1
102
RTVSPost2010Prop31
280
     0
102
RTVSPost2010PropOp31
 70
     1
102
RTVSPost2010Prop32
280
     0
102
RTVSPost2010PropOp32
 70
     1
102
RTVSPost2010Prop33
280
     0
102
RTVSPost2010PropOp33
 70
     1
102
RTVSPost2010Prop34
280
     0
102
RTVSPost2010PropOp34
 70
     1
102
RTVSPost2010Prop35
280
     0
102
RTVSPost2010PropOp35
 70
     1
102
RTVSPost2010Prop36
280
     0
102
RTVSPost2010PropOp36
 70
     1
102
RTVSPost2010Prop37
 90
       50
102
RTVSPost2010PropOp37
 70
     1
102
RTVSPost2010Prop38
140
0.0
102
RTVSPost2010PropOp38
 70
     1
102
RTVSPost2010Prop39
140
1.0
102
RTVSPost2010PropOp39
 70
     1
102
RTVSPost2010Prop40
 90
        0
102
RTVSPost2010PropOp40
 70
     1
102
RTVSPost2010Prop41ColorIndex
 90
       18
102
RTVSPost2010Prop41ColorRGB
 90
        0
102
RTVSPost2010PropOp41
 70
     1
102
RTVSPost2010Prop42
 90
       50
102
RTVSPost2010PropOp42
 70
     1
102
RTVSPost2010Prop43
 90
        3
102
RTVSPost2010PropOp43
 70
     1
102
RTVSPost2010Prop44ColorIndex
 90
        5
102
RTVSPost2010Prop44ColorRGB
 90
      255
102
RTVSPost2010PropOp44
 70
     1
102
RTVSPost2010Prop45
280
     0
102
RTVSPost2010PropOp45
 70
     1
102
RTVSPost2010Prop46
 90
       50
102
RTVSPost2010PropOp46
 70
     1
102
RTVSPost2010Prop47
 90
       50
102
RTVSPost2010PropOp47
 70
     1
102
RTVSPost2010Prop48
 90
       50
102
RTVSPost2010PropOp48
 70
     1
102
RTVSPost2010Prop49
280
     0
102
RTVSPost2010PropOp49
 70
     1
102
RTVSPost2010Prop50
 90
       50
102
RTVSPost2010PropOp50
 70
     1
102
RTVSPost2010Prop51ColorIndex
 90
      256
102
RTVSPost2010Prop51ColorRGB
 90
-16777216
102
RTVSPost2010PropOp51
 70
     0
102
RTVSPost2010Prop52
140
1.0
102
RTVSPost2010PropOp52
 70
     0
102
RTVSPost2010Prop53
 90
        2
102
RTVSPost2010PropOp53
 70
     1
102
RTVSPost2010Prop54
  1
strokes_ogs.tif
102
RTVSPost2010PropOp54
 70
     1
102
RTVSPost2010Prop55
280
     0
102
RTVSPost2010PropOp55
 70
     1
102
RTVSPost2010Prop56
140
1.0
102
RTVSPost2010PropOp56
 70
     1
102
RTVSPost2010Prop57
140
1.0
102
RTVSPost2010PropOp57
 70
     1
  0
XRECORD
  5
225
102
{ACAD_REACTORS
330
224
102
}
330
224
100
AcDbXrecord
280
     1
102
RTVSPropertyOp0
 70
     1
102
RTVSPropertyOp1
 70
     1
102
RTVSPropertyOp2
 70
     1
102
RTVSPropertyOp3
 70
     1
102
RTVSPropertyOp4
 70
     1
102
RTVSPropertyOp5
 70
     1
102
RTVSPropertyOp6
 70
     1
102
RTVSPropertyOp7
 70
     1
102
RTVSPropertyOp8
 70
     1
102
RTVSPropertyOp9
 70
     1
102
RTVSPropertyOp10
 70
     1
102
RTVSPropertyOp11
 70
     1
102
RTVSPropertyOp12
 70
     1
102
RTVSPropertyOp13
 70
     1
102
RTVSPropertyOp14
 70
     1
102
RTVSPropertyOp15
 70
     1
102
RTVSPropertyOp16
 70
     1
102
RTVSPropertyOp17
 70
     1
102
RTVSPropertyOp18
 70
     1
102
RTVSPropertyOp19
 70
     1
102
RTVSPropertyOp20
 70
     1
102
RTVSPropertyOp21
 70
     1
102
RTVSPropertyOp22
 70
     1
102
RTVSPropertyOp23
 70
     1
102
RTVSPropertyOp24
 70
     1
102
RTVSPropertyOp25
 70
     1
102
RTVSPropertyOp26
 70
     1
102
RTVSPropertyOp27
 70
     1
102
RTVSPropertyOp28
 70
     1
102
RTVSPropertyOp29
 70
     1
102
RTVSPropertyOp30
 70
     1
102
RTVSPropertyOp31
 70
     1
102
RTVSPropertyOp32
 70
     1
102
RTVSPropertyOp33
 70
     1
102
RTVSPropertyOp34
 70
     1
102
RTVSPropertyOp35
 70
     1
102
RTVSPropertyOp36
 70
     1
102
RTVSPropertyOp37
 70
     1
102
RTVSPropertyOp38
 70
     1
102
RTVSPropertyOp39
 70
     1
102
RTVSPropertyOp40
 70
     1
102
RTVSPropertyOp41
 70
     1
102
RTVSPropertyOp42
 70
     1
102
RTVSPropertyOp43
 70
     1
102
RTVSPropertyOp44
 70
     1
102
RTVSPropertyOp45
 70
     1
102
RTVSPropertyOp46
 70
     1
102
RTVSPropertyOp47
 70
     1
102
RTVSPropertyOp48
 70
     1
102
RTVSPropertyOp49
 70
     1
102
RTVSPropertyOp50
 70
     1
102
RTVSPropertyOp51
 70
     0
102
RTVSPropertyOp52
 70
     0
102
RTVSPropertyOp53
 70
     1
102
RTVSPropertyOp54
 70
     1
102
RTVSPropertyOp55
 70
     1
102
RTVSPropertyOp56
 70
     1
102
RTVSPropertyOp57
 70
     1
102
RTVSPost2010Prop28
280
     0
102
RTVSPost2010PropOp28
 70
     1
102
RTVSPost2010Prop29
280
     1
102
RTVSPost2010PropOp29
 70
     1
102
RTVSPost2010Prop30
280
     1
102
RTVSPost2010PropOp30
 70
     1
102
RTVSPost2010Prop31
280
     0
102
RTVSPost2010PropOp31
 70
     1
102
RTVSPost2010Prop32
280
     0
102
RTVSPost2010PropOp32
 70
     1
102
RTVSPost2010Prop33
280
     0
102
RTVSPost2010PropOp33
 70
     1
102
RTVSPost2010Prop34
280
     0
102
RTVSPost2010PropOp34
 70
     1
102
RTVSPost2010Prop35
280
     0
102
RTVSPost2010PropOp35
 70
     1
102
RTVSPost2010Prop36
280
     0
102
RTVSPost2010PropOp36
 70
     1
102
RTVSPost2010Prop37
 90
       50
102
RTVSPost2010PropOp37
 70
     1
102
RTVSPost2010Prop38
140
0.0
102
RTVSPost2010PropOp38
 70
     1
102
RTVSPost2010Prop39
140
1.0
102
RTVSPost2010PropOp39
 70
     1
102
RTVSPost2010Prop40
 90
        0
102
RTVSPost2010PropOp40
 70
     1
102
RTVSPost2010Prop41ColorIndex
 90
       18
102
RTVSPost2010Prop41ColorRGB
 90
        0
102
RTVSPost2010PropOp41
 70
     1
102
RTVSPost2010Prop42
 90
       50
102
RTVSPost2010PropOp42
 70
     1
102
RTVSPost2010Prop43
 90
        3
102
RTVSPost2010PropOp43
 70
     1
102
RTVSPost2010Prop44ColorIndex
 90
        5
102
RTVSPost2010Prop44ColorRGB
 90
      255
102
RTVSPost2010PropOp44
 70
     1
102
RTVSPost2010Prop45
280
     0
102
RTVSPost2010PropOp45
 70
     1
102
RTVSPost2010Prop46
 90
       50
102
RTVSPost2010PropOp46
 70
     1
102
RTVSPost2010Prop47
 90
       50
102
RTVSPost2010PropOp47
 70
     1
102
RTVSPost2010Prop48
 90
       50
102
RTVSPost2010PropOp48
 70
     1
102
RTVSPost2010Prop49
280
     0
102
RTVSPost2010PropOp49
 70
     1
102
RTVSPost2010Prop50
 90
       50
102
RTVSPost2010PropOp50
 70
     1
102
RTVSPost2010Prop51ColorIndex
 90
      256
102
RTVSPost2010Prop51ColorRGB
 90
-16777216
102
RTVSPost2010PropOp51
 70
     0
102
RTVSPost2010Prop52
140
1.0
102
RTVSPost2010PropOp52
 70
     0
102
RTVSPost2010Prop53
 90
        2
102
RTVSPost2010PropOp53
 70
     1
102
RTVSPost2010Prop54
  1
strokes_ogs.tif
102
RTVSPost2010PropOp54
 70
     1
102
RTVSPost2010Prop55
280
     0
102
RTVSPost2010PropOp55
 70
     1
102
RTVSPost2010Prop56
140
1.0
102
RTVSPost2010PropOp56
 70
     1
102
RTVSPost2010Prop57
140
1.0
102
RTVSPost2010PropOp57
 70
     1
  0
XRECORD
  5
239
102
{ACAD_REACTORS
330
238
102
}
330
238
100
AcDbXrecord
280
     1
102
RTVSPropertyOp0
 70
     0
102
RTVSPropertyOp1
 70
     0
102
RTVSPropertyOp2
 70
     0
102
RTVSPropertyOp3
 70
     0
102
RTVSPropertyOp4
 70
     0
102
RTVSPropertyOp5
 70
     0
102
RTVSPropertyOp6
 70
     0
102
RTVSPropertyOp7
 70
     0
102
RTVSPropertyOp8
 70
     0
102
RTVSPropertyOp9
 70
     0
102
RTVSPropertyOp10
 70
     0
102
RTVSPropertyOp11
 70
     0
102
RTVSPropertyOp12
 70
     0
102
RTVSPropertyOp13
 70
     0
102
RTVSPropertyOp14
 70
     2
102
RTVSPropertyOp15
 70
     0
102
RTVSPropertyOp16
 70
     0
102
RTVSPropertyOp17
 70
     0
102
RTVSPropertyOp18
 70
     0
102
RTVSPropertyOp19
 70
     0
102
RTVSPropertyOp20
 70
     0
102
RTVSPropertyOp21
 70
     0
102
RTVSPropertyOp22
 70
     0
102
RTVSPropertyOp23
 70
     0
102
RTVSPropertyOp24
 70
     0
102
RTVSPropertyOp25
 70
     0
102
RTVSPropertyOp26
 70
     0
102
RTVSPropertyOp27
 70
     0
102
RTVSPropertyOp28
 70
     0
102
RTVSPropertyOp29
 70
     0
102
RTVSPropertyOp30
 70
     0
102
RTVSPropertyOp31
 70
     0
102
RTVSPropertyOp32
 70
     0
102
RTVSPropertyOp33
 70
     0
102
RTVSPropertyOp34
 70
     0
102
RTVSPropertyOp35
 70
     0
102
RTVSPropertyOp36
 70
     0
102
RTVSPropertyOp37
 70
     0
102
RTVSPropertyOp38
 70
     0
102
RTVSPropertyOp39
 70
     0
102
RTVSPropertyOp40
 70
     0
102
RTVSPropertyOp41
 70
     0
102
RTVSPropertyOp42
 70
     0
102
RTVSPropertyOp43
 70
     0
102
RTVSPropertyOp44
 70
     0
102
RTVSPropertyOp45
 70
     0
102
RTVSPropertyOp46
 70
     0
102
RTVSPropertyOp47
 70
     0
102
RTVSPropertyOp48
 70
     0
102
RTVSPropertyOp49
 70
     0
102
RTVSPropertyOp50
 70
     0
102
RTVSPropertyOp51
 70
     0
102
RTVSPropertyOp52
 70
     0
102
RTVSPropertyOp53
 70
     0
102
RTVSPropertyOp54
 70
     0
102
RTVSPropertyOp55
 70
     0
102
RTVSPropertyOp56
 70
     0
102
RTVSPropertyOp57
 70
     0
102
RTVSPost2010Prop28
280
     0
102
RTVSPost2010PropOp28
 70
     0
102
RTVSPost2010Prop29
280
     1
102
RTVSPost2010PropOp29
 70
     0
102
RTVSPost2010Prop30
280
     1
102
RTVSPost2010PropOp30
 70
     0
102
RTVSPost2010Prop31
280
     0
102
RTVSPost2010PropOp31
 70
     0
102
RTVSPost2010Prop32
280
     0
102
RTVSPost2010PropOp32
 70
     0
102
RTVSPost2010Prop33
280
     0
102
RTVSPost2010PropOp33
 70
     0
102
RTVSPost2010Prop34
280
     0
102
RTVSPost2010PropOp34
 70
     0
102
RTVSPost2010Prop35
280
     0
102
RTVSPost2010PropOp35
 70
     0
102
RTVSPost2010Prop36
280
     0
102
RTVSPost2010PropOp36
 70
     0
102
RTVSPost2010Prop37
 90
       50
102
RTVSPost2010PropOp37
 70
     0
102
RTVSPost2010Prop38
140
0.0
102
RTVSPost2010PropOp38
 70
     0
102
RTVSPost2010Prop39
140
1.0
102
RTVSPost2010PropOp39
 70
     0
102
RTVSPost2010Prop40
 90
        0
102
RTVSPost2010PropOp40
 70
     0
102
RTVSPost2010Prop41ColorIndex
 90
       18
102
RTVSPost2010Prop41ColorRGB
 90
        0
102
RTVSPost2010PropOp41
 70
     0
102
RTVSPost2010Prop42
 90
       50
102
RTVSPost2010PropOp42
 70
     0
102
RTVSPost2010Prop43
 90
        3
102
RTVSPost2010PropOp43
 70
     0
102
RTVSPost2010Prop44ColorIndex
 90
        5
102
RTVSPost2010Prop44ColorRGB
 90
      255
102
RTVSPost2010PropOp44
 70
     0
102
RTVSPost2010Prop45
280
     0
102
RTVSPost2010PropOp45
 70
     0
102
RTVSPost2010Prop46
 90
       50
102
RTVSPost2010PropOp46
 70
     0
102
RTVSPost2010Prop47
 90
       50
102
RTVSPost2010PropOp47
 70
     0
102
RTVSPost2010Prop48
 90
       50
102
RTVSPost2010PropOp48
 70
     0
102
RTVSPost2010Prop49
280
     0
102
RTVSPost2010PropOp49
 70
     0
102
RTVSPost2010Prop50
 90
       50
102
RTVSPost2010PropOp50
 70
     0
102
RTVSPost2010Prop51ColorIndex
 90
      256
102
RTVSPost2010Prop51ColorRGB
 90
-16777216
102
RTVSPost2010PropOp51
 70
     0
102
RTVSPost2010Prop52
140
1.0
102
RTVSPost2010PropOp52
 70
     0
102
RTVSPost2010Prop53
 90
        2
102
RTVSPost2010PropOp53
 70
     0
102
RTVSPost2010Prop54
  1
strokes_ogs.tif
102
RTVSPost2010PropOp54
 70
     0
102
RTVSPost2010Prop55
280
     0
102
RTVSPost2010PropOp55
 70
     0
102
RTVSPost2010Prop56
140
1.0
102
RTVSPost2010PropOp56
 70
     0
102
RTVSPost2010Prop57
140
1.0
102
RTVSPost2010PropOp57
 70
     0
  0
XRECORD
  5
233
102
{ACAD_REACTORS
330
232
102
}
330
232
100
AcDbXrecord
280
     1
102
RTVSPropertyOp0
 70
     1
102
RTVSPropertyOp1
 70
     1
102
RTVSPropertyOp2
 70
     1
102
RTVSPropertyOp3
 70
     1
102
RTVSPropertyOp4
 70
     1
102
RTVSPropertyOp5
 70
     1
102
RTVSPropertyOp6
 70
     1
102
RTVSPropertyOp7
 70
     1
102
RTVSPropertyOp8
 70
     1
102
RTVSPropertyOp9
 70
     1
102
RTVSPropertyOp10
 70
     1
102
RTVSPropertyOp11
 70
     1
102
RTVSPropertyOp12
 70
     1
102
RTVSPropertyOp13
 70
     1
102
RTVSPropertyOp14
 70
     1
102
RTVSPropertyOp15
 70
     1
102
RTVSPropertyOp16
 70
     1
102
RTVSPropertyOp17
 70
     1
102
RTVSPropertyOp18
 70
     1
102
RTVSPropertyOp19
 70
     1
102
RTVSPropertyOp20
 70
     1
102
RTVSPropertyOp21
 70
     1
102
RTVSPropertyOp22
 70
     1
102
RTVSPropertyOp23
 70
     1
102
RTVSPropertyOp24
 70
     1
102
RTVSPropertyOp25
 70
     1
102
RTVSPropertyOp26
 70
     1
102
RTVSPropertyOp27
 70
     1
102
RTVSPropertyOp28
 70
     1
102
RTVSPropertyOp29
 70
     1
102
RTVSPropertyOp30
 70
     1
102
RTVSPropertyOp31
 70
     1
102
RTVSPropertyOp32
 70
     1
102
RTVSPropertyOp33
 70
     1
102
RTVSPropertyOp34
 70
     1
102
RTVSPropertyOp35
 70
     1
102
RTVSPropertyOp36
 70
     1
102
RTVSPropertyOp37
 70
     1
102
RTVSPropertyOp38
 70
     1
102
RTVSPropertyOp39
 70
     1
102
RTVSPropertyOp40
 70
     1
102
RTVSPropertyOp41
 70
     1
102
RTVSPropertyOp42
 70
     1
102
RTVSPropertyOp43
 70
     1
102
RTVSPropertyOp44
 70
     1
102
RTVSPropertyOp45
 70
     1
102
RTVSPropertyOp46
 70
     1
102
RTVSPropertyOp47
 70
     1
102
RTVSPropertyOp48
 70
     1
102
RTVSPropertyOp49
 70
     1
102
RTVSPropertyOp50
 70
     1
102
RTVSPropertyOp51
 70
     0
102
RTVSPropertyOp52
 70
     0
102
RTVSPropertyOp53
 70
     1
102
RTVSPropertyOp54
 70
     1
102
RTVSPropertyOp55
 70
     1
102
RTVSPropertyOp56
 70
     1
102
RTVSPropertyOp57
 70
     1
102
RTVSPost2010Prop28
280
     0
102
RTVSPost2010PropOp28
 70
     1
102
RTVSPost2010Prop29
280
     1
102
RTVSPost2010PropOp29
 70
     1
102
RTVSPost2010Prop30
280
     1
102
RTVSPost2010PropOp30
 70
     1
102
RTVSPost2010Prop31
280
     0
102
RTVSPost2010PropOp31
 70
     1
102
RTVSPost2010Prop32
280
     0
102
RTVSPost2010PropOp32
 70
     1
102
RTVSPost2010Prop33
280
     0
102
RTVSPost2010PropOp33
 70
     1
102
RTVSPost2010Prop34
280
     0
102
RTVSPost2010PropOp34
 70
     1
102
RTVSPost2010Prop35
280
     0
102
RTVSPost2010PropOp35
 70
     1
102
RTVSPost2010Prop36
280
     0
102
RTVSPost2010PropOp36
 70
     1
102
RTVSPost2010Prop37
 90
       50
102
RTVSPost2010PropOp37
 70
     1
102
RTVSPost2010Prop38
140
0.0
102
RTVSPost2010PropOp38
 70
     1
102
RTVSPost2010Prop39
140
1.0
102
RTVSPost2010PropOp39
 70
     1
102
RTVSPost2010Prop40
 90
        0
102
RTVSPost2010PropOp40
 70
     1
102
RTVSPost2010Prop41ColorIndex
 90
       18
102
RTVSPost2010Prop41ColorRGB
 90
        0
102
RTVSPost2010PropOp41
 70
     1
102
RTVSPost2010Prop42
 90
       50
102
RTVSPost2010PropOp42
 70
     1
102
RTVSPost2010Prop43
 90
        3
102
RTVSPost2010PropOp43
 70
     1
102
RTVSPost2010Prop44ColorIndex
 90
        5
102
RTVSPost2010Prop44ColorRGB
 90
      255
102
RTVSPost2010PropOp44
 70
     1
102
RTVSPost2010Prop45
280
     0
102
RTVSPost2010PropOp45
 70
     1
102
RTVSPost2010Prop46
 90
       50
102
RTVSPost2010PropOp46
 70
     1
102
RTVSPost2010Prop47
 90
       50
102
RTVSPost2010PropOp47
 70
     1
102
RTVSPost2010Prop48
 90
       50
102
RTVSPost2010PropOp48
 70
     1
102
RTVSPost2010Prop49
280
     0
102
RTVSPost2010PropOp49
 70
     1
102
RTVSPost2010Prop50
 90
       50
102
RTVSPost2010PropOp50
 70
     1
102
RTVSPost2010Prop51ColorIndex
 90
      256
102
RTVSPost2010Prop51ColorRGB
 90
-16777216
102
RTVSPost2010PropOp51
 70
     0
102
RTVSPost2010Prop52
140
1.0
102
RTVSPost2010PropOp52
 70
     0
102
RTVSPost2010Prop53
 90
        2
102
RTVSPost2010PropOp53
 70
     1
102
RTVSPost2010Prop54
  1
strokes_ogs.tif
102
RTVSPost2010PropOp54
 70
     1
102
RTVSPost2010Prop55
280
     0
102
RTVSPost2010PropOp55
 70
     1
102
RTVSPost2010Prop56
140
1.0
102
RTVSPost2010PropOp56
 70
     1
102
RTVSPost2010Prop57
140
1.0
102
RTVSPost2010PropOp57
 70
     1
  0
XRECORD
  5
23B
102
{ACAD_REACTORS
330
23A
102
}
330
23A
100
AcDbXrecord
280
     1
102
RTVSPropertyOp0
 70
     0
102
RTVSPropertyOp1
 70
     0
102
RTVSPropertyOp2
 70
     0
102
RTVSPropertyOp3
 70
     0
102
RTVSPropertyOp4
 70
     0
102
RTVSPropertyOp5
 70
     0
102
RTVSPropertyOp6
 70
     0
102
RTVSPropertyOp7
 70
     0
102
RTVSPropertyOp8
 70
     0
102
RTVSPropertyOp9
 70
     0
102
RTVSPropertyOp10
 70
     0
102
RTVSPropertyOp11
 70
     0
102
RTVSPropertyOp12
 70
     0
102
RTVSPropertyOp13
 70
     0
102
RTVSPropertyOp14
 70
     2
102
RTVSPropertyOp15
 70
     0
102
RTVSPropertyOp16
 70
     0
102
RTVSPropertyOp17
 70
     0
102
RTVSPropertyOp18
 70
     0
102
RTVSPropertyOp19
 70
     0
102
RTVSPropertyOp20
 70
     0
102
RTVSPropertyOp21
 70
     0
102
RTVSPropertyOp22
 70
     0
102
RTVSPropertyOp23
 70
     0
102
RTVSPropertyOp24
 70
     0
102
RTVSPropertyOp25
 70
     0
102
RTVSPropertyOp26
 70
     0
102
RTVSPropertyOp27
 70
     0
102
RTVSPropertyOp28
 70
     0
102
RTVSPropertyOp29
 70
     0
102
RTVSPropertyOp30
 70
     0
102
RTVSPropertyOp31
 70
     0
102
RTVSPropertyOp32
 70
     0
102
RTVSPropertyOp33
 70
     0
102
RTVSPropertyOp34
 70
     0
102
RTVSPropertyOp35
 70
     0
102
RTVSPropertyOp36
 70
     0
102
RTVSPropertyOp37
 70
     0
102
RTVSPropertyOp38
 70
     0
102
RTVSPropertyOp39
 70
     0
102
RTVSPropertyOp40
 70
     0
102
RTVSPropertyOp41
 70
     0
102
RTVSPropertyOp42
 70
     0
102
RTVSPropertyOp43
 70
     0
102
RTVSPropertyOp44
 70
     0
102
RTVSPropertyOp45
 70
     0
102
RTVSPropertyOp46
 70
     0
102
RTVSPropertyOp47
 70
     0
102
RTVSPropertyOp48
 70
     0
102
RTVSPropertyOp49
 70
     0
102
RTVSPropertyOp50
 70
     0
102
RTVSPropertyOp51
 70
     0
102
RTVSPropertyOp52
 70
     0
102
RTVSPropertyOp53
 70
     0
102
RTVSPropertyOp54
 70
     0
102
RTVSPropertyOp55
 70
     0
102
RTVSPropertyOp56
 70
     0
102
RTVSPropertyOp57
 70
     0
102
RTVSPost2010Prop28
280
     0
102
RTVSPost2010PropOp28
 70
     0
102
RTVSPost2010Prop29
280
     1
102
RTVSPost2010PropOp29
 70
     0
102
RTVSPost2010Prop30
280
     1
102
RTVSPost2010PropOp30
 70
     0
102
RTVSPost2010Prop31
280
     0
102
RTVSPost2010PropOp31
 70
     0
102
RTVSPost2010Prop32
280
     0
102
RTVSPost2010PropOp32
 70
     0
102
RTVSPost2010Prop33
280
     0
102
RTVSPost2010PropOp33
 70
     0
102
RTVSPost2010Prop34
280
     0
102
RTVSPost2010PropOp34
 70
     0
102
RTVSPost2010Prop35
280
     0
102
RTVSPost2010PropOp35
 70
     0
102
RTVSPost2010Prop36
280
     0
102
RTVSPost2010PropOp36
 70
     0
102
RTVSPost2010Prop37
 90
       50
102
RTVSPost2010PropOp37
 70
     0
102
RTVSPost2010Prop38
140
0.0
102
RTVSPost2010PropOp38
 70
     0
102
RTVSPost2010Prop39
140
1.0
102
RTVSPost2010PropOp39
 70
     0
102
RTVSPost2010Prop40
 90
        0
102
RTVSPost2010PropOp40
 70
     0
102
RTVSPost2010Prop41ColorIndex
 90
       18
102
RTVSPost2010Prop41ColorRGB
 90
        0
102
RTVSPost2010PropOp41
 70
     0
102
RTVSPost2010Prop42
 90
       50
102
RTVSPost2010PropOp42
 70
     0
102
RTVSPost2010Prop43
 90
        3
102
RTVSPost2010PropOp43
 70
     0
102
RTVSPost2010Prop44ColorIndex
 90
        5
102
RTVSPost2010Prop44ColorRGB
 90
      255
102
RTVSPost2010PropOp44
 70
     0
102
RTVSPost2010Prop45
280
     0
102
RTVSPost2010PropOp45
 70
     0
102
RTVSPost2010Prop46
 90
       50
102
RTVSPost2010PropOp46
 70
     0
102
RTVSPost2010Prop47
 90
       50
102
RTVSPost2010PropOp47
 70
     0
102
RTVSPost2010Prop48
 90
       50
102
RTVSPost2010PropOp48
 70
     0
102
RTVSPost2010Prop49
280
     0
102
RTVSPost2010PropOp49
 70
     0
102
RTVSPost2010Prop50
 90
       50
102
RTVSPost2010PropOp50
 70
     0
102
RTVSPost2010Prop51ColorIndex
 90
      256
102
RTVSPost2010Prop51ColorRGB
 90
-16777216
102
RTVSPost2010PropOp51
 70
     0
102
RTVSPost2010Prop52
140
1.0
102
RTVSPost2010PropOp52
 70
     0
102
RTVSPost2010Prop53
 90
        2
102
RTVSPost2010PropOp53
 70
     0
102
RTVSPost2010Prop54
  1
strokes_ogs.tif
102
RTVSPost2010PropOp54
 70
     0
102
RTVSPost2010Prop55
280
     0
102
RTVSPost2010PropOp55
 70
     0
102
RTVSPost2010Prop56
140
1.0
102
RTVSPost2010PropOp56
 70
     0
102
RTVSPost2010Prop57
140
1.0
102
RTVSPost2010PropOp57
 70
     0
  0
XRECORD
  5
229
102
{ACAD_REACTORS
330
228
102
}
330
228
100
AcDbXrecord
280
     1
102
RTVSPropertyOp0
 70
     1
102
RTVSPropertyOp1
 70
     1
102
RTVSPropertyOp2
 70
     1
102
RTVSPropertyOp3
 70
     1
102
RTVSPropertyOp4
 70
     1
102
RTVSPropertyOp5
 70
     1
102
RTVSPropertyOp6
 70
     1
102
RTVSPropertyOp7
 70
     1
102
RTVSPropertyOp8
 70
     1
102
RTVSPropertyOp9
 70
     1
102
RTVSPropertyOp10
 70
     1
102
RTVSPropertyOp11
 70
     1
102
RTVSPropertyOp12
 70
     1
102
RTVSPropertyOp13
 70
     1
102
RTVSPropertyOp14
 70
     1
102
RTVSPropertyOp15
 70
     1
102
RTVSPropertyOp16
 70
     1
102
RTVSPropertyOp17
 70
     1
102
RTVSPropertyOp18
 70
     1
102
RTVSPropertyOp19
 70
     1
102
RTVSPropertyOp20
 70
     1
102
RTVSPropertyOp21
 70
     1
102
RTVSPropertyOp22
 70
     1
102
RTVSPropertyOp23
 70
     1
102
RTVSPropertyOp24
 70
     1
102
RTVSPropertyOp25
 70
     1
102
RTVSPropertyOp26
 70
     1
102
RTVSPropertyOp27
 70
     1
102
RTVSPropertyOp28
 70
     1
102
RTVSPropertyOp29
 70
     1
102
RTVSPropertyOp30
 70
     1
102
RTVSPropertyOp31
 70
     1
102
RTVSPropertyOp32
 70
     1
102
RTVSPropertyOp33
 70
     1
102
RTVSPropertyOp34
 70
     1
102
RTVSPropertyOp35
 70
     1
102
RTVSPropertyOp36
 70
     1
102
RTVSPropertyOp37
 70
     1
102
RTVSPropertyOp38
 70
     1
102
RTVSPropertyOp39
 70
     1
102
RTVSPropertyOp40
 70
     1
102
RTVSPropertyOp41
 70
     1
102
RTVSPropertyOp42
 70
     1
102
RTVSPropertyOp43
 70
     1
102
RTVSPropertyOp44
 70
     1
102
RTVSPropertyOp45
 70
     1
102
RTVSPropertyOp46
 70
     1
102
RTVSPropertyOp47
 70
     1
102
RTVSPropertyOp48
 70
     1
102
RTVSPropertyOp49
 70
     1
102
RTVSPropertyOp50
 70
     1
102
RTVSPropertyOp51
 70
     0
102
RTVSPropertyOp52
 70
     0
102
RTVSPropertyOp53
 70
     1
102
RTVSPropertyOp54
 70
     1
102
RTVSPropertyOp55
 70
     1
102
RTVSPropertyOp56
 70
     1
102
RTVSPropertyOp57
 70
     1
102
RTVSPost2010Prop28
280
     0
102
RTVSPost2010PropOp28
 70
     1
102
RTVSPost2010Prop29
280
     1
102
RTVSPost2010PropOp29
 70
     1
102
RTVSPost2010Prop30
280
     1
102
RTVSPost2010PropOp30
 70
     1
102
RTVSPost2010Prop31
280
     0
102
RTVSPost2010PropOp31
 70
     1
102
RTVSPost2010Prop32
280
     0
102
RTVSPost2010PropOp32
 70
     1
102
RTVSPost2010Prop33
280
     0
102
RTVSPost2010PropOp33
 70
     1
102
RTVSPost2010Prop34
280
     0
102
RTVSPost2010PropOp34
 70
     1
102
RTVSPost2010Prop35
280
     0
102
RTVSPost2010PropOp35
 70
     1
102
RTVSPost2010Prop36
280
     0
102
RTVSPost2010PropOp36
 70
     1
102
RTVSPost2010Prop37
 90
       50
102
RTVSPost2010PropOp37
 70
     1
102
RTVSPost2010Prop38
140
0.0
102
RTVSPost2010PropOp38
 70
     1
102
RTVSPost2010Prop39
140
1.0
102
RTVSPost2010PropOp39
 70
     1
102
RTVSPost2010Prop40
 90
        0
102
RTVSPost2010PropOp40
 70
     1
102
RTVSPost2010Prop41ColorIndex
 90
       18
102
RTVSPost2010Prop41ColorRGB
 90
        0
102
RTVSPost2010PropOp41
 70
     1
102
RTVSPost2010Prop42
 90
       50
102
RTVSPost2010PropOp42
 70
     1
102
RTVSPost2010Prop43
 90
        3
102
RTVSPost2010PropOp43
 70
     1
102
RTVSPost2010Prop44ColorIndex
 90
        5
102
RTVSPost2010Prop44ColorRGB
 90
      255
102
RTVSPost2010PropOp44
 70
     1
102
RTVSPost2010Prop45
280
     0
102
RTVSPost2010PropOp45
 70
     1
102
RTVSPost2010Prop46
 90
       50
102
RTVSPost2010PropOp46
 70
     1
102
RTVSPost2010Prop47
 90
       50
102
RTVSPost2010PropOp47
 70
     1
102
RTVSPost2010Prop48
 90
       50
102
RTVSPost2010PropOp48
 70
     1
102
RTVSPost2010Prop49
280
     0
102
RTVSPost2010PropOp49
 70
     1
102
RTVSPost2010Prop50
 90
       50
102
RTVSPost2010PropOp50
 70
     1
102
RTVSPost2010Prop51ColorIndex
 90
      256
102
RTVSPost2010Prop51ColorRGB
 90
-16777216
102
RTVSPost2010PropOp51
 70
     0
102
RTVSPost2010Prop52
140
1.0
102
RTVSPost2010PropOp52
 70
     0
102
RTVSPost2010Prop53
 90
        2
102
RTVSPost2010PropOp53
 70
     1
102
RTVSPost2010Prop54
  1
strokes_ogs.tif
102
RTVSPost2010PropOp54
 70
     1
102
RTVSPost2010Prop55
280
     0
102
RTVSPost2010PropOp55
 70
     1
102
RTVSPost2010Prop56
140
1.0
102
RTVSPost2010PropOp56
 70
     1
102
RTVSPost2010Prop57
140
1.0
102
RTVSPost2010PropOp57
 70
     1
  0
XRECORD
  5
247
102
{ACAD_REACTORS
330
246
102
}
330
246
100
AcDbXrecord
280
     1
102
RTVSPropertyOp0
 70
     1
102
RTVSPropertyOp1
 70
     1
102
RTVSPropertyOp2
 70
     1
102
RTVSPropertyOp3
 70
     1
102
RTVSPropertyOp4
 70
     1
102
RTVSPropertyOp5
 70
     1
102
RTVSPropertyOp6
 70
     1
102
RTVSPropertyOp7
 70
     1
102
RTVSPropertyOp8
 70
     1
102
RTVSPropertyOp9
 70
     1
102
RTVSPropertyOp10
 70
     1
102
RTVSPropertyOp11
 70
     1
102
RTVSPropertyOp12
 70
     1
102
RTVSPropertyOp13
 70
     1
102
RTVSPropertyOp14
 70
     1
102
RTVSPropertyOp15
 70
     1
102
RTVSPropertyOp16
 70
     1
102
RTVSPropertyOp17
 70
     1
102
RTVSPropertyOp18
 70
     1
102
RTVSPropertyOp19
 70
     1
102
RTVSPropertyOp20
 70
     1
102
RTVSPropertyOp21
 70
     1
102
RTVSPropertyOp22
 70
     1
102
RTVSPropertyOp23
 70
     1
102
RTVSPropertyOp24
 70
     1
102
RTVSPropertyOp25
 70
     1
102
RTVSPropertyOp26
 70
     1
102
RTVSPropertyOp27
 70
     1
102
RTVSPropertyOp28
 70
     1
102
RTVSPropertyOp29
 70
     1
102
RTVSPropertyOp30
 70
     1
102
RTVSPropertyOp31
 70
     1
102
RTVSPropertyOp32
 70
     1
102
RTVSPropertyOp33
 70
     1
102
RTVSPropertyOp34
 70
     1
102
RTVSPropertyOp35
 70
     1
102
RTVSPropertyOp36
 70
     1
102
RTVSPropertyOp37
 70
     1
102
RTVSPropertyOp38
 70
     1
102
RTVSPropertyOp39
 70
     1
102
RTVSPropertyOp40
 70
     1
102
RTVSPropertyOp41
 70
     1
102
RTVSPropertyOp42
 70
     1
102
RTVSPropertyOp43
 70
     1
102
RTVSPropertyOp44
 70
     1
102
RTVSPropertyOp45
 70
     1
102
RTVSPropertyOp46
 70
     1
102
RTVSPropertyOp47
 70
     1
102
RTVSPropertyOp48
 70
     1
102
RTVSPropertyOp49
 70
     1
102
RTVSPropertyOp50
 70
     1
102
RTVSPropertyOp51
 70
     0
102
RTVSPropertyOp52
 70
     0
102
RTVSPropertyOp53
 70
     1
102
RTVSPropertyOp54
 70
     1
102
RTVSPropertyOp55
 70
     1
102
RTVSPropertyOp56
 70
     1
102
RTVSPropertyOp57
 70
     1
102
RTVSPost2010Prop28
280
     0
102
RTVSPost2010PropOp28
 70
     1
102
RTVSPost2010Prop29
280
     1
102
RTVSPost2010PropOp29
 70
     1
102
RTVSPost2010Prop30
280
     1
102
RTVSPost2010PropOp30
 70
     1
102
RTVSPost2010Prop31
280
     0
102
RTVSPost2010PropOp31
 70
     1
102
RTVSPost2010Prop32
280
     0
102
RTVSPost2010PropOp32
 70
     1
102
RTVSPost2010Prop33
280
     0
102
RTVSPost2010PropOp33
 70
     1
102
RTVSPost2010Prop34
280
     0
102
RTVSPost2010PropOp34
 70
     1
102
RTVSPost2010Prop35
280
     0
102
RTVSPost2010PropOp35
 70
     1
102
RTVSPost2010Prop36
280
     0
102
RTVSPost2010PropOp36
 70
     1
102
RTVSPost2010Prop37
 90
       50
102
RTVSPost2010PropOp37
 70
     1
102
RTVSPost2010Prop38
140
0.0
102
RTVSPost2010PropOp38
 70
     1
102
RTVSPost2010Prop39
140
1.0
102
RTVSPost2010PropOp39
 70
     1
102
RTVSPost2010Prop40
 90
        0
102
RTVSPost2010PropOp40
 70
     1
102
RTVSPost2010Prop41ColorIndex
 90
       18
102
RTVSPost2010Prop41ColorRGB
 90
        0
102
RTVSPost2010PropOp41
 70
     1
102
RTVSPost2010Prop42
 90
       50
102
RTVSPost2010PropOp42
 70
     1
102
RTVSPost2010Prop43
 90
        3
102
RTVSPost2010PropOp43
 70
     1
102
RTVSPost2010Prop44ColorIndex
 90
        5
102
RTVSPost2010Prop44ColorRGB
 90
      255
102
RTVSPost2010PropOp44
 70
     1
102
RTVSPost2010Prop45
280
     0
102
RTVSPost2010PropOp45
 70
     1
102
RTVSPost2010Prop46
 90
       50
102
RTVSPost2010PropOp46
 70
     1
102
RTVSPost2010Prop47
 90
       50
102
RTVSPost2010PropOp47
 70
     1
102
RTVSPost2010Prop48
 90
       50
102
RTVSPost2010PropOp48
 70
     1
102
RTVSPost2010Prop49
280
     0
102
RTVSPost2010PropOp49
 70
     1
102
RTVSPost2010Prop50
 90
       50
102
RTVSPost2010PropOp50
 70
     1
102
RTVSPost2010Prop51ColorIndex
 90
      256
102
RTVSPost2010Prop51ColorRGB
 90
-16777216
102
RTVSPost2010PropOp51
 70
     0
102
RTVSPost2010Prop52
140
1.0
102
RTVSPost2010PropOp52
 70
     0
102
RTVSPost2010Prop53
 90
        2
102
RTVSPost2010PropOp53
 70
     1
102
RTVSPost2010Prop54
  1
strokes_ogs.tif
102
RTVSPost2010PropOp54
 70
     1
102
RTVSPost2010Prop55
280
     0
102
RTVSPost2010PropOp55
 70
     1
102
RTVSPost2010Prop56
140
1.0
102
RTVSPost2010PropOp56
 70
     1
102
RTVSPost2010Prop57
140
1.0
102
RTVSPost2010PropOp57
 70
     1
  0
XRECORD
  5
245
102
{ACAD_REACTORS
330
244
102
}
330
244
100
AcDbXrecord
280
     1
102
RTVSPropertyOp0
 70
     1
102
RTVSPropertyOp1
 70
     1
102
RTVSPropertyOp2
 70
     1
102
RTVSPropertyOp3
 70
     1
102
RTVSPropertyOp4
 70
     1
102
RTVSPropertyOp5
 70
     1
102
RTVSPropertyOp6
 70
     1
102
RTVSPropertyOp7
 70
     1
102
RTVSPropertyOp8
 70
     1
102
RTVSPropertyOp9
 70
     1
102
RTVSPropertyOp10
 70
     1
102
RTVSPropertyOp11
 70
     1
102
RTVSPropertyOp12
 70
     1
102
RTVSPropertyOp13
 70
     1
102
RTVSPropertyOp14
 70
     1
102
RTVSPropertyOp15
 70
     1
102
RTVSPropertyOp16
 70
     1
102
RTVSPropertyOp17
 70
     1
102
RTVSPropertyOp18
 70
     1
102
RTVSPropertyOp19
 70
     1
102
RTVSPropertyOp20
 70
     1
102
RTVSPropertyOp21
 70
     1
102
RTVSPropertyOp22
 70
     1
102
RTVSPropertyOp23
 70
     1
102
RTVSPropertyOp24
 70
     1
102
RTVSPropertyOp25
 70
     1
102
RTVSPropertyOp26
 70
     1
102
RTVSPropertyOp27
 70
     1
102
RTVSPropertyOp28
 70
     1
102
RTVSPropertyOp29
 70
     1
102
RTVSPropertyOp30
 70
     1
102
RTVSPropertyOp31
 70
     1
102
RTVSPropertyOp32
 70
     1
102
RTVSPropertyOp33
 70
     1
102
RTVSPropertyOp34
 70
     1
102
RTVSPropertyOp35
 70
     1
102
RTVSPropertyOp36
 70
     1
102
RTVSPropertyOp37
 70
     1
102
RTVSPropertyOp38
 70
     1
102
RTVSPropertyOp39
 70
     1
102
RTVSPropertyOp40
 70
     1
102
RTVSPropertyOp41
 70
     1
102
RTVSPropertyOp42
 70
     1
102
RTVSPropertyOp43
 70
     1
102
RTVSPropertyOp44
 70
     1
102
RTVSPropertyOp45
 70
     1
102
RTVSPropertyOp46
 70
     1
102
RTVSPropertyOp47
 70
     1
102
RTVSPropertyOp48
 70
     1
102
RTVSPropertyOp49
 70
     1
102
RTVSPropertyOp50
 70
     1
102
RTVSPropertyOp51
 70
     0
102
RTVSPropertyOp52
 70
     0
102
RTVSPropertyOp53
 70
     1
102
RTVSPropertyOp54
 70
     1
102
RTVSPropertyOp55
 70
     1
102
RTVSPropertyOp56
 70
     1
102
RTVSPropertyOp57
 70
     1
102
RTVSPost2010Prop28
280
     0
102
RTVSPost2010PropOp28
 70
     1
102
RTVSPost2010Prop29
280
     1
102
RTVSPost2010PropOp29
 70
     1
102
RTVSPost2010Prop30
280
     1
102
RTVSPost2010PropOp30
 70
     1
102
RTVSPost2010Prop31
280
     0
102
RTVSPost2010PropOp31
 70
     1
102
RTVSPost2010Prop32
280
     0
102
RTVSPost2010PropOp32
 70
     1
102
RTVSPost2010Prop33
280
     0
102
RTVSPost2010PropOp33
 70
     1
102
RTVSPost2010Prop34
280
     0
102
RTVSPost2010PropOp34
 70
     1
102
RTVSPost2010Prop35
280
     0
102
RTVSPost2010PropOp35
 70
     1
102
RTVSPost2010Prop36
280
     0
102
RTVSPost2010PropOp36
 70
     1
102
RTVSPost2010Prop37
 90
       50
102
RTVSPost2010PropOp37
 70
     1
102
RTVSPost2010Prop38
140
0.0
102
RTVSPost2010PropOp38
 70
     1
102
RTVSPost2010Prop39
140
1.0
102
RTVSPost2010PropOp39
 70
     1
102
RTVSPost2010Prop40
 90
        0
102
RTVSPost2010PropOp40
 70
     1
102
RTVSPost2010Prop41ColorIndex
 90
       18
102
RTVSPost2010Prop41ColorRGB
 90
        0
102
RTVSPost2010PropOp41
 70
     1
102
RTVSPost2010Prop42
 90
       50
102
RTVSPost2010PropOp42
 70
     1
102
RTVSPost2010Prop43
 90
        3
102
RTVSPost2010PropOp43
 70
     1
102
RTVSPost2010Prop44ColorIndex
 90
        5
102
RTVSPost2010Prop44ColorRGB
 90
      255
102
RTVSPost2010PropOp44
 70
     1
102
RTVSPost2010Prop45
280
     0
102
RTVSPost2010PropOp45
 70
     1
102
RTVSPost2010Prop46
 90
       50
102
RTVSPost2010PropOp46
 70
     1
102
RTVSPost2010Prop47
 90
       50
102
RTVSPost2010PropOp47
 70
     1
102
RTVSPost2010Prop48
 90
       50
102
RTVSPost2010PropOp48
 70
     1
102
RTVSPost2010Prop49
280
     0
102
RTVSPost2010PropOp49
 70
     1
102
RTVSPost2010Prop50
 90
       50
102
RTVSPost2010PropOp50
 70
     1
102
RTVSPost2010Prop51ColorIndex
 90
      256
102
RTVSPost2010Prop51ColorRGB
 90
-16777216
102
RTVSPost2010PropOp51
 70
     0
102
RTVSPost2010Prop52
140
1.0
102
RTVSPost2010PropOp52
 70
     0
102
RTVSPost2010Prop53
 90
        2
102
RTVSPost2010PropOp53
 70
     1
102
RTVSPost2010Prop54
  1
strokes_ogs.tif
102
RTVSPost2010PropOp54
 70
     1
102
RTVSPost2010Prop55
280
     0
102
RTVSPost2010PropOp55
 70
     1
102
RTVSPost2010Prop56
140
1.0
102
RTVSPost2010PropOp56
 70
     1
102
RTVSPost2010Prop57
140
1.0
102
RTVSPost2010PropOp57
 70
     1
  0
XRECORD
  5
23F
102
{ACAD_REACTORS
330
23E
102
}
330
23E
100
AcDbXrecord
280
     1
102
RTVSPropertyOp0
 70
     1
102
RTVSPropertyOp1
 70
     1
102
RTVSPropertyOp2
 70
     1
102
RTVSPropertyOp3
 70
     1
102
RTVSPropertyOp4
 70
     1
102
RTVSPropertyOp5
 70
     1
102
RTVSPropertyOp6
 70
     1
102
RTVSPropertyOp7
 70
     1
102
RTVSPropertyOp8
 70
     1
102
RTVSPropertyOp9
 70
     1
102
RTVSPropertyOp10
 70
     1
102
RTVSPropertyOp11
 70
     1
102
RTVSPropertyOp12
 70
     1
102
RTVSPropertyOp13
 70
     1
102
RTVSPropertyOp14
 70
     1
102
RTVSPropertyOp15
 70
     1
102
RTVSPropertyOp16
 70
     1
102
RTVSPropertyOp17
 70
     1
102
RTVSPropertyOp18
 70
     1
102
RTVSPropertyOp19
 70
     1
102
RTVSPropertyOp20
 70
     1
102
RTVSPropertyOp21
 70
     1
102
RTVSPropertyOp22
 70
     1
102
RTVSPropertyOp23
 70
     1
102
RTVSPropertyOp24
 70
     1
102
RTVSPropertyOp25
 70
     1
102
RTVSPropertyOp26
 70
     1
102
RTVSPropertyOp27
 70
     1
102
RTVSPropertyOp28
 70
     1
102
RTVSPropertyOp29
 70
     1
102
RTVSPropertyOp30
 70
     1
102
RTVSPropertyOp31
 70
     1
102
RTVSPropertyOp32
 70
     1
102
RTVSPropertyOp33
 70
     1
102
RTVSPropertyOp34
 70
     1
102
RTVSPropertyOp35
 70
     1
102
RTVSPropertyOp36
 70
     1
102
RTVSPropertyOp37
 70
     1
102
RTVSPropertyOp38
 70
     1
102
RTVSPropertyOp39
 70
     1
102
RTVSPropertyOp40
 70
     1
102
RTVSPropertyOp41
 70
     1
102
RTVSPropertyOp42
 70
     1
102
RTVSPropertyOp43
 70
     1
102
RTVSPropertyOp44
 70
     1
102
RTVSPropertyOp45
 70
     1
102
RTVSPropertyOp46
 70
     1
102
RTVSPropertyOp47
 70
     1
102
RTVSPropertyOp48
 70
     1
102
RTVSPropertyOp49
 70
     1
102
RTVSPropertyOp50
 70
     1
102
RTVSPropertyOp51
 70
     0
102
RTVSPropertyOp52
 70
     0
102
RTVSPropertyOp53
 70
     1
102
RTVSPropertyOp54
 70
     1
102
RTVSPropertyOp55
 70
     1
102
RTVSPropertyOp56
 70
     1
102
RTVSPropertyOp57
 70
     1
102
RTVSPost2010Prop28
280
     0
102
RTVSPost2010PropOp28
 70
     1
102
RTVSPost2010Prop29
280
     1
102
RTVSPost2010PropOp29
 70
     1
102
RTVSPost2010Prop30
280
     1
102
RTVSPost2010PropOp30
 70
     1
102
RTVSPost2010Prop31
280
     0
102
RTVSPost2010PropOp31
 70
     1
102
RTVSPost2010Prop32
280
     0
102
RTVSPost2010PropOp32
 70
     1
102
RTVSPost2010Prop33
280
     0
102
RTVSPost2010PropOp33
 70
     1
102
RTVSPost2010Prop34
280
     0
102
RTVSPost2010PropOp34
 70
     1
102
RTVSPost2010Prop35
280
     0
102
RTVSPost2010PropOp35
 70
     1
102
RTVSPost2010Prop36
280
     0
102
RTVSPost2010PropOp36
 70
     1
102
RTVSPost2010Prop37
 90
       50
102
RTVSPost2010PropOp37
 70
     1
102
RTVSPost2010Prop38
140
0.0
102
RTVSPost2010PropOp38
 70
     1
102
RTVSPost2010Prop39
140
1.0
102
RTVSPost2010PropOp39
 70
     1
102
RTVSPost2010Prop40
 90
        0
102
RTVSPost2010PropOp40
 70
     1
102
RTVSPost2010Prop41ColorIndex
 90
       18
102
RTVSPost2010Prop41ColorRGB
 90
        0
102
RTVSPost2010PropOp41
 70
     1
102
RTVSPost2010Prop42
 90
       50
102
RTVSPost2010PropOp42
 70
     1
102
RTVSPost2010Prop43
 90
        3
102
RTVSPost2010PropOp43
 70
     1
102
RTVSPost2010Prop44ColorIndex
 90
        5
102
RTVSPost2010Prop44ColorRGB
 90
      255
102
RTVSPost2010PropOp44
 70
     1
102
RTVSPost2010Prop45
280
     0
102
RTVSPost2010PropOp45
 70
     1
102
RTVSPost2010Prop46
 90
       50
102
RTVSPost2010PropOp46
 70
     1
102
RTVSPost2010Prop47
 90
       50
102
RTVSPost2010PropOp47
 70
     1
102
RTVSPost2010Prop48
 90
       50
102
RTVSPost2010PropOp48
 70
     1
102
RTVSPost2010Prop49
280
     0
102
RTVSPost2010PropOp49
 70
     1
102
RTVSPost2010Prop50
 90
       50
102
RTVSPost2010PropOp50
 70
     1
102
RTVSPost2010Prop51ColorIndex
 90
      256
102
RTVSPost2010Prop51ColorRGB
 90
-16777216
102
RTVSPost2010PropOp51
 70
     0
102
RTVSPost2010Prop52
140
1.0
102
RTVSPost2010PropOp52
 70
     0
102
RTVSPost2010Prop53
 90
        2
102
RTVSPost2010PropOp53
 70
     1
102
RTVSPost2010Prop54
  1
strokes_ogs.tif
102
RTVSPost2010PropOp54
 70
     1
102
RTVSPost2010Prop55
280
     0
102
RTVSPost2010PropOp55
 70
     1
102
RTVSPost2010Prop56
140
1.0
102
RTVSPost2010PropOp56
 70
     1
102
RTVSPost2010Prop57
140
1.0
102
RTVSPost2010PropOp57
 70
     1
  0
XRECORD
  5
241
102
{ACAD_REACTORS
330
240
102
}
330
240
100
AcDbXrecord
280
     1
102
RTVSPropertyOp0
 70
     1
102
RTVSPropertyOp1
 70
     1
102
RTVSPropertyOp2
 70
     1
102
RTVSPropertyOp3
 70
     1
102
RTVSPropertyOp4
 70
     1
102
RTVSPropertyOp5
 70
     1
102
RTVSPropertyOp6
 70
     1
102
RTVSPropertyOp7
 70
     1
102
RTVSPropertyOp8
 70
     1
102
RTVSPropertyOp9
 70
     1
102
RTVSPropertyOp10
 70
     1
102
RTVSPropertyOp11
 70
     1
102
RTVSPropertyOp12
 70
     1
102
RTVSPropertyOp13
 70
     1
102
RTVSPropertyOp14
 70
     1
102
RTVSPropertyOp15
 70
     1
102
RTVSPropertyOp16
 70
     1
102
RTVSPropertyOp17
 70
     1
102
RTVSPropertyOp18
 70
     1
102
RTVSPropertyOp19
 70
     1
102
RTVSPropertyOp20
 70
     1
102
RTVSPropertyOp21
 70
     1
102
RTVSPropertyOp22
 70
     1
102
RTVSPropertyOp23
 70
     1
102
RTVSPropertyOp24
 70
     1
102
RTVSPropertyOp25
 70
     1
102
RTVSPropertyOp26
 70
     1
102
RTVSPropertyOp27
 70
     1
102
RTVSPropertyOp28
 70
     1
102
RTVSPropertyOp29
 70
     1
102
RTVSPropertyOp30
 70
     1
102
RTVSPropertyOp31
 70
     1
102
RTVSPropertyOp32
 70
     1
102
RTVSPropertyOp33
 70
     1
102
RTVSPropertyOp34
 70
     1
102
RTVSPropertyOp35
 70
     1
102
RTVSPropertyOp36
 70
     1
102
RTVSPropertyOp37
 70
     1
102
RTVSPropertyOp38
 70
     1
102
RTVSPropertyOp39
 70
     1
102
RTVSPropertyOp40
 70
     1
102
RTVSPropertyOp41
 70
     1
102
RTVSPropertyOp42
 70
     1
102
RTVSPropertyOp43
 70
     1
102
RTVSPropertyOp44
 70
     1
102
RTVSPropertyOp45
 70
     1
102
RTVSPropertyOp46
 70
     1
102
RTVSPropertyOp47
 70
     1
102
RTVSPropertyOp48
 70
     1
102
RTVSPropertyOp49
 70
     1
102
RTVSPropertyOp50
 70
     1
102
RTVSPropertyOp51
 70
     0
102
RTVSPropertyOp52
 70
     0
102
RTVSPropertyOp53
 70
     1
102
RTVSPropertyOp54
 70
     1
102
RTVSPropertyOp55
 70
     1
102
RTVSPropertyOp56
 70
     1
102
RTVSPropertyOp57
 70
     1
102
RTVSPost2010Prop28
280
     0
102
RTVSPost2010PropOp28
 70
     1
102
RTVSPost2010Prop29
280
     1
102
RTVSPost2010PropOp29
 70
     1
102
RTVSPost2010Prop30
280
     1
102
RTVSPost2010PropOp30
 70
     1
102
RTVSPost2010Prop31
280
     0
102
RTVSPost2010PropOp31
 70
     1
102
RTVSPost2010Prop32
280
     0
102
RTVSPost2010PropOp32
 70
     1
102
RTVSPost2010Prop33
280
     0
102
RTVSPost2010PropOp33
 70
     1
102
RTVSPost2010Prop34
280
     0
102
RTVSPost2010PropOp34
 70
     1
102
RTVSPost2010Prop35
280
     0
102
RTVSPost2010PropOp35
 70
     1
102
RTVSPost2010Prop36
280
     0
102
RTVSPost2010PropOp36
 70
     1
102
RTVSPost2010Prop37
 90
       50
102
RTVSPost2010PropOp37
 70
     1
102
RTVSPost2010Prop38
140
0.0
102
RTVSPost2010PropOp38
 70
     1
102
RTVSPost2010Prop39
140
1.0
102
RTVSPost2010PropOp39
 70
     1
102
RTVSPost2010Prop40
 90
        0
102
RTVSPost2010PropOp40
 70
     1
102
RTVSPost2010Prop41ColorIndex
 90
       18
102
RTVSPost2010Prop41ColorRGB
 90
        0
102
RTVSPost2010PropOp41
 70
     1
102
RTVSPost2010Prop42
 90
       50
102
RTVSPost2010PropOp42
 70
     1
102
RTVSPost2010Prop43
 90
        3
102
RTVSPost2010PropOp43
 70
     1
102
RTVSPost2010Prop44ColorIndex
 90
        5
102
RTVSPost2010Prop44ColorRGB
 90
      255
102
RTVSPost2010PropOp44
 70
     1
102
RTVSPost2010Prop45
280
     0
102
RTVSPost2010PropOp45
 70
     1
102
RTVSPost2010Prop46
 90
       50
102
RTVSPost2010PropOp46
 70
     1
102
RTVSPost2010Prop47
 90
       50
102
RTVSPost2010PropOp47
 70
     1
102
RTVSPost2010Prop48
 90
       50
102
RTVSPost2010PropOp48
 70
     1
102
RTVSPost2010Prop49
280
     0
102
RTVSPost2010PropOp49
 70
     1
102
RTVSPost2010Prop50
 90
       50
102
RTVSPost2010PropOp50
 70
     1
102
RTVSPost2010Prop51ColorIndex
 90
      256
102
RTVSPost2010Prop51ColorRGB
 90
-16777216
102
RTVSPost2010PropOp51
 70
     0
102
RTVSPost2010Prop52
140
1.0
102
RTVSPost2010PropOp52
 70
     0
102
RTVSPost2010Prop53
 90
        2
102
RTVSPost2010PropOp53
 70
     1
102
RTVSPost2010Prop54
  1
strokes_ogs.tif
102
RTVSPost2010PropOp54
 70
     1
102
RTVSPost2010Prop55
280
     0
102
RTVSPost2010PropOp55
 70
     1
102
RTVSPost2010Prop56
140
1.0
102
RTVSPost2010PropOp56
 70
     1
102
RTVSPost2010Prop57
140
1.0
102
RTVSPost2010PropOp57
 70
     1
  0
XRECORD
  5
231
102
{ACAD_REACTORS
330
230
102
}
330
230
100
AcDbXrecord
280
     1
102
RTVSPropertyOp0
 70
     1
102
RTVSPropertyOp1
 70
     1
102
RTVSPropertyOp2
 70
     1
102
RTVSPropertyOp3
 70
     1
102
RTVSPropertyOp4
 70
     1
102
RTVSPropertyOp5
 70
     1
102
RTVSPropertyOp6
 70
     1
102
RTVSPropertyOp7
 70
     1
102
RTVSPropertyOp8
 70
     1
102
RTVSPropertyOp9
 70
     1
102
RTVSPropertyOp10
 70
     1
102
RTVSPropertyOp11
 70
     1
102
RTVSPropertyOp12
 70
     1
102
RTVSPropertyOp13
 70
     1
102
RTVSPropertyOp14
 70
     1
102
RTVSPropertyOp15
 70
     1
102
RTVSPropertyOp16
 70
     1
102
RTVSPropertyOp17
 70
     1
102
RTVSPropertyOp18
 70
     1
102
RTVSPropertyOp19
 70
     1
102
RTVSPropertyOp20
 70
     1
102
RTVSPropertyOp21
 70
     1
102
RTVSPropertyOp22
 70
     1
102
RTVSPropertyOp23
 70
     1
102
RTVSPropertyOp24
 70
     1
102
RTVSPropertyOp25
 70
     1
102
RTVSPropertyOp26
 70
     1
102
RTVSPropertyOp27
 70
     1
102
RTVSPropertyOp28
 70
     1
102
RTVSPropertyOp29
 70
     1
102
RTVSPropertyOp30
 70
     1
102
RTVSPropertyOp31
 70
     1
102
RTVSPropertyOp32
 70
     1
102
RTVSPropertyOp33
 70
     1
102
RTVSPropertyOp34
 70
     1
102
RTVSPropertyOp35
 70
     1
102
RTVSPropertyOp36
 70
     1
102
RTVSPropertyOp37
 70
     1
102
RTVSPropertyOp38
 70
     1
102
RTVSPropertyOp39
 70
     1
102
RTVSPropertyOp40
 70
     1
102
RTVSPropertyOp41
 70
     1
102
RTVSPropertyOp42
 70
     1
102
RTVSPropertyOp43
 70
     1
102
RTVSPropertyOp44
 70
     1
102
RTVSPropertyOp45
 70
     1
102
RTVSPropertyOp46
 70
     1
102
RTVSPropertyOp47
 70
     1
102
RTVSPropertyOp48
 70
     1
102
RTVSPropertyOp49
 70
     1
102
RTVSPropertyOp50
 70
     1
102
RTVSPropertyOp51
 70
     0
102
RTVSPropertyOp52
 70
     0
102
RTVSPropertyOp53
 70
     1
102
RTVSPropertyOp54
 70
     1
102
RTVSPropertyOp55
 70
     1
102
RTVSPropertyOp56
 70
     1
102
RTVSPropertyOp57
 70
     1
102
RTVSPost2010Prop28
280
     0
102
RTVSPost2010PropOp28
 70
     1
102
RTVSPost2010Prop29
280
     1
102
RTVSPost2010PropOp29
 70
     1
102
RTVSPost2010Prop30
280
     1
102
RTVSPost2010PropOp30
 70
     1
102
RTVSPost2010Prop31
280
     0
102
RTVSPost2010PropOp31
 70
     1
102
RTVSPost2010Prop32
280
     0
102
RTVSPost2010PropOp32
 70
     1
102
RTVSPost2010Prop33
280
     0
102
RTVSPost2010PropOp33
 70
     1
102
RTVSPost2010Prop34
280
     0
102
RTVSPost2010PropOp34
 70
     1
102
RTVSPost2010Prop35
280
     0
102
RTVSPost2010PropOp35
 70
     1
102
RTVSPost2010Prop36
280
     0
102
RTVSPost2010PropOp36
 70
     1
102
RTVSPost2010Prop37
 90
       50
102
RTVSPost2010PropOp37
 70
     1
102
RTVSPost2010Prop38
140
0.0
102
RTVSPost2010PropOp38
 70
     1
102
RTVSPost2010Prop39
140
1.0
102
RTVSPost2010PropOp39
 70
     1
102
RTVSPost2010Prop40
 90
        0
102
RTVSPost2010PropOp40
 70
     1
102
RTVSPost2010Prop41ColorIndex
 90
       18
102
RTVSPost2010Prop41ColorRGB
 90
        0
102
RTVSPost2010PropOp41
 70
     1
102
RTVSPost2010Prop42
 90
       50
102
RTVSPost2010PropOp42
 70
     1
102
RTVSPost2010Prop43
 90
        3
102
RTVSPost2010PropOp43
 70
     1
102
RTVSPost2010Prop44ColorIndex
 90
        5
102
RTVSPost2010Prop44ColorRGB
 90
      255
102
RTVSPost2010PropOp44
 70
     1
102
RTVSPost2010Prop45
280
     0
102
RTVSPost2010PropOp45
 70
     1
102
RTVSPost2010Prop46
 90
       50
102
RTVSPost2010PropOp46
 70
     1
102
RTVSPost2010Prop47
 90
       50
102
RTVSPost2010PropOp47
 70
     1
102
RTVSPost2010Prop48
 90
       50
102
RTVSPost2010PropOp48
 70
     1
102
RTVSPost2010Prop49
280
     0
102
RTVSPost2010PropOp49
 70
     1
102
RTVSPost2010Prop50
 90
       50
102
RTVSPost2010PropOp50
 70
     1
102
RTVSPost2010Prop51ColorIndex
 90
      256
102
RTVSPost2010Prop51ColorRGB
 90
-16777216
102
RTVSPost2010PropOp51
 70
     0
102
RTVSPost2010Prop52
140
1.0
102
RTVSPost2010PropOp52
 70
     0
102
RTVSPost2010Prop53
 90
        2
102
RTVSPost2010PropOp53
 70
     1
102
RTVSPost2010Prop54
  1
strokes_ogs.tif
102
RTVSPost2010PropOp54
 70
     1
102
RTVSPost2010Prop55
280
     0
102
RTVSPost2010PropOp55
 70
     1
102
RTVSPost2010Prop56
140
1.0
102
RTVSPost2010PropOp56
 70
     1
102
RTVSPost2010Prop57
140
1.0
102
RTVSPost2010PropOp57
 70
     1
  0
XRECORD
  5
223
102
{ACAD_REACTORS
330
222
102
}
330
222
100
AcDbXrecord
280
     1
102
RTVSPropertyOp0
 70
     1
102
RTVSPropertyOp1
 70
     1
102
RTVSPropertyOp2
 70
     1
102
RTVSPropertyOp3
 70
     1
102
RTVSPropertyOp4
 70
     1
102
RTVSPropertyOp5
 70
     1
102
RTVSPropertyOp6
 70
     1
102
RTVSPropertyOp7
 70
     1
102
RTVSPropertyOp8
 70
     1
102
RTVSPropertyOp9
 70
     1
102
RTVSPropertyOp10
 70
     1
102
RTVSPropertyOp11
 70
     1
102
RTVSPropertyOp12
 70
     1
102
RTVSPropertyOp13
 70
     1
102
RTVSPropertyOp14
 70
     1
102
RTVSPropertyOp15
 70
     1
102
RTVSPropertyOp16
 70
     1
102
RTVSPropertyOp17
 70
     1
102
RTVSPropertyOp18
 70
     1
102
RTVSPropertyOp19
 70
     1
102
RTVSPropertyOp20
 70
     1
102
RTVSPropertyOp21
 70
     1
102
RTVSPropertyOp22
 70
     1
102
RTVSPropertyOp23
 70
     1
102
RTVSPropertyOp24
 70
     1
102
RTVSPropertyOp25
 70
     1
102
RTVSPropertyOp26
 70
     1
102
RTVSPropertyOp27
 70
     1
102
RTVSPropertyOp28
 70
     1
102
RTVSPropertyOp29
 70
     1
102
RTVSPropertyOp30
 70
     1
102
RTVSPropertyOp31
 70
     1
102
RTVSPropertyOp32
 70
     1
102
RTVSPropertyOp33
 70
     1
102
RTVSPropertyOp34
 70
     1
102
RTVSPropertyOp35
 70
     1
102
RTVSPropertyOp36
 70
     1
102
RTVSPropertyOp37
 70
     1
102
RTVSPropertyOp38
 70
     1
102
RTVSPropertyOp39
 70
     1
102
RTVSPropertyOp40
 70
     1
102
RTVSPropertyOp41
 70
     1
102
RTVSPropertyOp42
 70
     1
102
RTVSPropertyOp43
 70
     1
102
RTVSPropertyOp44
 70
     1
102
RTVSPropertyOp45
 70
     1
102
RTVSPropertyOp46
 70
     1
102
RTVSPropertyOp47
 70
     1
102
RTVSPropertyOp48
 70
     1
102
RTVSPropertyOp49
 70
     1
102
RTVSPropertyOp50
 70
     1
102
RTVSPropertyOp51
 70
     0
102
RTVSPropertyOp52
 70
     0
102
RTVSPropertyOp53
 70
     1
102
RTVSPropertyOp54
 70
     1
102
RTVSPropertyOp55
 70
     1
102
RTVSPropertyOp56
 70
     1
102
RTVSPropertyOp57
 70
     1
102
RTVSPost2010Prop28
280
     0
102
RTVSPost2010PropOp28
 70
     1
102
RTVSPost2010Prop29
280
     1
102
RTVSPost2010PropOp29
 70
     1
102
RTVSPost2010Prop30
280
     1
102
RTVSPost2010PropOp30
 70
     1
102
RTVSPost2010Prop31
280
     0
102
RTVSPost2010PropOp31
 70
     1
102
RTVSPost2010Prop32
280
     0
102
RTVSPost2010PropOp32
 70
     1
102
RTVSPost2010Prop33
280
     0
102
RTVSPost2010PropOp33
 70
     1
102
RTVSPost2010Prop34
280
     0
102
RTVSPost2010PropOp34
 70
     1
102
RTVSPost2010Prop35
280
     0
102
RTVSPost2010PropOp35
 70
     1
102
RTVSPost2010Prop36
280
     0
102
RTVSPost2010PropOp36
 70
     1
102
RTVSPost2010Prop37
 90
       50
102
RTVSPost2010PropOp37
 70
     1
102
RTVSPost2010Prop38
140
0.0
102
RTVSPost2010PropOp38
 70
     1
102
RTVSPost2010Prop39
140
1.0
102
RTVSPost2010PropOp39
 70
     1
102
RTVSPost2010Prop40
 90
        0
102
RTVSPost2010PropOp40
 70
     1
102
RTVSPost2010Prop41ColorIndex
 90
       18
102
RTVSPost2010Prop41ColorRGB
 90
        0
102
RTVSPost2010PropOp41
 70
     1
102
RTVSPost2010Prop42
 90
       50
102
RTVSPost2010PropOp42
 70
     1
102
RTVSPost2010Prop43
 90
        3
102
RTVSPost2010PropOp43
 70
     1
102
RTVSPost2010Prop44ColorIndex
 90
        5
102
RTVSPost2010Prop44ColorRGB
 90
      255
102
RTVSPost2010PropOp44
 70
     1
102
RTVSPost2010Prop45
280
     0
102
RTVSPost2010PropOp45
 70
     1
102
RTVSPost2010Prop46
 90
       50
102
RTVSPost2010PropOp46
 70
     1
102
RTVSPost2010Prop47
 90
       50
102
RTVSPost2010PropOp47
 70
     1
102
RTVSPost2010Prop48
 90
       50
102
RTVSPost2010PropOp48
 70
     1
102
RTVSPost2010Prop49
280
     0
102
RTVSPost2010PropOp49
 70
     1
102
RTVSPost2010Prop50
 90
       50
102
RTVSPost2010PropOp50
 70
     1
102
RTVSPost2010Prop51ColorIndex
 90
      256
102
RTVSPost2010Prop51ColorRGB
 90
-16777216
102
RTVSPost2010PropOp51
 70
     0
102
RTVSPost2010Prop52
140
1.0
102
RTVSPost2010PropOp52
 70
     0
102
RTVSPost2010Prop53
 90
        2
102
RTVSPost2010PropOp53
 70
     1
102
RTVSPost2010Prop54
  1
strokes_ogs.tif
102
RTVSPost2010PropOp54
 70
     1
102
RTVSPost2010Prop55
280
     0
102
RTVSPost2010PropOp55
 70
     1
102
RTVSPost2010Prop56
140
1.0
102
RTVSPost2010PropOp56
 70
     1
102
RTVSPost2010Prop57
140
1.0
102
RTVSPost2010PropOp57
 70
     1
  0
XRECORD
  5
243
102
{ACAD_REACTORS
330
242
102
}
330
242
100
AcDbXrecord
280
     1
102
RTVSPropertyOp0
 70
     1
102
RTVSPropertyOp1
 70
     1
102
RTVSPropertyOp2
 70
     1
102
RTVSPropertyOp3
 70
     1
102
RTVSPropertyOp4
 70
     1
102
RTVSPropertyOp5
 70
     1
102
RTVSPropertyOp6
 70
     1
102
RTVSPropertyOp7
 70
     1
102
RTVSPropertyOp8
 70
     1
102
RTVSPropertyOp9
 70
     1
102
RTVSPropertyOp10
 70
     1
102
RTVSPropertyOp11
 70
     1
102
RTVSPropertyOp12
 70
     1
102
RTVSPropertyOp13
 70
     1
102
RTVSPropertyOp14
 70
     1
102
RTVSPropertyOp15
 70
     1
102
RTVSPropertyOp16
 70
     1
102
RTVSPropertyOp17
 70
     1
102
RTVSPropertyOp18
 70
     1
102
RTVSPropertyOp19
 70
     1
102
RTVSPropertyOp20
 70
     1
102
RTVSPropertyOp21
 70
     1
102
RTVSPropertyOp22
 70
     1
102
RTVSPropertyOp23
 70
     1
102
RTVSPropertyOp24
 70
     1
102
RTVSPropertyOp25
 70
     1
102
RTVSPropertyOp26
 70
     1
102
RTVSPropertyOp27
 70
     1
102
RTVSPropertyOp28
 70
     1
102
RTVSPropertyOp29
 70
     1
102
RTVSPropertyOp30
 70
     1
102
RTVSPropertyOp31
 70
     1
102
RTVSPropertyOp32
 70
     1
102
RTVSPropertyOp33
 70
     1
102
RTVSPropertyOp34
 70
     1
102
RTVSPropertyOp35
 70
     1
102
RTVSPropertyOp36
 70
     1
102
RTVSPropertyOp37
 70
     1
102
RTVSPropertyOp38
 70
     1
102
RTVSPropertyOp39
 70
     1
102
RTVSPropertyOp40
 70
     1
102
RTVSPropertyOp41
 70
     1
102
RTVSPropertyOp42
 70
     1
102
RTVSPropertyOp43
 70
     1
102
RTVSPropertyOp44
 70
     1
102
RTVSPropertyOp45
 70
     1
102
RTVSPropertyOp46
 70
     1
102
RTVSPropertyOp47
 70
     1
102
RTVSPropertyOp48
 70
     1
102
RTVSPropertyOp49
 70
     1
102
RTVSPropertyOp50
 70
     1
102
RTVSPropertyOp51
 70
     0
102
RTVSPropertyOp52
 70
     0
102
RTVSPropertyOp53
 70
     1
102
RTVSPropertyOp54
 70
     1
102
RTVSPropertyOp55
 70
     1
102
RTVSPropertyOp56
 70
     1
102
RTVSPropertyOp57
 70
     1
102
RTVSPost2010Prop28
280
     0
102
RTVSPost2010PropOp28
 70
     1
102
RTVSPost2010Prop29
280
     1
102
RTVSPost2010PropOp29
 70
     1
102
RTVSPost2010Prop30
280
     1
102
RTVSPost2010PropOp30
 70
     1
102
RTVSPost2010Prop31
280
     0
102
RTVSPost2010PropOp31
 70
     1
102
RTVSPost2010Prop32
280
     0
102
RTVSPost2010PropOp32
 70
     1
102
RTVSPost2010Prop33
280
     0
102
RTVSPost2010PropOp33
 70
     1
102
RTVSPost2010Prop34
280
     0
102
RTVSPost2010PropOp34
 70
     1
102
RTVSPost2010Prop35
280
     0
102
RTVSPost2010PropOp35
 70
     1
102
RTVSPost2010Prop36
280
     0
102
RTVSPost2010PropOp36
 70
     1
102
RTVSPost2010Prop37
 90
       50
102
RTVSPost2010PropOp37
 70
     1
102
RTVSPost2010Prop38
140
0.0
102
RTVSPost2010PropOp38
 70
     1
102
RTVSPost2010Prop39
140
1.0
102
RTVSPost2010PropOp39
 70
     1
102
RTVSPost2010Prop40
 90
        0
102
RTVSPost2010PropOp40
 70
     1
102
RTVSPost2010Prop41ColorIndex
 90
       18
102
RTVSPost2010Prop41ColorRGB
 90
        0
102
RTVSPost2010PropOp41
 70
     1
102
RTVSPost2010Prop42
 90
       50
102
RTVSPost2010PropOp42
 70
     1
102
RTVSPost2010Prop43
 90
        3
102
RTVSPost2010PropOp43
 70
     1
102
RTVSPost2010Prop44ColorIndex
 90
        5
102
RTVSPost2010Prop44ColorRGB
 90
      255
102
RTVSPost2010PropOp44
 70
     1
102
RTVSPost2010Prop45
280
     0
102
RTVSPost2010PropOp45
 70
     1
102
RTVSPost2010Prop46
 90
       50
102
RTVSPost2010PropOp46
 70
     1
102
RTVSPost2010Prop47
 90
       50
102
RTVSPost2010PropOp47
 70
     1
102
RTVSPost2010Prop48
 90
       50
102
RTVSPost2010PropOp48
 70
     1
102
RTVSPost2010Prop49
280
     0
102
RTVSPost2010PropOp49
 70
     1
102
RTVSPost2010Prop50
 90
       50
102
RTVSPost2010PropOp50
 70
     1
102
RTVSPost2010Prop51ColorIndex
 90
      256
102
RTVSPost2010Prop51ColorRGB
 90
-16777216
102
RTVSPost2010PropOp51
 70
     0
102
RTVSPost2010Prop52
140
1.0
102
RTVSPost2010PropOp52
 70
     0
102
RTVSPost2010Prop53
 90
        2
102
RTVSPost2010PropOp53
 70
     1
102
RTVSPost2010Prop54
  1
strokes_ogs.tif
102
RTVSPost2010PropOp54
 70
     1
102
RTVSPost2010Prop55
280
     0
102
RTVSPost2010PropOp55
 70
     1
102
RTVSPost2010Prop56
140
1.0
102
RTVSPost2010PropOp56
 70
     1
102
RTVSPost2010Prop57
140
1.0
102
RTVSPost2010PropOp57
 70
     1
  0
ENDSEC
  0
EOF
