  0
SECTION
  2
HEADER
  9
$ACADVER
  1
AC1021
  9
$ACADMAINTVER
 70
    25
  9
$DWGCODEPAGE
  3
ANSI_1252
  9
$LASTSAVEDBY
  1
Nick Zweigel
  9
$INSBASE
 10
0.0
 20
0.0
 30
0.0
  9
$EXTMIN
 10
0.0
 20
0.0
 30
0.0
  9
$EXTMAX
 10
210.0
 20
297.0
 30
0.0
  9
$LIMMIN
 10
0.0
 20
0.0
  9
$LIMMAX
 10
210.0
 20
297.0
  9
$ORTHOMODE
 70
     0
  9
$REGENMODE
 70
     1
  9
$FILLMODE
 70
     1
  9
$QTEXTMODE
 70
     0
  9
$MIRRTEXT
 70
     1
  9
$LTSCALE
 40
1.0
  9
$ATTMODE
 70
     1
  9
$TEXTSIZE
 40
3.0
  9
$TRACEWID
 40
1.0
  9
$TEXTSTYLE
  7
Standard
  9
$CLAYER
  8
0
  9
$CELTYPE
  6
ByLayer
  9
$CECOLOR
 62
   256
  9
$CELTSCALE
 40
1.0
  9
$DISPSILH
 70
     0
  9
$DIMSCALE
 40
1.0
  9
$DIMASZ
 40
2.5
  9
$DIMEXO
 40
0.625
  9
$DIMDLI
 40
3.75
  9
$DIMRND
 40
0.0
  9
$DIMDLE
 40
0.0
  9
$DIMEXE
 40
1.25
  9
$DIMTP
 40
0.0
  9
$DIMTM
 40
0.0
  9
$DIMTXT
 40
2.5
  9
$DIMCEN
 40
2.5
  9
$DIMTSZ
 40
0.0
  9
$DIMTOL
 70
     0
  9
$DIMLIM
 70
     0
  9
$DIMTIH
 70
     0
  9
$DIMTOH
 70
     0
  9
$DIMSE1
 70
     0
  9
$DIMSE2
 70
     0
  9
$DIMTAD
 70
     1
  9
$DIMZIN
 70
     8
  9
$DIMBLK
  1

  9
$DIMASO
 70
     1
  9
$DIMSHO
 70
     1
  9
$DIMPOST
  1

  9
$DIMAPOST
  1

  9
$DIMALT
 70
     0
  9
$DIMALTD
 70
     3
  9
$DIMALTF
 40
0.0393700787
  9
$DIMLFAC
 40
1.0
  9
$DIMTOFL
 70
     1
  9
$DIMTVP
 40
0.0
  9
$DIMTIX
 70
     0
  9
$DIMSOXD
 70
     0
  9
$DIMSAH
 70
     0
  9
$DIMBLK1
  1

  9
$DIMBLK2
  1

  9
$DIMSTYLE
  2
ISO-25
  9
$DIMCLRD
 70
     0
  9
$DIMCLRE
 70
     0
  9
$DIMCLRT
 70
     0
  9
$DIMTFAC
 40
1.0
  9
$DIMGAP
 40
0.625
  9
$DIMJUST
 70
     0
  9
$DIMSD1
 70
     0
  9
$DIMSD2
 70
     0
  9
$DIMTOLJ
 70
     0
  9
$DIMTZIN
 70
     8
  9
$DIMALTZ
 70
     0
  9
$DIMALTTZ
 70
     0
  9
$DIMUPT
 70
     0
  9
$DIMDEC
 70
     2
  9
$DIMTDEC
 70
     2
  9
$DIMALTU
 70
     2
  9
$DIMALTTD
 70
     3
  9
$DIMTXSTY
  7
Standard
  9
$DIMAUNIT
 70
     0
  9
$DIMADEC
 70
     0
  9
$DIMALTRND
 40
0.0
  9
$DIMAZIN
 70
     0
  9
$DIMDSEP
 70
    44
  9
$DIMATFIT
 70
     3
  9
$DIMFRAC
 70
     0
  9
$DIMLDRBLK
  1

  9
$DIMLUNIT
 70
     2
  9
$DIMLWD
 70
    -2
  9
$DIMLWE
 70
    -2
  9
$DIMTMOVE
 70
     0
  9
$DIMFXL
 40
1.0
  9
$DIMFXLON
 70
     0
  9
$DIMJOGANG
 40
0.7853981634
  9
$DIMTFILL
 70
     0
  9
$DIMTFILLCLR
 70
     0
  9
$DIMARCSYM
 70
     0
  9
$DIMLTYPE
  6

  9
$DIMLTEX1
  6

  9
$DIMLTEX2
  6

  9
$LUNITS
 70
     2
  9
$LUPREC
 70
     4
  9
$SKETCHINC
 40
1.0
  9
$FILLETRAD
 40
0.0
  9
$AUNITS
 70
     0
  9
$AUPREC
 70
     0
  9
$MENU
  1
.
  9
$ELEVATION
 40
0.0
  9
$PELEVATION
 40
0.0
  9
$THICKNESS
 40
0.0
  9
$LIMCHECK
 70
     0
  9
$CHAMFERA
 40
0.0
  9
$CHAMFERB
 40
0.0
  9
$CHAMFERC
 40
0.0
  9
$CHAMFERD
 40
0.0
  9
$SKPOLY
 70
     0
  9
$TDCREATE
 40
2460264.473161297
  9
$TDUCREATE
 40
2460264.43149463
  9
$TDUPDATE
 40
2460264.47317919
  9
$TDUUPDATE
 40
2460264.431512523
  9
$TDINDWG
 40
0.0000000116
  9
$TDUSRTIMER
 40
0.0000000116
  9
$USRTIMER
 70
     1
  9
$ANGBASE
 50
0.0
  9
$ANGDIR
 70
     0
  9
$PDMODE
 70
     0
  9
$PDSIZE
 40
0.0
  9
$PLINEWID
 40
0.0
  9
$SPLFRAME
 70
     0
  9
$SPLINETYPE
 70
     6
  9
$SPLINESEGS
 70
     8
  9
$HANDSEED
  5
21C
  9
$SURFTAB1
 70
     6
  9
$SURFTAB2
 70
     6
  9
$SURFTYPE
 70
     6
  9
$SURFU
 70
     6
  9
$SURFV
 70
     6
  9
$UCSBASE
  2

  9
$UCSNAME
  2

  9
$UCSORG
 10
0.0
 20
0.0
 30
0.0
  9
$UCSXDIR
 10
1.0
 20
0.0
 30
0.0
  9
$UCSYDIR
 10
0.0
 20
1.0
 30
0.0
  9
$UCSORTHOREF
  2

  9
$UCSORTHOVIEW
 70
     0
  9
$UCSORGTOP
 10
0.0
 20
0.0
 30
0.0
  9
$UCSORGBOTTOM
 10
0.0
 20
0.0
 30
0.0
  9
$UCSORGLEFT
 10
0.0
 20
0.0
 30
0.0
  9
$UCSORGRIGHT
 10
0.0
 20
0.0
 30
0.0
  9
$UCSORGFRONT
 10
0.0
 20
0.0
 30
0.0
  9
$UCSORGBACK
 10
0.0
 20
0.0
 30
0.0
  9
$PUCSBASE
  2

  9
$PUCSNAME
  2

  9
$PUCSORG
 10
0.0
 20
0.0
 30
0.0
  9
$PUCSXDIR
 10
1.0
 20
0.0
 30
0.0
  9
$PUCSYDIR
 10
0.0
 20
1.0
 30
0.0
  9
$PUCSORTHOREF
  2

  9
$PUCSORTHOVIEW
 70
     0
  9
$PUCSORGTOP
 10
0.0
 20
0.0
 30
0.0
  9
$PUCSORGBOTTOM
 10
0.0
 20
0.0
 30
0.0
  9
$PUCSORGLEFT
 10
0.0
 20
0.0
 30
0.0
  9
$PUCSORGRIGHT
 10
0.0
 20
0.0
 30
0.0
  9
$PUCSORGFRONT
 10
0.0
 20
0.0
 30
0.0
  9
$PUCSORGBACK
 10
0.0
 20
0.0
 30
0.0
  9
$USERI1
 70
     0
  9
$USERI2
 70
     0
  9
$USERI3
 70
     0
  9
$USERI4
 70
     0
  9
$USERI5
 70
     0
  9
$USERR1
 40
0.0
  9
$USERR2
 40
0.0
  9
$USERR3
 40
0.0
  9
$USERR4
 40
0.0
  9
$USERR5
 40
0.0
  9
$WORLDVIEW
 70
     1
  9
$SHADEDGE
 70
     3
  9
$SHADEDIF
 70
    70
  9
$TILEMODE
 70
     1
  9
$MAXACTVP
 70
    64
  9
$PINSBASE
 10
0.0
 20
0.0
 30
0.0
  9
$PLIMCHECK
 70
     0
  9
$PEXTMIN
 10
0.0
 20
0.0
 30
0.0
  9
$PEXTMAX
 10
210.0
 20
297.0
 30
0.0
  9
$PLIMMIN
 10
0.0
 20
0.0
  9
$PLIMMAX
 10
210.0
 20
297.0
  9
$UNITMODE
 70
     0
  9
$VISRETAIN
 70
     1
  9
$PLINEGEN
 70
     0
  9
$PSLTSCALE
 70
     1
  9
$TREEDEPTH
 70
  3020
  9
$CMLSTYLE
  2
Standard
  9
$CMLJUST
 70
     0
  9
$CMLSCALE
 40
20.0
  9
$PROXYGRAPHICS
 70
     1
  9
$MEASUREMENT
 70
     1
  9
$CELWEIGHT
370
    -1
  9
$ENDCAPS
280
     0
  9
$JOINSTYLE
280
     0
  9
$LWDISPLAY
290
     0
  9
$INSUNITS
 70
     4
  9
$HYPERLINKBASE
  1

  9
$STYLESHEET
  1

  9
$XEDIT
290
     1
  9
$CEPSNTYPE
380
     0
  9
$PSTYLEMODE
290
     1
  9
$FINGERPRINTGUID
  2
{e79775df-5c88-49fb-9b0d-03dea50c85e5}
  9
$VERSIONGUID
  2
{FAEB1C32-E019-11D5-929B-00C0DF256EC4}
  9
$EXTNAMES
290
     1
  9
$PSVPSCALE
 40
0.0
  9
$OLESTARTUP
290
     0
  9
$SORTENTS
280
   127
  9
$INDEXCTL
280
     0
  9
$HIDETEXT
280
     1
  9
$XCLIPFRAME
290
     0
  9
$HALOGAP
280
     0
  9
$OBSCOLOR
 70
   257
  9
$OBSLTYPE
280
     0
  9
$INTERSECTIONDISPLAY
280
     0
  9
$INTERSECTIONCOLOR
 70
   257
  9
$DIMASSOC
280
     2
  9
$PROJECTNAME
  1

  9
$CAMERADISPLAY
290
     0
  9
$LENSLENGTH
 40
50.0
  9
$CAMERAHEIGHT
 40
0.0
  9
$STEPSPERSEC
 40
2.0
  9
$STEPSIZE
 40
6.0
  9
$3DDWFPREC
 40
2.0
  9
$PSOLWIDTH
 40
5.0
  9
$PSOLHEIGHT
 40
80.0
  9
$LOFTANG1
 40
1.5707963268
  9
$LOFTANG2
 40
1.5707963268
  9
$LOFTMAG1
 40
0.0
  9
$LOFTMAG2
 40
0.0
  9
$LOFTPARAM
 70
     7
  9
$LOFTNORMALS
280
     1
  9
$LATITUDE
 40
37.795
  9
$LONGITUDE
 40
-122.394
  9
$NORTHDIRECTION
 40
0.0
  9
$TIMEZONE
 70
 -8000
  9
$LIGHTGLYPHDISPLAY
280
     1
  9
$TILEMODELIGHTSYNCH
280
     1
  9
$CMATERIAL
347
44
  9
$SOLIDHIST
280
     0
  9
$SHOWHIST
280
     1
  9
$DWFFRAME
280
     2
  9
$DGNFRAME
280
     2
  9
$REALWORLDSCALE
290
     1
  9
$INTERFERECOLOR
 62
   256
  9
$CSHADOW
280
     0
  9
$SHADOWPLANELOCATION
 40
0.0
  0
ENDSEC
  0
SECTION
  2
CLASSES
  0
CLASS
  1
ACDBDICTIONARYWDFLT
  2
AcDbDictionaryWithDefault
  3
ObjectDBX Classes
 90
        0
 91
        3
280
     0
281
     0
  0
CLASS
  1
VISUALSTYLE
  2
AcDbVisualStyle
  3
ObjectDBX Classes
 90
     4095
 91
        3
280
     0
281
     0
  0
CLASS
  1
MATERIAL
  2
AcDbMaterial
  3
ObjectDBX Classes
 90
     1153
 91
        3
280
     0
281
     0
  0
CLASS
  1
SCALE
  2
AcDbScale
  3
ObjectDBX Classes
 90
     1153
 91
        3
280
     0
281
     0
  0
CLASS
  1
TABLESTYLE
  2
AcDbTableStyle
  3
ObjectDBX Classes
 90
     4095
 91
        3
280
     0
281
     0
  0
CLASS
  1
MLEADERSTYLE
  2
AcDbMLeaderStyle
  3
ACDB_MLEADERSTYLE_CLASS
 90
     4095
 91
        3
280
     0
281
     0
  0
CLASS
  1
SUN
  2
AcDbSun
  3
SCENEOE
 90
     1153
 91
        3
280
     0
281
     0
  0
CLASS
  1
RASTERVARIABLES
  2
AcDbRasterVariables
  3
ISM
 90
        0
 91
        3
280
     0
281
     0
  0
CLASS
  1
IMAGEDEF
  2
AcDbRasterImageDef
  3
ISM
 90
        0
 91
        3
280
     0
281
     0
  0
CLASS
  1
IMAGE
  2
AcDbRasterImage
  3
ISM
 90
      127
 91
        4
280
     0
281
     1
  0
CLASS
  1
IMAGEDEF_REACTOR
  2
AcDbRasterImageDefReactor
  3
ISM
 90
        1
 91
        3
280
     0
281
     0
  0
CLASS
  1
DICTIONARYVAR
  2
AcDbDictionaryVar
  3
ObjectDBX Classes
 90
        0
 91
        3
280
     0
281
     0
  0
CLASS
  1
CELLSTYLEMAP
  2
AcDbCellStyleMap
  3
ObjectDBX Classes
 90
     1152
 91
        3
280
     0
281
     0
  0
ENDSEC
  0
SECTION
  2
TABLES
  0
TABLE
  2
VPORT
  5
8
330
0
100
AcDbSymbolTable
 70
     1
  0
VPORT
  5
29
330
8
100
AcDbSymbolTableRecord
100
AcDbViewportTableRecord
  2
*Active
 70
     0
 10
0.0
 20
0.0
 11
1.0
 21
1.0
 12
344.1869158879
 22
148.5
 13
0.0
 23
0.0
 14
10.0
 24
10.0
 15
10.0
 25
10.0
 16
0.0
 26
0.0
 36
1.0
 17
0.0
 27
0.0
 37
0.0
 40
297.0
 41
1.9729729729
 42
50.0
 43
0.0
 44
0.0
 50
0.0
 51
0.0
 71
     0
 72
   100
 73
     1
 74
     3
 75
     0
 76
     0
 77
     0
 78
     0
281
     0
 65
     1
110
0.0
120
0.0
130
0.0
111
1.0
121
0.0
131
0.0
112
0.0
122
1.0
132
0.0
 79
     0
146
0.0
348
2F
 60
     3
 61
     5
292
     1
282
     1
141
0.0
142
0.0
 63
   250
361
5D
  0
ENDTAB
  0
TABLE
  2
LTYPE
  5
5
330
0
100
AcDbSymbolTable
 70
     2
  0
LTYPE
  5
14
330
5
100
AcDbSymbolTableRecord
100
AcDbLinetypeTableRecord
  2
ByBlock
 70
     0
  3

 72
    65
 73
     0
 40
0.0
  0
LTYPE
  5
15
330
5
100
AcDbSymbolTableRecord
100
AcDbLinetypeTableRecord
  2
ByLayer
 70
     0
  3

 72
    65
 73
     0
 40
0.0
  0
LTYPE
  5
16
330
5
100
AcDbSymbolTableRecord
100
AcDbLinetypeTableRecord
  2
Continuous
 70
     0
  3
Solid line
 72
    65
 73
     0
 40
0.0
  0
LTYPE
  5
F3
330
5
100
AcDbSymbolTableRecord
100
AcDbLinetypeTableRecord
  2
CENTER2
 70
     0
  3
Center (.5x) ___ _ ___ _ ___ _ ___ _ ___ _ ___
 72
    65
 73
     4
 40
28.575
 49
19.05
 74
     4
 75
     0
340
0
 46
0.0
 50
0.0
 44
0.0
 45
0.0
 49
-3.175
 74
     4
 75
     0
340
0
 46
0.0
 50
0.0
 44
0.0
 45
0.0
 49
3.175
 74
     4
 75
     0
340
0
 46
0.0
 50
0.0
 44
0.0
 45
0.0
 49
-3.175
 74
     4
 75
     0
340
0
 46
0.0
 50
0.0
 44
0.0
 45
0.0
  0
ENDTAB
  0
TABLE
  2
LAYER
  5
2
330
0
100
AcDbSymbolTable
 70
    11
  0
LAYER
  5
10
330
2
100
AcDbSymbolTableRecord
100
AcDbLayerTableRecord
  2
0
 70
     0
 62
     7
  6
Continuous
370
    -3
390
F
347
46
  0
LAYER
  5
5E
330
2
100
AcDbSymbolTableRecord
100
AcDbLayerTableRecord
  2
Standard
 70
     0
 62
     7
  6
Continuous
370
    -3
390
F
347
46
  0
LAYER
  5
61
330
2
100
AcDbSymbolTableRecord
100
AcDbLayerTableRecord
  2
DV1_Füllung
 70
     1
 62
    -7
  6
Continuous
370
    -3
390
F
347
46
  0
LAYER
  5
73
330
2
100
AcDbSymbolTableRecord
100
AcDbLayerTableRecord
  2
D000121
 70
     0
 62
     7
  6
Continuous
370
    -3
390
F
347
46
  0
LAYER
  5
9E
330
2
100
AcDbSymbolTableRecord
100
AcDbLayerTableRecord
  2
D000122
 70
     0
 62
     7
  6
Continuous
370
    -3
390
F
347
46
  0
LAYER
  5
B9
330
2
100
AcDbSymbolTableRecord
100
AcDbLayerTableRecord
  2
D000126
 70
     0
 62
     7
  6
Continuous
370
    -3
390
F
347
46
  0
LAYER
  5
F2
330
2
100
AcDbSymbolTableRecord
100
AcDbLayerTableRecord
  2
DV1_Standard
 70
     0
 62
     7
  6
Continuous
370
    -3
390
F
347
46
  0
LAYER
  5
129
330
2
100
AcDbSymbolTableRecord
100
AcDbLayerTableRecord
  2
DV2_Füllung
 70
     1
 62
    -7
  6
Continuous
370
    -3
390
F
347
46
  0
LAYER
  5
1B7
330
2
100
AcDbSymbolTableRecord
100
AcDbLayerTableRecord
  2
DV2_Standard
 70
     0
 62
     7
  6
Continuous
370
    -3
390
F
347
46
  0
LAYER
  5
1BB
330
2
100
AcDbSymbolTableRecord
100
AcDbLayerTableRecord
  2
Default
 70
     0
 62
     7
  6
Continuous
370
    -3
390
F
347
46
  0
LAYER
  5
1D2
330
2
100
AcDbSymbolTableRecord
100
AcDbLayerTableRecord
  2
Skizziergeometrie(DIN)
 70
     0
 62
     7
  6
Continuous
370
    -3
390
F
347
46
  0
ENDTAB
  0
TABLE
  2
STYLE
  5
3
330
0
100
AcDbSymbolTable
 70
     2
  0
STYLE
  5
11
330
3
100
AcDbSymbolTableRecord
100
AcDbTextStyleTableRecord
  2
Standard
 70
     0
 40
0.0
 41
1.0
 50
0.0
 71
     0
 42
3.0
  3
txt
  4

  0
STYLE
  5
107
330
3
100
AcDbSymbolTableRecord
100
AcDbTextStyleTableRecord
  2
SEACAD_Arial
 70
     0
 40
0.0
 41
1.0
 50
0.0
 71
     0
 42
2.5
  3
arial.ttf
  4

1001
ACAD
1000
Arial
1071
        0
  0
ENDTAB
  0
TABLE
  2
VIEW
  5
6
330
0
100
AcDbSymbolTable
 70
     0
  0
ENDTAB
  0
TABLE
  2
UCS
  5
7
330
0
100
AcDbSymbolTable
 70
     0
  0
ENDTAB
  0
TABLE
  2
APPID
  5
9
330
0
100
AcDbSymbolTable
 70
     2
  0
APPID
  5
12
330
9
100
AcDbSymbolTableRecord
100
AcDbRegAppTableRecord
  2
ACAD
 70
     0
  0
APPID
  5
212
330
9
100
AcDbSymbolTableRecord
100
AcDbRegAppTableRecord
  2
ACAD_MLEADERVER
 70
     0
  0
ENDTAB
  0
TABLE
  2
DIMSTYLE
  5
A
330
0
100
AcDbSymbolTable
 70
     3
100
AcDbDimStyleTable
  0
DIMSTYLE
105
27
330
A
100
AcDbSymbolTableRecord
100
AcDbDimStyleTableRecord
  2
ISO-25
 70
     0
 41
2.5
 42
0.625
 43
3.75
 44
1.25
 73
     0
 74
     0
 77
     1
 78
     8
140
2.5
141
2.5
143
0.0393700787
147
0.625
171
     3
172
     1
178
     0
271
     2
272
     2
274
     3
278
    44
283
     0
284
     8
340
11
  0
DIMSTYLE
105
F7
330
A
100
AcDbSymbolTableRecord
100
AcDbDimStyleTableRecord
  2
Standard
 70
     0
178
     0
340
11
  0
DIMSTYLE
105
108
102
{ACAD_REACTORS
330
109
330
113
330
11B
102
}
330
A
100
AcDbSymbolTableRecord
100
AcDbDimStyleTableRecord
  2
E-Katalog
 70
     0
 41
3.75
 42
0.75
 44
1.25
 73
     0
 74
     0
 77
     1
 78
     8
140
2.5
141
1.25
143
0.0393700787
146
0.7
147
0.625
172
     1
173
     1
178
     0
271
     0
272
     3
278
    44
283
     0
284
     8
340
107
343
101
344
101
  0
ENDTAB
  0
TABLE
  2
BLOCK_RECORD
  5
1
330
0
100
AcDbSymbolTable
 70
     8
  0
BLOCK_RECORD
  5
1F
330
1
100
AcDbSymbolTableRecord
100
AcDbBlockTableRecord
  2
*Model_Space
340
22
 70
     0
280
     1
281
     0
  0
BLOCK_RECORD
  5
1B
330
1
100
AcDbSymbolTableRecord
100
AcDbBlockTableRecord
  2
*Paper_Space
340
1E
 70
     0
280
     1
281
     0
  0
BLOCK_RECORD
  5
5F
330
1
100
AcDbSymbolTableRecord
100
AcDbBlockTableRecord
  2
SE
340
0
102
{BLKREFS
331
60
102
}
 70
     0
280
     1
281
     0
  0
BLOCK_RECORD
  5
F8
330
1
100
AcDbSymbolTableRecord
100
AcDbBlockTableRecord
  2
_Oblique
340
0
 70
     0
280
     1
281
     0
  0
BLOCK_RECORD
  5
FC
330
1
100
AcDbSymbolTableRecord
100
AcDbBlockTableRecord
  2
_Dot
340
0
 70
     0
280
     1
281
     0
  0
BLOCK_RECORD
  5
101
330
1
100
AcDbSymbolTableRecord
100
AcDbBlockTableRecord
  2
_SE_OPEN
340
0
 70
     0
280
     1
281
     0
  0
BLOCK_RECORD
  5
10A
330
1
100
AcDbSymbolTableRecord
100
AcDbBlockTableRecord
  2
DMBLK412
340
0
 70
     0
280
     1
281
     0
  0
BLOCK_RECORD
  5
114
330
1
100
AcDbSymbolTableRecord
100
AcDbBlockTableRecord
  2
DMBLK413
340
0
 70
     0
280
     1
281
     0
  0
BLOCK_RECORD
  5
11C
330
1
100
AcDbSymbolTableRecord
100
AcDbBlockTableRecord
  2
DMBLK414
340
0
 70
     0
280
     1
281
     0
  0
BLOCK_RECORD
  5
127
330
1
100
AcDbSymbolTableRecord
100
AcDbBlockTableRecord
  2
SE1
340
0
102
{BLKREFS
331
128
102
}
 70
     0
280
     1
281
     0
  0
ENDTAB
  0
ENDSEC
  0
SECTION
  2
BLOCKS
  0
BLOCK
  5
20
330
1F
100
AcDbEntity
  8
0
100
AcDbBlockBegin
  2
*Model_Space
 70
     0
 10
0.0
 20
0.0
 30
0.0
  3
*Model_Space
  1

  0
ENDBLK
  5
21
330
1F
100
AcDbEntity
  8
0
100
AcDbBlockEnd
  0
BLOCK
  5
1C
330
1B
100
AcDbEntity
 67
     1
  8
0
100
AcDbBlockBegin
  2
*Paper_Space
 70
     0
 10
0.0
 20
0.0
 30
0.0
  3
*Paper_Space
  1

  0
ENDBLK
  5
1D
330
1B
100
AcDbEntity
 67
     1
  8
0
100
AcDbBlockEnd
  0
BLOCK
  5
F5
330
5F
100
AcDbEntity
  8
0
100
AcDbBlockBegin
  2
SE
 70
     0
 10
0.0
 20
0.0
 30
0.0
  3
SE
  1

  0
HATCH
  5
62
330
5F
100
AcDbEntity
  8
DV1_Füllung
  6
Continuous
 62
     7
100
AcDbHatch
 10
0.0
 20
0.0
 30
0.0
210
0.0
220
0.0
230
1.0
  2
SOLID
 70
     1
 71
     0
 91
        1
 92
        1
 93
       56
 72
     1
 10
69.73254097206326
 20
174.3827014819346
 11
68.47303646214009
 21
176.5642272854837
 72
     2
 10
68.9060491640323
 20
176.8142272854837
 40
0.5000000000000007
 50
150.0000000000003
 51
216.9717713184224
 73
     0
 72
     1
 10
68.5065832053322
 20
177.114938023303
 11
68.58756773294819
 21
177.22100754683
 72
     2
 10
76.33611599585389
 20
169.7740378627376
 40
10.74696969654103
 50
223.8630258158237
 51
316.1369741841762
 73
     0
 72
     1
 10
84.08466425875959
 20
177.22100754683
 11
84.16564878637557
 21
177.114938023303
 72
     2
 10
83.76618282767546
 20
176.8142272854837
 40
0.4999999999999979
 50
323.0282286815765
 51
389.9999999999997
 73
     0
 72
     1
 10
84.19919552956769
 20
176.5642272854837
 11
82.93969101964453
 21
174.3827014819346
 72
     2
 10
82.50667831775229
 20
174.6327014819346
 40
0.5000000000000011
 50
30.00000000000053
 51
90.01244661210951
 73
     0
 72
     1
 10
82.50656970057213
 20
174.1327014937324
 11
79.44768418656004
 21
174.133365988786
 72
     2
 10
79.4361377051328
 20
173.5334771119016
 40
0.5999999882024643
 50
88.89732415426361
 51
269.9840974707943
 73
     1
 72
     1
 10
79.43597117424179
 20
172.9334771468096
 11
81.23680577015922
 21
172.9329773224642
 72
     2
 10
81.23666699441398
 20
172.4329773417228
 40
0.4999999999999996
 50
270.0159025292048
 51
389.9999998013961
 73
     0
 72
     1
 10
81.66967969717277
 20
172.1829773432238
 11
81.18579960637815
 21
171.3448724431966
 72
     2
 10
81.7054148486484
 20
171.0448724431969
 40
0.5999999999995187
 50
150.0000000000004
 51
329.9999999999981
 73
     1
 72
     1
 10
82.22503009091865
 20
170.7448724431971
 11
84.57862742784671
 21
174.8214226113153
 72
     2
 10
85.01164012973894
 20
174.5714226113154
 40
0.5000000000000057
 50
210.0000000000006
 51
338.883855118751
 73
     0
 72
     2
 10
76.33611599585389
 20
171.2210075620449
 40
9.799999999999999
 50
338.8838551187501
 51
389.2895860079827
 73
     0
 72
     2
 10
84.35997150413739
 20
166.720147335134
 40
0.6000000000000012
 50
29.28958600798304
 51
135.000000000001
 73
     0
 72
     1
 10
83.93570743542546
 20
166.2958832664221
 11
82.77300116901637
 21
167.4585895328312
 72
     2
 10
82.5603788539096
 20
167.2469489149937
 40
0.2999999999999975
 50
44.8674241713357
 51
135.0000000000365
 73
     1
 72
     1
 10
82.34824681955351
 20
167.4590809493495
 11
81.92398275084157
 21
167.0348168806376
 72
     2
 10
82.13611421731306
 20
166.8226842783987
 40
0.3000000000000003
 50
134.9998466175053
 51
225.0000000000019
 73
     1
 72
     1
 10
81.92398218295712
 20
166.6105522440427
 11
82.53068390941272
 21
166.0038505175871
 72
     2
 10
82.2478411969381
 20
165.7210078051125
 40
0.4
 50
314.9999999999957
 51
405.0000000000029
 73
     0
 72
     1
 10
82.5306839094127
 20
165.4381650926379
 11
81.92398328697777
 21
164.831464470203
 72
     2
 10
82.13611507826539
 20
164.6193321927789
 40
0.2999999999999999
 50
134.9999343485142
 51
180.0
 73
     1
 72
     1
 10
81.8361150782654
 20
164.6193321927789
 11
81.83611574192054
 21
163.1099038890997
 72
     1
 10
81.83611574192054
 20
163.1099038890997
 11
81.83611574192054
 21
160.8210075620449
 72
     2
 10
82.43611574192055
 20
160.8210075620449
 40
0.5999999999999999
 50
180.0
 51
360.0
 73
     1
 72
     1
 10
83.03611574192054
 20
160.8210075620449
 11
83.03611574192053
 21
162.2060198356292
 72
     2
 10
83.63611574192053
 20
162.2060198356292
 40
0.5999999999999999
 50
180.0
 51
231.0007422767274
 73
     0
 72
     2
 10
76.33611599585389
 20
171.2210075620449
 40
11.0
 50
308.9992577232738
 51
591.0007435716404
 73
     1
 72
     2
 10
69.03611645353064
 20
162.2060196706454
 40
0.5999999999999996
 50
308.9992564283604
 51
360.0
 73
     0
 72
     1
 10
69.63611645353065
 20
162.2060196706454
 11
69.63611645353065
 21
160.821007562045
 72
     2
 10
70.2361164112148
 20
160.8210075620449
 40
0.599999957684165
 50
180.0
 51
360.0
 73
     1
 72
     1
 10
70.83611636889897
 20
160.8210075620449
 11
70.83611624978721
 21
163.1099038890997
 72
     1
 10
70.83611624978721
 20
163.1099038890997
 11
70.83611691344235
 21
164.6193320955518
 72
     2
 10
70.53611691344237
 20
164.6193321927789
 40
0.2999999999999965
 50
0.0
 51
45.00006565148383
 73
     1
 72
     1
 10
70.74824870472999
 20
164.831464470203
 11
70.14154808229505
 21
165.4381650926379
 72
     2
 10
70.42439079476966
 20
165.7210078051125
 40
0.4
 50
134.9999999999985
 51
225.0000000000043
 73
     0
 72
     1
 10
70.14154808229507
 20
166.0038505175872
 11
70.74824980875067
 21
166.6105522440428
 72
     2
 10
70.53611777439468
 20
166.8226842783987
 40
0.300000000000001
 50
315.0
 51
405.0001533824948
 73
     1
 72
     1
 10
70.74824924086617
 20
167.0348168806376
 11
70.32398517215425
 21
167.4590809493495
 72
     2
 10
70.11185313779816
 20
167.2469489149937
 40
0.300000000000001
 50
44.99999999996354
 51
135.1325758286643
 73
     1
 72
     1
 10
69.8992308226914
 20
167.4585895328312
 11
68.7365245562823
 21
166.2958832664221
 72
     2
 10
68.31226048757037
 20
166.720147335134
 40
0.6000000000000014
 50
44.99999999999903
 51
150.710413992017
 73
     0
 72
     2
 10
76.33611599585389
 20
171.2210075620449
 40
9.8
 50
150.7104139920174
 51
201.116144881249
 73
     0
 72
     2
 10
67.66059186196881
 20
174.5714226113154
 40
0.5000000000000011
 50
201.1161448812315
 51
330.0000000000002
 73
     0
 72
     1
 10
68.09360456386104
 20
174.8214226113154
 11
70.44720190078911
 21
170.7448724431972
 72
     2
 10
70.96681714305936
 20
171.0448724431969
 40
0.5999999999995178
 50
210.0000000000019
 51
389.9999999999995
 73
     1
 72
     1
 10
71.4864323853296
 20
171.3448724431966
 11
71.00255229540106
 21
172.1829773437238
 72
     2
 10
71.43556499729378
 20
172.4329773417228
 40
0.5000000000000009
 50
150.0000001986038
 51
269.9840974707935
 73
     0
 72
     1
 10
71.43542622154854
 20
172.9329773224642
 11
73.23626081746596
 21
172.9334771468096
 72
     2
 10
73.23609428657497
 20
173.5334771119016
 40
0.5999999882024647
 50
270.0159025292057
 51
451.1026758457377
 73
     1
 72
     1
 10
73.22454780514772
 20
174.133365988786
 11
70.16566229113563
 21
174.1327014937324
 72
     2
 10
70.16555367395547
 20
174.6327014819346
 40
0.4999999999999994
 50
89.9875533878905
 51
150.0000000000003
 73
     0
 97
        0
 75
     0
 76
     1
 98
        0
  0
HATCH
  5
63
330
5F
100
AcDbEntity
  8
DV1_Füllung
  6
Continuous
 62
     7
100
AcDbHatch
 10
0.0
 20
0.0
 30
0.0
210
0.0
220
0.0
230
1.0
  2
SOLID
 70
     1
 71
     0
 91
        1
 92
        1
 93
       24
 72
     1
 10
77.61309715640023
 20
169.2210071587831
 11
77.88611599585386
 21
169.2210071587831
 72
     1
 10
77.88611599585386
 20
169.2210071587831
 11
81.51001181578557
 21
169.2210071587831
 72
     1
 10
81.51001181578559
 20
169.2210071587831
 11
80.35585853714198
 21
172.3920172304459
 72
     2
 10
79.88601222674903
 20
172.221007158783
 40
0.5000000000000022
 50
20.00000000000315
 51
90.0
 73
     1
 72
     1
 10
79.88601222674903
 20
172.721007158783
 11
77.25080380207477
 21
172.721007158783
 72
     3
 10
77.25080380207477
 20
172.221007158783
 11
1.084202172485504E-16
 21
0.5000000000000022
 40
0.3057306814586604
 50
0.0
 51
40.02986098535622
 73
     1
 72
     1
 10
77.10715736941751
 20
172.3920172304459
 11
77.1481522157949
 21
172.760421259111
 72
     3
 10
77.34925722151509
 20
172.5210071587831
 11
-2.168404344971009E-16
 21
-0.6999999999999992
 40
0.3057306814586611
 50
139.9701390146378
 51
180.0
 73
     0
 72
     1
 10
77.34925722151509
 20
173.2210071587831
 11
75.32297477019267
 21
173.221007158783
 72
     3
 10
75.32297477019267
 20
172.521007158783
 11
1.517883041479706E-15
 21
0.7000000000000079
 40
0.3057306814586578
 50
0.0
 51
40.02986098535838
 73
     0
 72
     1
 10
75.52407977591285
 20
172.760421259111
 11
75.56507462229025
 21
172.3920172304459
 72
     3
 10
75.42142818963298
 20
172.221007158783
 11
2.168404344971009E-16
 21
-0.5000000000000004
 40
0.3057306814586597
 50
139.970139014644
 51
180.0
 73
     1
 72
     1
 10
75.42142818963298
 20
172.721007158783
 11
72.78621976495872
 21
172.721007158783
 72
     2
 10
72.78621976495872
 20
172.221007158783
 40
0.5000000000000022
 50
90.0
 51
159.9999999999969
 73
     1
 72
     1
 10
72.31637345456576
 20
172.3920172304459
 11
71.16222017592214
 21
169.2210071587831
 72
     1
 10
71.16222017592214
 20
169.221007158783
 11
74.78611599585386
 21
169.2210071587831
 72
     1
 10
74.78611599585388
 20
169.2210071587831
 11
75.05913483530753
 21
169.2210071587831
 72
     1
 10
75.05913483530753
 20
169.2210071587831
 11
75.15431404738783
 21
169.0850771567673
 72
     3
 10
75.04824803020983
 20
168.9335991857515
 11
-2.168404344971009E-15
 21
0.214222201011317
 40
0.7002075382097086
 50
35.00000000000605
 51
90.00000000000058
 73
     0
 72
     1
 10
75.19824803020983
 20
168.9335991857515
 11
75.19824803020983
 21
168.5997910296011
 72
     1
 10
75.19824803020983
 20
168.5997910296011
 11
77.47398396149791
 21
168.5997910296011
 72
     1
 10
77.47398396149791
 20
168.5997910296011
 11
77.47398396149792
 21
168.9335991935845
 72
     3
 10
77.62398396149791
 20
168.9335991857515
 11
-2.168404344971009E-16
 21
-0.2142222010113179
 40
0.7002075382097077
 50
89.99999999999991
 51
144.9999999999941
 73
     0
 72
     1
 10
77.51791794431993
 20
169.0850771567673
 11
77.6130971564002
 21
169.2210071587831
 97
        0
 75
     0
 76
     1
 98
        0
  0
HATCH
  5
64
330
5F
100
AcDbEntity
  8
DV1_Füllung
  6
Continuous
 62
     7
100
AcDbHatch
 10
0.0
 20
0.0
 30
0.0
210
0.0
220
0.0
230
1.0
  2
SOLID
 70
     1
 71
     0
 91
        1
 92
        1
 93
        6
 72
     1
 10
74.33611599585387
 20
172.721007158783
 11
75.42142818963296
 21
172.721007158783
 72
     3
 10
75.42142818963298
 20
172.221007158783
 11
-2.168404344971009E-16
 21
0.5000000000000004
 40
0.3057306814586597
 50
0.0
 51
40.02986098535602
 73
     0
 72
     1
 10
75.56507462229024
 20
172.3920172304459
 11
75.52407977591285
 21
172.760421259111
 72
     3
 10
75.32297477019267
 20
172.521007158783
 11
-1.517883041479706E-15
 21
-0.7000000000000079
 40
0.3057306814586578
 50
139.9701390146416
 51
180.0
 73
     1
 72
     1
 10
75.32297477019267
 20
173.221007158783
 11
74.33611599585387
 21
173.221007158783
 72
     1
 10
74.33611599585387
 20
173.221007158783
 11
74.33611599585387
 21
172.721007158783
 97
        0
 75
     0
 76
     1
 98
        0
  0
HATCH
  5
65
330
5F
100
AcDbEntity
  8
DV1_Füllung
  6
Continuous
 62
     7
100
AcDbHatch
 10
0.0
 20
0.0
 30
0.0
210
0.0
220
0.0
230
1.0
  2
SOLID
 70
     1
 71
     0
 91
        1
 92
        1
 93
        6
 72
     1
 10
77.25080378926528
 20
172.721007158783
 11
78.33611599585387
 21
172.721007158783
 72
     1
 10
78.33611599585387
 20
172.721007158783
 11
78.33611599585387
 21
173.221007158783
 72
     1
 10
78.33611599585387
 20
173.221007158783
 11
77.34925722151507
 21
173.221007158783
 72
     3
 10
77.34925722151509
 20
172.5210071587831
 11
2.168404344971009E-16
 21
0.6999999999999992
 40
0.3057306814586611
 50
0.0
 51
40.02986098536218
 73
     1
 72
     1
 10
77.14815221579491
 20
172.760421259111
 11
77.1071573694175
 21
172.3920172304459
 72
     3
 10
77.25080380207477
 20
172.221007158783
 11
-1.084202172485504E-16
 21
-0.5000000000000022
 40
0.3057306814586604
 50
139.9701390146438
 51
180.0
 73
     0
 97
        0
 75
     0
 76
     1
 98
        0
  0
HATCH
  5
66
330
5F
100
AcDbEntity
  8
DV1_Füllung
  6
Continuous
 62
     7
100
AcDbHatch
 10
0.0
 20
0.0
 30
0.0
210
0.0
220
0.0
230
1.0
  2
SOLID
 70
     1
 71
     0
 91
        1
 92
        1
 93
        4
 72
     1
 10
77.47398396149791
 20
168.5997910296011
 11
75.19824803020983
 21
168.5997910296011
 72
     1
 10
75.19824803020983
 20
168.5997910296011
 11
75.19824803020983
 21
166.2210071587831
 72
     1
 10
75.19824803020983
 20
166.221007158783
 11
77.47398396149791
 21
166.2210071587831
 72
     1
 10
77.47398396149792
 20
166.2210071587831
 11
77.47398396149792
 21
168.5997910296011
 97
        0
 75
     0
 76
     1
 98
        0
  0
HATCH
  5
67
330
5F
100
AcDbEntity
  8
DV1_Füllung
  6
Continuous
 62
     7
100
AcDbHatch
 10
0.0
 20
0.0
 30
0.0
210
0.0
220
0.0
230
1.0
  2
SOLID
 70
     1
 71
     0
 91
        1
 92
        1
 93
       10
 72
     1
 10
74.78611599585388
 20
163.2210071587831
 11
77.88611599585388
 21
163.2210071587831
 72
     1
 10
77.88611599585387
 20
163.2210071587831
 11
77.88611599585387
 21
165.2562799013511
 72
     1
 10
77.88611599585387
 20
165.2562799013511
 11
77.51791794431992
 21
165.7821212147357
 72
     3
 10
77.62398396149791
 20
165.9335991857515
 11
2.168404344971009E-16
 21
-0.2142222010113174
 40
0.7002075382097079
 50
34.99999999999567
 51
90.00001472479236
 73
     0
 72
     1
 10
77.47398396149792
 20
165.9335992243009
 11
77.47398396149792
 21
166.2210071587831
 72
     1
 10
77.47398396149792
 20
166.2210071587831
 11
75.19824803020984
 21
166.2210071587831
 72
     1
 10
75.19824803020984
 20
166.2210071587831
 11
75.19824803020983
 21
165.9335991857515
 72
     3
 10
75.04824803020983
 20
165.9335991857515
 11
0.0
 21
0.2142222010113174
 40
0.7002075382097097
 50
90.0
 51
145.0000000000043
 73
     0
 72
     1
 10
75.15431404738781
 20
165.7821212147357
 11
74.78611599585388
 21
165.2562799013511
 72
     1
 10
74.78611599585388
 20
165.2562799013512
 11
74.78611599585388
 21
163.2210071587831
 97
        0
 75
     0
 76
     1
 98
        0
  0
HATCH
  5
68
330
5F
100
AcDbEntity
  8
DV1_Füllung
  6
Continuous
 62
     7
100
AcDbHatch
 10
0.0
 20
0.0
 30
0.0
210
0.0
220
0.0
230
1.0
  2
SOLID
 70
     1
 71
     0
 91
        1
 92
        1
 93
        9
 72
     1
 10
70.88611599585387
 20
166.2210071587831
 11
70.88611599585387
 21
166.7887149839862
 72
     2
 10
71.53611599585386
 20
165.7210071587831
 40
1.25
 50
121.3322514975936
 51
124.542882882013
 73
     1
 72
     2
 10
70.53611777439468
 20
166.8226842783987
 40
0.300000000000001
 50
13.8962945351266
 51
45.0
 73
     0
 72
     1
 10
70.74824980875064
 20
166.6105522440427
 11
70.41844287798777
 21
166.2807453132799
 72
     2
 10
71.53611599585386
 20
165.7210071587831
 40
1.25
 50
153.3979856359473
 51
206.6018816180415
 73
     1
 72
     1
 10
70.41844158115865
 20
165.1612715937743
 11
70.7482489477982
 21
164.8314642271347
 72
     2
 10
70.53611691344237
 20
164.6193321927789
 40
0.2999999999999965
 50
314.9999343485161
 51
326.442373206565
 73
     0
 72
     1
 10
70.78611599585388
 20
164.7851648156051
 11
70.78611599585386
 21
166.2210071587831
 72
     1
 10
70.78611599585386
 20
166.2210071587831
 11
70.88611599585387
 21
166.2210071587831
 97
        0
 75
     0
 76
     1
 98
        0
  0
HATCH
  5
69
330
5F
100
AcDbEntity
  8
DV1_Füllung
  6
Continuous
 62
     7
100
AcDbHatch
 10
0.0
 20
0.0
 30
0.0
210
0.0
220
0.0
230
1.0
  2
SOLID
 70
     1
 71
     0
 91
        1
 92
        1
 93
        9
 72
     2
 10
81.13611599585387
 20
165.7210071587831
 40
1.25
 50
333.3981183819571
 51
386.6020143640542
 73
     1
 72
     1
 10
82.25378911371996
 20
166.2807453132799
 11
81.9239821829571
 21
166.6105522440428
 72
     2
 10
82.13611421731306
 20
166.8226842783987
 40
0.3000000000000003
 50
134.9999999999981
 51
166.1037054648682
 73
     0
 72
     2
 10
81.13611599585387
 20
165.7210071587831
 40
1.25
 50
55.45711711798414
 51
58.66774850240581
 73
     1
 72
     1
 10
81.78611599585388
 20
166.7887149839862
 11
81.78611599585388
 21
166.2210071587831
 72
     1
 10
81.78611599585388
 20
166.2210071587831
 11
81.88611599585388
 21
166.2210071587831
 72
     1
 10
81.88611599585388
 20
166.2210071587831
 11
81.88611599585388
 21
164.7851648156051
 72
     2
 10
82.13611507826539
 20
164.6193321927789
 40
0.2999999999999999
 50
213.557626793435
 51
225.0000656514858
 73
     0
 72
     1
 10
81.92398328697779
 20
164.831464470203
 11
82.25379041054912
 21
165.1612715937743
 97
        0
 75
     0
 76
     1
 98
        0
  0
HATCH
  5
6A
330
5F
100
AcDbEntity
  8
DV1_Füllung
  6
Continuous
 62
     7
100
AcDbHatch
 10
0.0
 20
0.0
 30
0.0
210
0.0
220
0.0
230
1.0
  2
SOLID
 70
     1
 71
     0
 91
        1
 92
        1
 93
       24
 72
     1
 10
74.78611599585388
 20
166.6109184701519
 11
74.78611599585388
 21
169.2210071587831
 72
     1
 10
74.78611599585388
 20
169.2210071587831
 11
70.93611599585387
 21
169.2210071587831
 72
     1
 10
70.93611599585387
 20
169.2210071587831
 11
70.93611599585387
 21
160.8606425042565
 72
     1
 10
70.93611599585387
 20
160.8606425042565
 11
70.93611599585388
 21
160.2210071587831
 72
     1
 10
70.93611599585388
 20
160.2210071587831
 11
74.76865331452348
 21
160.2210071587831
 72
     1
 10
74.76865331452346
 20
160.2210071587831
 11
74.77981819100907
 21
160.8606425042565
 72
     1
 10
74.77981819100908
 20
160.8606425042565
 11
74.78610837945169
 21
161.221007158783
 72
     1
 10
74.78610837945168
 20
161.221007158783
 11
77.88612361225606
 21
161.2210071587831
 72
     1
 10
77.88612361225607
 20
161.2210071587831
 11
77.89241380069868
 21
160.8606425042565
 72
     1
 10
77.89241380069866
 20
160.8606425042565
 11
77.90357867718429
 21
160.2210071587831
 72
     1
 10
77.9035786771843
 20
160.2210071587831
 11
81.73611599585388
 21
160.2210071587831
 72
     1
 10
81.73611599585387
 20
160.2210071587831
 11
81.73611599585387
 21
160.8606425042565
 72
     1
 10
81.73611599585387
 20
160.8606425042565
 11
81.73611599585388
 21
169.2210071587831
 72
     1
 10
81.73611599585388
 20
169.221007158783
 11
77.88611599585387
 21
169.2210071587831
 72
     1
 10
77.88611599585387
 20
169.2210071587831
 11
77.88611599585387
 21
166.6109184701519
 72
     1
 10
77.88611599585387
 20
166.6109184701519
 11
77.51791794431992
 21
166.0850771567673
 72
     3
 10
77.62398396149791
 20
165.9335991857515
 11
-2.168404344971009E-16
 21
0.2142222010113174
 40
0.7002075382097079
 50
34.99999999999561
 51
145.0000000000043
 73
     1
 72
     1
 10
77.51791794431993
 20
165.7821212147357
 11
77.88611599585386
 21
165.2562799013511
 72
     1
 10
77.88611599585386
 20
165.2562799013511
 11
77.88611599585387
 21
163.2210071587831
 72
     1
 10
77.88611599585387
 20
163.2210071587831
 11
74.78611599585386
 21
163.2210071587831
 72
     1
 10
74.78611599585388
 20
163.2210071587831
 11
74.78611599585388
 21
165.2562799013511
 72
     1
 10
74.78611599585388
 20
165.2562799013512
 11
75.1543140473878
 21
165.7821212147357
 72
     3
 10
75.04824803020983
 20
165.9335991857515
 11
0.0
 21
-0.2142222010113174
 40
0.7002075382097097
 50
34.99999999999571
 51
145.0000000000043
 73
     1
 72
     1
 10
75.1543140473878
 20
166.0850771567673
 11
74.78611599585389
 21
166.6109184701518
 97
        0
 75
     0
 76
     1
 98
        0
  0
HATCH
  5
6B
330
5F
100
AcDbEntity
  8
DV1_Füllung
  6
Continuous
 62
     7
100
AcDbHatch
 10
0.0
 20
0.0
 30
0.0
210
0.0
220
0.0
230
1.0
  2
SOLID
 70
     1
 71
     0
 91
        1
 92
        1
 93
       24
 72
     1
 10
74.78611599585388
 20
166.6109184701519
 11
74.78611599585388
 21
169.2210071587831
 72
     1
 10
74.78611599585388
 20
169.2210071587831
 11
70.93611599585387
 21
169.2210071587831
 72
     1
 10
70.93611599585387
 20
169.2210071587831
 11
70.93611599585387
 21
160.8606425042565
 72
     1
 10
70.93611599585387
 20
160.8606425042565
 11
70.93611599585388
 21
160.2210071587831
 72
     1
 10
70.93611599585388
 20
160.2210071587831
 11
74.76865331452348
 21
160.2210071587831
 72
     1
 10
74.76865331452346
 20
160.2210071587831
 11
74.77981819100907
 21
160.8606425042565
 72
     1
 10
74.77981819100908
 20
160.8606425042565
 11
74.78610837945169
 21
161.221007158783
 72
     1
 10
74.78610837945168
 20
161.221007158783
 11
77.88612361225606
 21
161.2210071587831
 72
     1
 10
77.88612361225607
 20
161.2210071587831
 11
77.89241380069868
 21
160.8606425042565
 72
     1
 10
77.89241380069866
 20
160.8606425042565
 11
77.90357867718429
 21
160.2210071587831
 72
     1
 10
77.9035786771843
 20
160.2210071587831
 11
81.73611599585388
 21
160.2210071587831
 72
     1
 10
81.73611599585387
 20
160.2210071587831
 11
81.73611599585387
 21
160.8606425042565
 72
     1
 10
81.73611599585387
 20
160.8606425042565
 11
81.73611599585388
 21
169.2210071587831
 72
     1
 10
81.73611599585388
 20
169.221007158783
 11
77.88611599585387
 21
169.2210071587831
 72
     1
 10
77.88611599585387
 20
169.2210071587831
 11
77.88611599585387
 21
166.6109184701519
 72
     1
 10
77.88611599585387
 20
166.6109184701519
 11
77.51791794431992
 21
166.0850771567673
 72
     3
 10
77.62398396149791
 20
165.9335991857515
 11
-2.168404344971009E-16
 21
0.2142222010113174
 40
0.7002075382097079
 50
34.99999999999561
 51
145.0000000000043
 73
     1
 72
     1
 10
77.51791794431993
 20
165.7821212147357
 11
77.88611599585386
 21
165.2562799013511
 72
     1
 10
77.88611599585386
 20
165.2562799013511
 11
77.88611599585387
 21
163.2210071587831
 72
     1
 10
77.88611599585387
 20
163.2210071587831
 11
74.78611599585386
 21
163.2210071587831
 72
     1
 10
74.78611599585388
 20
163.2210071587831
 11
74.78611599585388
 21
165.2562799013511
 72
     1
 10
74.78611599585388
 20
165.2562799013512
 11
75.1543140473878
 21
165.7821212147357
 72
     3
 10
75.04824803020983
 20
165.9335991857515
 11
0.0
 21
-0.2142222010113174
 40
0.7002075382097097
 50
34.99999999999571
 51
145.0000000000043
 73
     1
 72
     1
 10
75.1543140473878
 20
166.0850771567673
 11
74.78611599585389
 21
166.6109184701518
 97
        0
 75
     0
 76
     1
 98
        0
  0
HATCH
  5
6C
330
5F
100
AcDbEntity
  8
DV1_Füllung
  6
Continuous
 62
     7
100
AcDbHatch
 10
0.0
 20
0.0
 30
0.0
210
0.0
220
0.0
230
1.0
  2
SOLID
 70
     1
 71
     0
 91
        1
 92
        1
 93
        6
 72
     1
 10
77.88612361225609
 20
161.2210071587831
 11
74.78610837945169
 21
161.2210071587831
 72
     1
 10
74.78610837945168
 20
161.2210071587831
 11
74.77981819100907
 21
160.8606425042565
 72
     1
 10
74.77981819100908
 20
160.8606425042565
 11
74.76865331452346
 21
160.2210071587831
 72
     1
 10
74.76865331452345
 20
160.2210071587831
 11
77.90357867718427
 21
160.2210071587831
 72
     1
 10
77.90357867718429
 20
160.2210071587831
 11
77.89241380069868
 21
160.8606425042565
 72
     1
 10
77.89241380069866
 20
160.8606425042565
 11
77.88612361225606
 21
161.221007158783
 97
        0
 75
     0
 76
     1
 98
        0
  0
HATCH
  5
6D
330
5F
100
AcDbEntity
  8
DV1_Füllung
  6
Continuous
 62
     7
100
AcDbHatch
 10
0.0
 20
0.0
 30
0.0
210
0.0
220
0.0
230
1.0
  2
SOLID
 70
     1
 71
     0
 91
        1
 92
        1
 93
       10
 72
     1
 10
70.78611599585386
 20
166.2210071587831
 11
70.78611599585386
 21
164.7851648156051
 72
     2
 10
70.53611691344237
 20
164.6193321927789
 40
0.2999999999999965
 50
326.442373206565
 51
360.0
 73
     0
 72
     1
 10
70.83611691344237
 20
164.6193321927789
 11
70.83611624978721
 21
163.1099038890997
 72
     1
 10
70.83611624978721
 20
163.1099038890997
 11
70.8361164112148
 21
160.8210076043608
 72
     2
 10
70.2361164112148
 20
160.8210075620449
 40
0.599999957684165
 50
0.0
 51
23.55655428689028
 73
     0
 72
     1
 10
70.78611599585385
 20
160.5812151390665
 11
70.78611599585386
 21
160.2210071587831
 72
     1
 10
70.78611599585386
 20
160.2210071587831
 11
70.93611599585387
 21
160.2210071587831
 72
     1
 10
70.93611599585388
 20
160.2210071587831
 11
70.93611599585388
 21
160.8606425042565
 72
     1
 10
70.93611599585388
 20
160.8606425042565
 11
70.93611599585387
 21
166.2210071587831
 72
     1
 10
70.93611599585387
 20
166.221007158783
 11
70.78611599585388
 21
166.2210071587831
 97
        0
 75
     0
 76
     1
 98
        0
  0
HATCH
  5
6E
330
5F
100
AcDbEntity
  8
DV1_Füllung
  6
Continuous
 62
     7
100
AcDbHatch
 10
0.0
 20
0.0
 30
0.0
210
0.0
220
0.0
230
1.0
  2
SOLID
 70
     1
 71
     0
 91
        1
 92
        1
 93
        4
 72
     1
 10
70.88611599585387
 20
166.7887149839862
 11
70.88611599585387
 21
166.2210071587831
 72
     1
 10
70.88611599585387
 20
166.2210071587831
 11
70.93611599585387
 21
166.2210071587831
 72
     1
 10
70.93611599585387
 20
166.2210071587831
 11
70.93611599585387
 21
166.8175927687561
 72
     2
 10
71.53611599585386
 20
165.7210071587831
 40
1.25
 50
118.6854020141182
 51
121.3322514975936
 73
     1
 97
        0
 75
     0
 76
     1
 98
        0
  0
HATCH
  5
6F
330
5F
100
AcDbEntity
  8
DV1_Füllung
  6
Continuous
 62
     7
100
AcDbHatch
 10
0.0
 20
0.0
 30
0.0
210
0.0
220
0.0
230
1.0
  2
SOLID
 70
     1
 71
     0
 91
        1
 92
        1
 93
        7
 72
     1
 10
74.78611599585388
 20
169.2210071587831
 11
74.78611599585388
 21
166.6109184701519
 72
     1
 10
74.78611599585388
 20
166.6109184701519
 11
75.15431404738783
 21
166.0850771567673
 72
     3
 10
75.04824803020983
 20
165.9335991857515
 11
0.0
 21
0.2142222010113174
 40
0.7002075382097097
 50
34.99999999999569
 51
90.0
 73
     0
 72
     1
 10
75.19824803020983
 20
165.9335991857515
 11
75.19824803020983
 21
168.9335991857515
 72
     3
 10
75.04824803020983
 20
168.9335991857515
 11
2.168404344971009E-15
 21
-0.214222201011317
 40
0.7002075382097086
 50
89.99999999999942
 51
144.9999999999939
 73
     1
 72
     1
 10
75.15431404738781
 20
169.0850771567673
 11
75.05913483530755
 21
169.2210071587831
 72
     1
 10
75.05913483530755
 20
169.2210071587831
 11
74.7861159958539
 21
169.2210071587831
 97
        0
 75
     0
 76
     1
 98
        0
  0
HATCH
  5
70
330
5F
100
AcDbEntity
  8
DV1_Füllung
  6
Continuous
 62
     7
100
AcDbHatch
 10
0.0
 20
0.0
 30
0.0
210
0.0
220
0.0
230
1.0
  2
SOLID
 70
     1
 71
     0
 91
        1
 92
        1
 93
        7
 72
     1
 10
77.47398396149792
 20
168.9335991857515
 11
77.47398396149792
 21
165.9335991857515
 72
     3
 10
77.62398396149791
 20
165.9335991857515
 11
2.168404344971009E-16
 21
-0.2142222010113174
 40
0.7002075382097079
 50
90.00001472479236
 51
145.0000000000044
 73
     0
 72
     1
 10
77.51791794431995
 20
166.0850771567673
 11
77.88611599585386
 21
166.6109184701518
 72
     1
 10
77.88611599585386
 20
166.6109184701518
 11
77.88611599585387
 21
169.221007158783
 72
     1
 10
77.88611599585387
 20
169.221007158783
 11
77.61309715640023
 21
169.2210071587831
 72
     1
 10
77.61309715640023
 20
169.2210071587831
 11
77.51791794431993
 21
169.0850771567673
 72
     3
 10
77.62398396149791
 20
168.9335991857515
 11
2.168404344971009E-16
 21
0.2142222010113179
 40
0.7002075382097077
 50
35.00000000000588
 51
90.00000000000006
 73
     1
 97
        0
 75
     0
 76
     1
 98
        0
  0
HATCH
  5
71
330
5F
100
AcDbEntity
  8
DV1_Füllung
  6
Continuous
 62
     7
100
AcDbHatch
 10
0.0
 20
0.0
 30
0.0
210
0.0
220
0.0
230
1.0
  2
SOLID
 70
     1
 71
     0
 91
        1
 92
        1
 93
       10
 72
     1
 10
81.88611599585388
 20
164.7851648156051
 11
81.88611599585388
 21
166.2210071587831
 72
     1
 10
81.88611599585388
 20
166.2210071587831
 11
81.7361159958539
 21
166.2210071587831
 72
     1
 10
81.73611599585388
 20
166.2210071587831
 11
81.73611599585388
 21
160.8606425042565
 72
     1
 10
81.73611599585388
 20
160.8606425042565
 11
81.73611599585387
 21
160.2210071587831
 72
     1
 10
81.73611599585387
 20
160.2210071587831
 11
81.88611599585387
 21
160.2210071587831
 72
     1
 10
81.88611599585388
 20
160.2210071587831
 11
81.88611599585388
 21
160.5812154034438
 72
     2
 10
82.43611574192055
 20
160.8210075620449
 40
0.5999999999999999
 50
156.4434750161607
 51
180.0
 73
     0
 72
     1
 10
81.83611574192054
 20
160.8210075620449
 11
81.83611574192054
 21
163.1099038890996
 72
     1
 10
81.83611574192054
 20
163.1099038890996
 11
81.83611507826538
 21
164.6193321927789
 72
     2
 10
82.13611507826539
 20
164.6193321927789
 40
0.2999999999999999
 50
180.0
 51
213.557626793435
 73
     0
 97
        0
 75
     0
 76
     1
 98
        0
  0
HATCH
  5
72
330
5F
100
AcDbEntity
  8
DV1_Füllung
  6
Continuous
 62
     7
100
AcDbHatch
 10
0.0
 20
0.0
 30
0.0
210
0.0
220
0.0
230
1.0
  2
SOLID
 70
     1
 71
     0
 91
        1
 92
        1
 93
        4
 72
     1
 10
81.78611599585388
 20
166.2210071587831
 11
81.78611599585388
 21
166.7887149839862
 72
     2
 10
81.13611599585387
 20
165.7210071587831
 40
1.25
 50
58.66774850240581
 51
61.31459798588121
 73
     1
 72
     1
 10
81.73611599585387
 20
166.8175927687561
 11
81.73611599585388
 21
166.2210071587831
 72
     1
 10
81.73611599585388
 20
166.2210071587831
 11
81.78611599585388
 21
166.2210071587831
 97
        0
 75
     0
 76
     1
 98
        0
  0
LINE
  5
74
330
5F
100
AcDbEntity
  8
D000121
  6
Continuous
 62
     7
100
AcDbLine
 10
81.7361159959
 20
169.2210071588
 30
0.0
 11
81.7361159959
 21
160.8606425043
 31
0.0
  0
LINE
  5
75
330
5F
100
AcDbEntity
  8
D000121
  6
Continuous
 62
     7
100
AcDbLine
 10
81.7361159959
 20
160.8606425043
 30
0.0
 11
81.7361159959
 21
160.2210071588
 31
0.0
  0
LINE
  5
76
330
5F
100
AcDbEntity
  8
D000121
  6
Continuous
 62
     7
100
AcDbLine
 10
74.7861083795
 20
161.2210071588
 30
0.0
 11
77.8861236123
 21
161.2210071588
 31
0.0
  0
LINE
  5
77
330
5F
100
AcDbEntity
  8
D000121
  6
Continuous
 62
     7
100
AcDbLine
 10
77.8861159959
 20
163.2210071588
 30
0.0
 11
74.7861159959
 21
163.2210071588
 31
0.0
  0
LINE
  5
78
330
5F
100
AcDbEntity
  8
D000121
  6
Continuous
 62
     7
100
AcDbLine
 10
70.9361159959
 20
160.2210071588
 30
0.0
 11
70.9361159959
 21
160.8606425043
 31
0.0
  0
LINE
  5
79
330
5F
100
AcDbEntity
  8
D000121
  6
Continuous
 62
     7
100
AcDbLine
 10
70.9361159959
 20
169.2210071588
 30
0.0
 11
70.9361159959
 21
160.8606425043
 31
0.0
  0
LINE
  5
7A
330
5F
100
AcDbEntity
  8
D000121
  6
Continuous
 62
     7
100
AcDbLine
 10
70.7861159959
 20
160.2210071588
 30
0.0
 11
70.9361159959
 21
160.2210071588
 31
0.0
  0
LINE
  5
7B
330
5F
100
AcDbEntity
  8
D000121
  6
Continuous
 62
     7
100
AcDbLine
 10
81.7361159959
 20
160.2210071588
 30
0.0
 11
81.8861159959
 21
160.2210071588
 31
0.0
  0
LINE
  5
7C
330
5F
100
AcDbEntity
  8
D000121
  6
Continuous
 62
     7
100
AcDbLine
 10
81.7361159959
 20
160.2210071588
 30
0.0
 11
77.9035786772
 21
160.2210071588
 31
0.0
  0
LINE
  5
7D
330
5F
100
AcDbEntity
  8
D000121
  6
Continuous
 62
     7
100
AcDbLine
 10
77.9035786772
 20
160.2210071588
 30
0.0
 11
74.7686533145
 21
160.2210071588
 31
0.0
  0
LINE
  5
7E
330
5F
100
AcDbEntity
  8
D000121
  6
Continuous
 62
     7
100
AcDbLine
 10
74.7686533145
 20
160.2210071588
 30
0.0
 11
70.9361159959
 21
160.2210071588
 31
0.0
  0
LINE
  5
7F
330
5F
100
AcDbEntity
  8
D000121
  6
Continuous
 62
     7
100
AcDbLine
 10
74.7861159959
 20
169.2210071588
 30
0.0
 11
75.0591348353
 21
169.2210071588
 31
0.0
  0
LINE
  5
80
330
5F
100
AcDbEntity
  8
D000121
  6
Continuous
 62
     7
100
AcDbLine
 10
74.7861159959
 20
169.2210071588
 30
0.0
 11
70.9361159959
 21
169.2210071588
 31
0.0
  0
LINE
  5
81
330
5F
100
AcDbEntity
  8
D000121
  6
Continuous
 62
     7
100
AcDbLine
 10
75.1543140474
 20
166.0850771568
 30
0.0
 11
74.7861159959
 21
166.6109184702
 31
0.0
  0
LINE
  5
82
330
5F
100
AcDbEntity
  8
D000121
  6
Continuous
 62
     7
100
AcDbLine
 10
75.1543140474
 20
169.0850771568
 30
0.0
 11
75.0591348353
 21
169.2210071588
 31
0.0
  0
LINE
  5
83
330
5F
100
AcDbEntity
  8
D000121
  6
Continuous
 62
     7
100
AcDbLine
 10
74.7861159959
 20
165.2562799014
 30
0.0
 11
75.1543140474
 21
165.7821212147
 31
0.0
  0
ELLIPSE
  5
84
330
5F
100
AcDbEntity
  8
D000121
  6
Continuous
 62
     7
100
AcDbEllipse
 10
75.0482480302
 20
165.9335991858
 30
0.0
 11
0.0
 21
-0.2142222010113174
 31
0.0
210
0.0
220
0.0
230
1.0
 40
0.7002075382
 41
0.7853981633973683
 42
2.356194490192425
  0
ELLIPSE
  5
85
330
5F
100
AcDbEntity
  8
D000121
  6
Continuous
 62
     7
100
AcDbEllipse
 10
75.0482480302
 20
168.9335991858
 30
0.0
 11
2.168404344971009E-15
 21
-0.214222201011317
 31
0.0
210
0.0
220
0.0
230
1.0
 40
0.7002075382
 41
1.570796326794889
 42
2.356194490192232
  0
LINE
  5
86
330
5F
100
AcDbEntity
  8
D000121
  6
Continuous
 62
     7
100
AcDbLine
 10
74.7861159959
 20
166.6109184702
 30
0.0
 11
74.7861159959
 21
169.2210071588
 31
0.0
  0
LINE
  5
87
330
5F
100
AcDbEntity
  8
D000121
  6
Continuous
 62
     7
100
AcDbLine
 10
77.6130971564
 20
169.2210071588
 30
0.0
 11
77.8861159959
 21
169.2210071588
 31
0.0
  0
LINE
  5
88
330
5F
100
AcDbEntity
  8
D000121
  6
Continuous
 62
     7
100
AcDbLine
 10
81.7361159959
 20
169.2210071588
 30
0.0
 11
77.8861159959
 21
169.2210071588
 31
0.0
  0
LINE
  5
89
330
5F
100
AcDbEntity
  8
D000121
  6
Continuous
 62
     7
100
AcDbLine
 10
77.8861159959
 20
166.6109184702
 30
0.0
 11
77.5179179443
 21
166.0850771568
 31
0.0
  0
LINE
  5
8A
330
5F
100
AcDbEntity
  8
D000121
  6
Continuous
 62
     7
100
AcDbLine
 10
77.6130971564
 20
169.2210071588
 30
0.0
 11
77.5179179443
 21
169.0850771568
 31
0.0
  0
LINE
  5
8B
330
5F
100
AcDbEntity
  8
D000121
  6
Continuous
 62
     7
100
AcDbLine
 10
77.5179179443
 20
165.7821212147
 30
0.0
 11
77.8861159959
 21
165.2562799014
 31
0.0
  0
ELLIPSE
  5
8C
330
5F
100
AcDbEntity
  8
D000121
  6
Continuous
 62
     7
100
AcDbEllipse
 10
77.6239839615
 20
165.9335991858
 30
0.0
 11
-2.168404344971009E-16
 21
0.2142222010113174
 31
0.0
210
0.0
220
0.0
230
1.0
 40
0.7002075382
 41
0.7853981633973683
 42
2.356194490192424
  0
ELLIPSE
  5
8D
330
5F
100
AcDbEntity
  8
D000121
  6
Continuous
 62
     7
100
AcDbEllipse
 10
77.6239839615
 20
168.9335991858
 30
0.0
 11
2.168404344971009E-16
 21
0.2142222010113179
 31
0.0
210
0.0
220
0.0
230
1.0
 40
0.7002075382
 41
0.7853981633975593
 42
1.570796326794897
  0
LINE
  5
8E
330
5F
100
AcDbEntity
  8
D000121
  6
Continuous
 62
     7
100
AcDbLine
 10
77.8861159959
 20
169.2210071588
 30
0.0
 11
77.8861159959
 21
166.6109184702
 31
0.0
  0
LINE
  5
8F
330
5F
100
AcDbEntity
  8
D000121
  6
Continuous
 62
     7
100
AcDbLine
 10
77.8924138007
 20
160.8606425043
 30
0.0
 11
77.8861236123
 21
161.2210071588
 31
0.0
  0
LINE
  5
90
330
5F
100
AcDbEntity
  8
D000121
  6
Continuous
 62
     7
100
AcDbLine
 10
77.8861159959
 20
165.2562799014
 30
0.0
 11
77.8861159959
 21
163.2210071588
 31
0.0
  0
LINE
  5
91
330
5F
100
AcDbEntity
  8
D000121
  6
Continuous
 62
     7
100
AcDbLine
 10
74.7861159959
 20
163.2210071588
 30
0.0
 11
74.7861159959
 21
165.2562799014
 31
0.0
  0
LINE
  5
92
330
5F
100
AcDbEntity
  8
D000121
  6
Continuous
 62
     7
100
AcDbLine
 10
74.7861083795
 20
161.2210071588
 30
0.0
 11
74.779818191
 21
160.8606425043
 31
0.0
  0
LINE
  5
93
330
5F
100
AcDbEntity
  8
D000121
  6
Continuous
 62
     7
100
AcDbLine
 10
74.779818191
 20
160.8606425043
 30
0.0
 11
74.7686533145
 21
160.2210071588
 31
0.0
  0
LINE
  5
94
330
5F
100
AcDbEntity
  8
D000121
  6
Continuous
 62
     7
100
AcDbLine
 10
77.9035786772
 20
160.2210071588
 30
0.0
 11
77.8924138007
 21
160.8606425043
 31
0.0
  0
LINE
  5
95
330
5F
100
AcDbEntity
  8
D000121
  6
Continuous
 62
     7
100
AcDbLine
 10
75.1982480302
 20
166.2210071588
 30
0.0
 11
77.4739839615
 21
166.2210071588
 31
0.0
  0
LINE
  5
96
330
5F
100
AcDbEntity
  8
D000121
  6
Continuous
 62
     7
100
AcDbLine
 10
70.7861159959
 20
166.2210071588
 30
0.0
 11
70.9361159959
 21
166.2210071588
 31
0.0
  0
LINE
  5
97
330
5F
100
AcDbEntity
  8
D000121
  6
Continuous
 62
     7
100
AcDbLine
 10
81.7361159959
 20
166.2210071588
 30
0.0
 11
81.8861159959
 21
166.2210071588
 31
0.0
  0
LINE
  5
98
330
5F
100
AcDbEntity
  8
D000121
  6
Continuous
 62
     7
100
AcDbLine
 10
81.8861159959
 20
166.2210071588
 30
0.0
 11
81.8861159959
 21
164.7851648156
 31
0.0
  0
LINE
  5
99
330
5F
100
AcDbEntity
  8
D000121
  6
Continuous
 62
     7
100
AcDbLine
 10
81.8861159959
 20
160.5812154034
 30
0.0
 11
81.8861159959
 21
160.2210071588
 31
0.0
  0
LINE
  5
9A
330
5F
100
AcDbEntity
  8
D000121
  6
Continuous
 62
     7
100
AcDbLine
 10
70.7861159959
 20
166.2210071588
 30
0.0
 11
70.7861159959
 21
164.7851648156
 31
0.0
  0
LINE
  5
9B
330
5F
100
AcDbEntity
  8
D000121
  6
Continuous
 62
     7
100
AcDbLine
 10
70.7861159959
 20
160.5812150332
 30
0.0
 11
70.7861159959
 21
160.2210071588
 31
0.0
  0
LINE
  5
9C
330
5F
100
AcDbEntity
  8
D000121
  6
Continuous
 62
     7
100
AcDbLine
 10
75.1982480302
 20
165.9335991858
 30
0.0
 11
75.1982480302
 21
168.9335991858
 31
0.0
  0
LINE
  5
9D
330
5F
100
AcDbEntity
  8
D000121
  6
Continuous
 62
     7
100
AcDbLine
 10
77.4739839615
 20
168.9335991858
 30
0.0
 11
77.4739839615
 21
165.9335991858
 31
0.0
  0
LINE
  5
9F
330
5F
100
AcDbEntity
  8
D000122
  6
Continuous
 62
     7
100
AcDbLine
 10
74.3361159959
 20
172.7210071588
 30
0.0
 11
74.3361159959
 21
173.2210071588
 31
0.0
  0
LINE
  5
A0
330
5F
100
AcDbEntity
  8
D000122
  6
Continuous
 62
     7
100
AcDbLine
 10
78.3361159959
 20
173.2210071588
 30
0.0
 11
78.3361159959
 21
172.7210071588
 31
0.0
  0
ELLIPSE
  5
A1
330
5F
100
AcDbEntity
  8
D000122
  6
Continuous
 62
     7
100
AcDbEllipse
 10
75.4214281896
 20
172.2210071588
 30
0.0
 11
2.168404344971009E-16
 21
-0.5000000000000004
 31
0.0
210
0.0
220
0.0
230
1.0
 40
0.3057306815
 41
1.919862177193823
 42
3.141592653589793
  0
LINE
  5
A2
330
5F
100
AcDbEntity
  8
D000122
  6
Continuous
 62
     7
100
AcDbLine
 10
72.786219765
 20
172.7210071588
 30
0.0
 11
75.4214281896
 21
172.7210071588
 31
0.0
  0
ARC
  5
A3
330
5F
100
AcDbEntity
  8
D000122
  6
Continuous
 62
     7
100
AcDbCircle
 10
72.786219765
 20
172.2210071588
 30
0.0
 40
0.5000000000000022
100
AcDbArc
 50
90.0
 51
160.0
  0
LINE
  5
A4
330
5F
100
AcDbEntity
  8
D000122
  6
Continuous
 62
     7
100
AcDbLine
 10
75.5240797759
 20
172.7604212591
 30
0.0
 11
75.5650746223
 21
172.3920172304
 31
0.0
  0
ELLIPSE
  5
A5
330
5F
100
AcDbEntity
  8
D000122
  6
Continuous
 62
     7
100
AcDbEllipse
 10
75.3229747702
 20
172.5210071588
 30
0.0
 11
-1.517883041479706E-15
 21
-0.7000000000000079
 31
0.0
210
0.0
220
0.0
230
1.0
 40
0.3057306815
 41
1.919862177193794
 42
3.141592653589793
  0
LINE
  5
A6
330
5F
100
AcDbEntity
  8
D000122
  6
Continuous
 62
     7
100
AcDbLine
 10
75.3229747702
 20
173.2210071588
 30
0.0
 11
74.3361159959
 21
173.2210071588
 31
0.0
  0
LINE
  5
A7
330
5F
100
AcDbEntity
  8
D000122
  6
Continuous
 62
     7
100
AcDbLine
 10
75.3229747702
 20
173.2210071588
 30
0.0
 11
77.3492572215
 21
173.2210071588
 31
0.0
  0
LINE
  5
A8
330
5F
100
AcDbEntity
  8
D000122
  6
Continuous
 62
     7
100
AcDbLine
 10
78.3361159959
 20
173.2210071588
 30
0.0
 11
77.3492572215
 21
173.2210071588
 31
0.0
  0
LINE
  5
A9
330
5F
100
AcDbEntity
  8
D000122
  6
Continuous
 62
     7
100
AcDbLine
 10
77.2508038021
 20
172.7210071588
 30
0.0
 11
79.8860122267
 21
172.7210071588
 31
0.0
  0
LINE
  5
AA
330
5F
100
AcDbEntity
  8
D000122
  6
Continuous
 62
     7
100
AcDbLine
 10
81.7861159959
 20
166.2210071588
 30
0.0
 11
81.7861159959
 21
166.788714984
 31
0.0
  0
ARC
  5
AB
330
5F
100
AcDbEntity
  8
D000122
  6
Continuous
 62
     7
100
AcDbCircle
 10
81.1361159959
 20
165.7210071588
 30
0.0
 40
1.25
100
AcDbArc
 50
58.6677485024
 51
61.3145979859
  0
LINE
  5
AC
330
5F
100
AcDbEntity
  8
D000122
  6
Continuous
 62
     7
100
AcDbLine
 10
77.4739839615
 20
168.5997910296
 30
0.0
 11
75.1982480302
 21
168.5997910296
 31
0.0
  0
ARC
  5
AD
330
5F
100
AcDbEntity
  8
D000122
  6
Continuous
 62
     7
100
AcDbCircle
 10
71.5361159959
 20
165.7210071588
 30
0.0
 40
1.25
100
AcDbArc
 50
118.6854020141
 51
121.3322514976
  0
LINE
  5
AE
330
5F
100
AcDbEntity
  8
D000122
  6
Continuous
 62
     7
100
AcDbLine
 10
70.8861159959
 20
166.788714984
 30
0.0
 11
70.8861159959
 21
166.2210071588
 31
0.0
  0
ELLIPSE
  5
AF
330
5F
100
AcDbEntity
  8
D000122
  6
Continuous
 62
     7
100
AcDbEllipse
 10
77.2508038021
 20
172.2210071588
 30
0.0
 11
1.084202172485504E-16
 21
0.5000000000000022
 31
0.0
210
0.0
220
0.0
230
1.0
 40
0.3057306815
 41
0.0
 42
1.221730476395971
  0
ARC
  5
B0
330
5F
100
AcDbEntity
  8
D000122
  6
Continuous
 62
     7
100
AcDbCircle
 10
79.8860122267
 20
172.2210071588
 30
0.0
 40
0.5000000000000022
100
AcDbArc
 50
20.0
 51
90.0
  0
LINE
  5
B1
330
5F
100
AcDbEntity
  8
D000122
  6
Continuous
 62
     7
100
AcDbLine
 10
77.1481522158
 20
172.7604212591
 30
0.0
 11
77.1071573694
 21
172.3920172304
 31
0.0
  0
LINE
  5
B2
330
5F
100
AcDbEntity
  8
D000122
  6
Continuous
 62
     7
100
AcDbLine
 10
72.3163734546
 20
172.3920172304
 30
0.0
 11
71.1622201759
 21
169.2210071588
 31
0.0
  0
LINE
  5
B3
330
5F
100
AcDbEntity
  8
D000122
  6
Continuous
 62
     7
100
AcDbLine
 10
81.5100118158
 20
169.2210071588
 30
0.0
 11
80.3558585371
 21
172.3920172304
 31
0.0
  0
ARC
  5
B4
330
5F
100
AcDbEntity
  8
D000122
  6
Continuous
 62
     7
100
AcDbCircle
 10
71.5361159959
 20
165.7210071588
 30
0.0
 40
1.25
100
AcDbArc
 50
121.3322514976
 51
124.542882882
  0
ARC
  5
B5
330
5F
100
AcDbEntity
  8
D000122
  6
Continuous
 62
     7
100
AcDbCircle
 10
71.5361159959
 20
165.7210071588
 30
0.0
 40
1.25
100
AcDbArc
 50
153.3979856359
 51
206.601881618
  0
ARC
  5
B6
330
5F
100
AcDbEntity
  8
D000122
  6
Continuous
 62
     7
100
AcDbCircle
 10
81.1361159959
 20
165.7210071588
 30
0.0
 40
1.25
100
AcDbArc
 50
333.398118382
 51
26.6020143641
  0
ARC
  5
B7
330
5F
100
AcDbEntity
  8
D000122
  6
Continuous
 62
     7
100
AcDbCircle
 10
81.1361159959
 20
165.7210071588
 30
0.0
 40
1.25
100
AcDbArc
 50
55.457117118
 51
58.6677485024
  0
ELLIPSE
  5
B8
330
5F
100
AcDbEntity
  8
D000122
  6
Continuous
 62
     7
100
AcDbEllipse
 10
77.3492572215
 20
172.5210071588
 30
0.0
 11
2.168404344971009E-16
 21
0.6999999999999993
 31
0.0
210
0.0
220
0.0
230
1.0
 40
0.3057306815
 41
0.0
 42
1.221730476396039
  0
LINE
  5
BA
330
5F
100
AcDbEntity
  8
D000126
  6
Continuous
 62
     7
100
AcDbLine
 10
81.8361157419
 20
163.1099038891
 30
0.0
 11
81.8361157419
 21
160.821007562
 31
0.0
  0
ARC
  5
BB
330
5F
100
AcDbEntity
  8
D000126
  6
Continuous
 62
     7
100
AcDbCircle
 10
70.4243907948
 20
165.7210078051
 30
0.0
 40
0.4
100
AcDbArc
 50
135.0
 51
225.0
  0
LINE
  5
BC
330
5F
100
AcDbEntity
  8
D000126
  6
Continuous
 62
     7
100
AcDbLine
 10
70.1415480823
 20
166.0038505176
 30
0.0
 11
70.7482498088
 21
166.610552244
 31
0.0
  0
ARC
  5
BD
330
5F
100
AcDbEntity
  8
D000126
  6
Continuous
 62
     7
100
AcDbCircle
 10
70.5361177744
 20
166.8226842784
 30
0.0
 40
0.300000000000001
100
AcDbArc
 50
315.0
 51
45.0001533825
  0
LINE
  5
BE
330
5F
100
AcDbEntity
  8
D000126
  6
Continuous
 62
     7
100
AcDbLine
 10
70.7482492409
 20
167.0348168806
 30
0.0
 11
70.3239851722
 21
167.4590809493
 31
0.0
  0
ARC
  5
BF
330
5F
100
AcDbEntity
  8
D000126
  6
Continuous
 62
     7
100
AcDbCircle
 10
70.1118531378
 20
167.246948915
 30
0.0
 40
0.300000000000001
100
AcDbArc
 50
45.0
 51
135.1325758287
  0
LINE
  5
C0
330
5F
100
AcDbEntity
  8
D000126
  6
Continuous
 62
     7
100
AcDbLine
 10
69.8992308227
 20
167.4585895328
 30
0.0
 11
68.7365245563
 21
166.2958832664
 31
0.0
  0
LINE
  5
C1
330
5F
100
AcDbEntity
  8
D000126
  6
Continuous
 62
     7
100
AcDbLine
 10
70.8361162498
 20
163.1099038891
 30
0.0
 11
70.8361169134
 21
164.6193320956
 31
0.0
  0
ARC
  5
C2
330
5F
100
AcDbEntity
  8
D000126
  6
Continuous
 62
     7
100
AcDbCircle
 10
70.5361169134
 20
164.6193321928
 30
0.0
 40
0.2999999999999965
100
AcDbArc
 50
0.0
 51
45.0000656515
  0
LINE
  5
C3
330
5F
100
AcDbEntity
  8
D000126
  6
Continuous
 62
     7
100
AcDbLine
 10
70.7482487047
 20
164.8314644702
 30
0.0
 11
70.1415480823
 21
165.4381650926
 31
0.0
  0
ARC
  5
C4
330
5F
100
AcDbEntity
  8
D000126
  6
Continuous
 62
     7
100
AcDbCircle
 10
76.3361159959
 20
171.221007562
 30
0.0
 40
9.8
100
AcDbArc
 50
36.9717713184
 51
37.7520011937
  0
ARC
  5
C5
330
5F
100
AcDbEntity
  8
D000126
  6
Continuous
 62
     7
100
AcDbCircle
 10
76.3361159959
 20
169.7740378627
 30
0.0
 40
10.74696969654103
100
AcDbArc
 50
43.8630258158
 51
136.1369741842
  0
ARC
  5
C6
330
5F
100
AcDbEntity
  8
D000126
  6
Continuous
 62
     7
100
AcDbCircle
 10
76.3361159959
 20
171.221007562
 30
0.0
 40
9.799999999999999
100
AcDbArc
 50
142.2479988063
 51
143.0282286816
  0
ARC
  5
C7
330
5F
100
AcDbEntity
  8
D000126
  6
Continuous
 62
     7
100
AcDbCircle
 10
71.4355649973
 20
172.4329773417
 30
0.0
 40
0.5000000000000009
100
AcDbArc
 50
90.0159025292
 51
209.9999998014
  0
LINE
  5
C8
330
5F
100
AcDbEntity
  8
D000126
  6
Continuous
 62
     7
100
AcDbLine
 10
71.0025522954
 20
172.1829773437
 30
0.0
 11
71.4864323853
 21
171.3448724432
 31
0.0
  0
ARC
  5
C9
330
5F
100
AcDbEntity
  8
D000126
  6
Continuous
 62
     7
100
AcDbCircle
 10
70.9668171431
 20
171.0448724432
 30
0.0
 40
0.5999999999995178
100
AcDbArc
 50
210.0
 51
30.0
  0
LINE
  5
CA
330
5F
100
AcDbEntity
  8
D000126
  6
Continuous
 62
     7
100
AcDbLine
 10
70.4472019008
 20
170.7448724432
 30
0.0
 11
68.0936045639
 21
174.8214226113
 31
0.0
  0
ARC
  5
CB
330
5F
100
AcDbEntity
  8
D000126
  6
Continuous
 62
     7
100
AcDbCircle
 10
67.660591862
 20
174.5714226113
 30
0.0
 40
0.5000000000000011
100
AcDbArc
 50
30.0
 51
158.8838551188
  0
ARC
  5
CC
330
5F
100
AcDbEntity
  8
D000126
  6
Continuous
 62
     7
100
AcDbCircle
 10
68.906049164
 20
176.8142272855
 30
0.0
 40
0.5000000000000007
100
AcDbArc
 50
143.0282286816
 51
210.0
  0
LINE
  5
CD
330
5F
100
AcDbEntity
  8
D000126
  6
Continuous
 62
     7
100
AcDbLine
 10
68.4730364621
 20
176.5642272855
 30
0.0
 11
69.7325409721
 21
174.3827014819
 31
0.0
  0
ARC
  5
CE
330
5F
100
AcDbEntity
  8
D000126
  6
Continuous
 62
     7
100
AcDbCircle
 10
70.165553674
 20
174.6327014819
 30
0.0
 40
0.4999999999999994
100
AcDbArc
 50
210.0
 51
270.0124466121
  0
LINE
  5
CF
330
5F
100
AcDbEntity
  8
D000126
  6
Continuous
 62
     7
100
AcDbLine
 10
70.1656622911
 20
174.1327014937
 30
0.0
 11
73.2245478051
 21
174.1333659888
 31
0.0
  0
ARC
  5
D0
330
5F
100
AcDbEntity
  8
D000126
  6
Continuous
 62
     7
100
AcDbCircle
 10
73.2360942866
 20
173.5334771119
 30
0.0
 40
0.5999999882024647
100
AcDbArc
 50
270.0159025292
 51
91.1026758457
  0
LINE
  5
D1
330
5F
100
AcDbEntity
  8
D000126
  6
Continuous
 62
     7
100
AcDbLine
 10
73.2362608175
 20
172.9334771468
 30
0.0
 11
71.4354262215
 21
172.9329773225
 31
0.0
  0
LINE
  5
D2
330
5F
100
AcDbEntity
  8
D000126
  6
Continuous
 62
     7
100
AcDbLine
 10
70.8361164112
 20
160.8210076044
 30
0.0
 11
70.8361162498
 21
163.1099038891
 31
0.0
  0
ARC
  5
D3
330
5F
100
AcDbEntity
  8
D000126
  6
Continuous
 62
     7
100
AcDbCircle
 10
70.2361164112
 20
160.821007562
 30
0.0
 40
0.599999957684165
100
AcDbArc
 50
180.0
 51
0.0
  0
ARC
  5
D4
330
5F
100
AcDbEntity
  8
D000126
  6
Continuous
 62
     7
100
AcDbCircle
 10
76.3361159959
 20
171.221007562
 30
0.0
 40
9.8
100
AcDbArc
 50
158.8838551188
 51
209.289586008
  0
ARC
  5
D5
330
5F
100
AcDbEntity
  8
D000126
  6
Continuous
 62
     7
100
AcDbCircle
 10
68.3122604876
 20
166.7201473351
 30
0.0
 40
0.6000000000000014
100
AcDbArc
 50
209.289586008
 51
315.0
  0
LINE
  5
D6
330
5F
100
AcDbEntity
  8
D000126
  6
Continuous
 62
     7
100
AcDbLine
 10
69.6361164535
 20
162.2060196706
 30
0.0
 11
69.6361164535
 21
160.821007562
 31
0.0
  0
ARC
  5
D7
330
5F
100
AcDbEntity
  8
D000126
  6
Continuous
 62
     7
100
AcDbCircle
 10
69.0361164535
 20
162.2060196706
 30
0.0
 40
0.5999999999999996
100
AcDbArc
 50
0.0
 51
51.0007435716
  0
LINE
  5
D8
330
5F
100
AcDbEntity
  8
D000126
  6
Continuous
 62
     7
100
AcDbLine
 10
81.923982183
 20
166.610552244
 30
0.0
 11
82.5306839094
 21
166.0038505176
 31
0.0
  0
ARC
  5
D9
330
5F
100
AcDbEntity
  8
D000126
  6
Continuous
 62
     7
100
AcDbCircle
 10
82.2478411969
 20
165.7210078051
 30
0.0
 40
0.4
100
AcDbArc
 50
315.0
 51
45.0
  0
LINE
  5
DA
330
5F
100
AcDbEntity
  8
D000126
  6
Continuous
 62
     7
100
AcDbLine
 10
82.5306839094
 20
165.4381650926
 30
0.0
 11
81.923983287
 21
164.8314644702
 31
0.0
  0
ARC
  5
DB
330
5F
100
AcDbEntity
  8
D000126
  6
Continuous
 62
     7
100
AcDbCircle
 10
82.1361150783
 20
164.6193321928
 30
0.0
 40
0.2999999999999999
100
AcDbArc
 50
134.9999343485
 51
180.0
  0
LINE
  5
DC
330
5F
100
AcDbEntity
  8
D000126
  6
Continuous
 62
     7
100
AcDbLine
 10
81.8361150783
 20
164.6193321928
 30
0.0
 11
81.8361157419
 21
163.1099038891
 31
0.0
  0
ARC
  5
DD
330
5F
100
AcDbEntity
  8
D000126
  6
Continuous
 62
     7
100
AcDbCircle
 10
82.5603788539
 20
167.246948915
 30
0.0
 40
0.2999999999999975
100
AcDbArc
 50
44.8674241713
 51
135.0
  0
LINE
  5
DE
330
5F
100
AcDbEntity
  8
D000126
  6
Continuous
 62
     7
100
AcDbLine
 10
82.3482468196
 20
167.4590809493
 30
0.0
 11
81.9239827508
 21
167.0348168806
 31
0.0
  0
ARC
  5
DF
330
5F
100
AcDbEntity
  8
D000126
  6
Continuous
 62
     7
100
AcDbCircle
 10
82.1361142173
 20
166.8226842784
 30
0.0
 40
0.3000000000000003
100
AcDbArc
 50
134.9998466175
 51
225.0
  0
ARC
  5
E0
330
5F
100
AcDbEntity
  8
D000126
  6
Continuous
 62
     7
100
AcDbCircle
 10
76.3361159959
 20
171.221007562
 30
0.0
 40
9.799999999999999
100
AcDbArc
 50
330.710413992
 51
21.1161448812
  0
LINE
  5
E1
330
5F
100
AcDbEntity
  8
D000126
  6
Continuous
 62
     7
100
AcDbLine
 10
81.1857996064
 20
171.3448724432
 30
0.0
 11
81.6696796972
 21
172.1829773432
 31
0.0
  0
ARC
  5
E2
330
5F
100
AcDbEntity
  8
D000126
  6
Continuous
 62
     7
100
AcDbCircle
 10
81.2366669944
 20
172.4329773417
 30
0.0
 40
0.4999999999999996
100
AcDbArc
 50
330.0000001986
 51
89.9840974708
  0
LINE
  5
E3
330
5F
100
AcDbEntity
  8
D000126
  6
Continuous
 62
     7
100
AcDbLine
 10
81.2368057702
 20
172.9329773225
 30
0.0
 11
79.4359711742
 21
172.9334771468
 31
0.0
  0
ARC
  5
E4
330
5F
100
AcDbEntity
  8
D000126
  6
Continuous
 62
     7
100
AcDbCircle
 10
79.4361377051
 20
173.5334771119
 30
0.0
 40
0.5999999882024643
100
AcDbArc
 50
88.8973241543
 51
269.9840974708
  0
LINE
  5
E5
330
5F
100
AcDbEntity
  8
D000126
  6
Continuous
 62
     7
100
AcDbLine
 10
79.4476841866
 20
174.1333659888
 30
0.0
 11
82.5065697006
 21
174.1327014937
 31
0.0
  0
ARC
  5
E6
330
5F
100
AcDbEntity
  8
D000126
  6
Continuous
 62
     7
100
AcDbCircle
 10
82.5066783178
 20
174.6327014819
 30
0.0
 40
0.5000000000000011
100
AcDbArc
 50
269.9875533879
 51
330.0
  0
LINE
  5
E7
330
5F
100
AcDbEntity
  8
D000126
  6
Continuous
 62
     7
100
AcDbLine
 10
82.9396910196
 20
174.3827014819
 30
0.0
 11
84.1991955296
 21
176.5642272855
 31
0.0
  0
ARC
  5
E8
330
5F
100
AcDbEntity
  8
D000126
  6
Continuous
 62
     7
100
AcDbCircle
 10
83.7661828277
 20
176.8142272855
 30
0.0
 40
0.4999999999999979
100
AcDbArc
 50
330.0
 51
36.9717713184
  0
ARC
  5
E9
330
5F
100
AcDbEntity
  8
D000126
  6
Continuous
 62
     7
100
AcDbCircle
 10
85.0116401297
 20
174.5714226113
 30
0.0
 40
0.5000000000000057
100
AcDbArc
 50
21.1161448812
 51
150.0
  0
LINE
  5
EA
330
5F
100
AcDbEntity
  8
D000126
  6
Continuous
 62
     7
100
AcDbLine
 10
84.5786274278
 20
174.8214226113
 30
0.0
 11
82.2250300909
 21
170.7448724432
 31
0.0
  0
ARC
  5
EB
330
5F
100
AcDbEntity
  8
D000126
  6
Continuous
 62
     7
100
AcDbCircle
 10
81.7054148486
 20
171.0448724432
 30
0.0
 40
0.5999999999995187
100
AcDbArc
 50
150.0
 51
330.0
  0
ARC
  5
EC
330
5F
100
AcDbEntity
  8
D000126
  6
Continuous
 62
     7
100
AcDbCircle
 10
82.4361157419
 20
160.821007562
 30
0.0
 40
0.5999999999999999
100
AcDbArc
 50
180.0
 51
0.0
  0
LINE
  5
ED
330
5F
100
AcDbEntity
  8
D000126
  6
Continuous
 62
     7
100
AcDbLine
 10
83.9357074354
 20
166.2958832664
 30
0.0
 11
82.773001169
 21
167.4585895328
 31
0.0
  0
ARC
  5
EE
330
5F
100
AcDbEntity
  8
D000126
  6
Continuous
 62
     7
100
AcDbCircle
 10
84.3599715041
 20
166.7201473351
 30
0.0
 40
0.6000000000000012
100
AcDbArc
 50
225.0
 51
330.710413992
  0
ARC
  5
EF
330
5F
100
AcDbEntity
  8
D000126
  6
Continuous
 62
     7
100
AcDbCircle
 10
76.3361159959
 20
171.221007562
 30
0.0
 40
11.0
100
AcDbArc
 50
308.9992577233
 51
231.0007435716
  0
ARC
  5
F0
330
5F
100
AcDbEntity
  8
D000126
  6
Continuous
 62
     7
100
AcDbCircle
 10
83.6361157419
 20
162.2060198356
 30
0.0
 40
0.5999999999999999
100
AcDbArc
 50
128.9992577233
 51
180.0
  0
LINE
  5
F1
330
5F
100
AcDbEntity
  8
D000126
  6
Continuous
 62
     7
100
AcDbLine
 10
83.0361157419
 20
160.821007562
 30
0.0
 11
83.0361157419
 21
162.2060198356
 31
0.0
  0
LINE
  5
F4
330
5F
100
AcDbEntity
  8
DV1_Standard
  6
CENTER2
 62
     7
100
AcDbLine
 10
76.3361159959
 20
156.7210071588
 30
0.0
 11
76.3361159959
 21
166.7210071588
 31
0.0
  0
ENDBLK
  5
F6
330
5F
100
AcDbEntity
  8
0
100
AcDbBlockEnd
  0
BLOCK
  5
F9
330
F8
100
AcDbEntity
  8
0
100
AcDbBlockBegin
  2
_Oblique
 70
     0
 10
0.0
 20
0.0
 30
0.0
  3
_Oblique
  1

  0
LINE
  5
FB
330
F8
100
AcDbEntity
  8
0
  6
ByBlock
 62
     0
370
    -2
100
AcDbLine
 10
-0.5
 20
-0.5
 30
0.0
 11
0.5
 21
0.5
 31
0.0
  0
ENDBLK
  5
FA
330
F8
100
AcDbEntity
  8
0
100
AcDbBlockEnd
  0
BLOCK
  5
FD
330
FC
100
AcDbEntity
  8
0
100
AcDbBlockBegin
  2
_Dot
 70
     0
 10
0.0
 20
0.0
 30
0.0
  3
_Dot
  1

  0
LWPOLYLINE
  5
FF
330
FC
100
AcDbEntity
  8
0
  6
ByBlock
 62
     0
100
AcDbPolyline
 90
        2
 70
     1
 43
0.5
 10
-0.25
 20
0.0
 42
1.0
 10
0.25
 20
0.0
 42
1.0
  0
LINE
  5
100
330
FC
100
AcDbEntity
  8
0
  6
ByBlock
 62
     0
370
    -2
100
AcDbLine
 10
-0.5
 20
0.0
 30
0.0
 11
-1.0
 21
0.0
 31
0.0
  0
ENDBLK
  5
FE
330
FC
100
AcDbEntity
  8
0
100
AcDbBlockEnd
  0
BLOCK
  5
105
330
101
100
AcDbEntity
  8
0
100
AcDbBlockBegin
  2
_SE_OPEN
 70
     0
 10
0.0
 20
0.0
 30
0.0
  3
_SE_OPEN
  1

  0
LINE
  5
102
330
101
100
AcDbEntity
  8
0
 62
     0
100
AcDbLine
 10
0.0
 20
0.0
 30
0.0
 11
-1.0
 21
-0.1665
 31
0.0
  0
LINE
  5
103
330
101
100
AcDbEntity
  8
0
 62
     0
100
AcDbLine
 10
-1.0
 20
0.1665
 30
0.0
 11
0.0
 21
0.0
 31
0.0
  0
LINE
  5
104
330
101
100
AcDbEntity
  8
0
 62
     0
100
AcDbLine
 10
0.0
 20
0.0
 30
0.0
 11
-1.0
 21
0.0
 31
0.0
  0
ENDBLK
  5
106
330
101
100
AcDbEntity
  8
0
100
AcDbBlockEnd
  0
BLOCK
  5
111
330
10A
100
AcDbEntity
  8
0
100
AcDbBlockBegin
  2
DMBLK412
 70
     0
 10
0.0
 20
0.0
 30
0.0
  3
DMBLK412
  1

  0
LWPOLYLINE
  5
10B
330
10A
100
AcDbEntity
  8
Standard
  6
Continuous
 62
     7
100
AcDbPolyline
 90
        3
 70
     0
 43
0.0
 10
73.3861163697
 20
152.3842063008
 10
69.6361164535
 20
151.7592063147
 10
73.3861163697
 20
151.1342063287
  0
LWPOLYLINE
  5
10C
330
10A
100
AcDbEntity
  8
Standard
  6
Continuous
 62
     7
100
AcDbPolyline
 90
        3
 70
     0
 43
0.0
 10
79.2861161261
 20
152.3842063008
 10
83.0361160423
 20
151.7592063147
 10
79.2861161261
 20
151.1342063287
  0
LINE
  5
10D
330
10A
100
AcDbEntity
  8
Standard
  6
Continuous
 62
     7
100
AcDbLine
 10
69.6361164535
 20
160.0710075555
 30
0.0
 11
69.6361164535
 21
150.5092063427
 31
0.0
  0
LINE
  5
10E
330
10A
100
AcDbEntity
  8
Standard
  6
Continuous
 62
     7
100
AcDbLine
 10
83.0361157419
 20
160.0710075555
 30
0.0
 11
83.0361157419
 21
150.5092063427
 31
0.0
  0
LINE
  5
10F
330
10A
100
AcDbEntity
  8
Standard
  6
Continuous
 62
     7
100
AcDbLine
 10
69.6361164535
 20
151.7592063147
 30
0.0
 11
83.0361160423
 21
151.7592063147
 31
0.0
  0
TEXT
  5
110
330
10A
100
AcDbEntity
  8
Standard
  6
Continuous
 62
     7
100
AcDbText
 10
74.3795945088
 20
152.3842063147
 30
0.0
 40
2.5
  1
13
  7
SEACAD_Arial
 11
74.3795945088
 21
154.8842063147
 31
0.0
100
AcDbText
 73
     3
  0
ENDBLK
  5
112
330
10A
100
AcDbEntity
  8
0
100
AcDbBlockEnd
  0
BLOCK
  5
119
330
114
100
AcDbEntity
  8
0
100
AcDbBlockBegin
  2
DMBLK413
 70
     0
 10
0.0
 20
0.0
 30
0.0
  3
DMBLK413
  1

  0
LINE
  5
115
330
114
100
AcDbEntity
  8
Standard
  6
Continuous
 62
     7
100
AcDbLine
 10
76.3361159959
 20
171.221007562
 30
0.0
 11
97.6854283788
 21
183.5364284487
 31
0.0
  0
LWPOLYLINE
  5
116
330
114
100
AcDbEntity
  8
Standard
  6
Continuous
 62
     7
100
AcDbPolyline
 90
        3
 70
     0
 43
0.0
 10
89.4250374766
 20
178.0498622962
 10
85.8644452945
 20
176.7174555766
 10
88.8004411253
 20
179.132626965
  0
TEXT
  5
117
330
114
100
AcDbEntity
  8
Standard
  6
Continuous
 62
     7
100
AcDbText
 10
89.760824387
 20
179.6866272163
 30
0.0
 40
2.5
  1
R
 50
29.9786388926
  7
SEACAD_Arial
 11
88.5116316564
 21
181.8521566023
 31
0.0
100
AcDbText
 73
     3
  0
TEXT
  5
118
330
114
100
AcDbEntity
  8
Standard
  6
Continuous
 62
     7
100
AcDbText
 10
93.2256714046
 20
181.6853355852
 30
0.0
 40
2.5
  1
11
 50
29.9786388926
  7
SEACAD_Arial
 11
91.9764786741
 21
183.8508649713
 31
0.0
100
AcDbText
 73
     3
  0
ENDBLK
  5
11A
330
114
100
AcDbEntity
  8
0
100
AcDbBlockEnd
  0
BLOCK
  5
125
330
11C
100
AcDbEntity
  8
0
100
AcDbBlockBegin
  2
DMBLK414
 70
     0
 10
0.0
 20
0.0
 30
0.0
  3
DMBLK414
  1

  0
LWPOLYLINE
  5
11D
330
11C
100
AcDbEntity
  8
Standard
  6
Continuous
 62
     7
100
AcDbPolyline
 90
        3
 70
     0
 43
0.0
 10
60.4250350697
 20
163.9710075205
 10
59.8000350837
 20
160.2210076044
 10
59.1750350977
 20
163.9710075205
  0
LWPOLYLINE
  5
11E
330
11C
100
AcDbEntity
  8
Standard
  6
Continuous
 62
     7
100
AcDbPolyline
 90
        3
 70
     0
 43
0.0
 10
60.4250350697
 20
178.471007569
 10
59.8000350837
 20
182.2210074852
 10
59.1750350977
 20
178.471007569
  0
LINE
  5
11F
330
11C
100
AcDbEntity
  8
Standard
  6
Continuous
 62
     7
100
AcDbLine
 10
69.4861164047
 20
160.2210076044
 30
0.0
 11
58.5500351117
 21
160.2210076044
 31
0.0
  0
LINE
  5
120
330
11C
100
AcDbEntity
  8
Standard
  6
Continuous
 62
     7
100
AcDbLine
 10
75.586115865
 20
182.221007562
 30
0.0
 11
58.5500351117
 21
182.221007562
 31
0.0
  0
LINE
  5
121
330
11C
100
AcDbEntity
  8
Standard
  6
Continuous
 62
     7
100
AcDbLine
 10
59.8000350837
 20
160.2210076044
 30
0.0
 11
59.8000350837
 21
182.2210074852
 31
0.0
  0
TEXT
  5
122
330
11C
100
AcDbEntity
  8
Standard
  6
Continuous
 62
     7
100
AcDbText
 10
59.1750350837
 20
167.2508988491
 30
0.0
 40
2.5
  1
22
 50
90.0
  7
SEACAD_Arial
 11
56.6750350837
 21
167.2508988491
 31
0.0
100
AcDbText
 73
     3
  0
TEXT
  5
123
330
11C
100
AcDbEntity
  8
Standard
  6
Continuous
 62
     7
100
AcDbText
 10
56.1750350837
 20
172.4139423274
 30
0.0
 40
1.75
  1
+4
 50
90.0
  7
SEACAD_Arial
 11
54.4250350837
 21
172.4139423274
 31
0.0
100
AcDbText
 73
     3
  0
TEXT
  5
124
330
11C
100
AcDbEntity
  8
Standard
  6
Continuous
 62
     7
100
AcDbText
 10
59.1750350837
 20
173.821551023
 30
0.0
 40
1.75
  1
0
 50
90.0
  7
SEACAD_Arial
 11
57.4250350837
 21
173.821551023
 31
0.0
100
AcDbText
 73
     3
  0
ENDBLK
  5
126
330
11C
100
AcDbEntity
  8
0
100
AcDbBlockEnd
  0
BLOCK
  5
1B9
330
127
100
AcDbEntity
  8
0
100
AcDbBlockBegin
  2
SE1
 70
     0
 10
0.0
 20
0.0
 30
0.0
  3
SE1
  1

  0
HATCH
  5
12A
330
127
100
AcDbEntity
  8
DV2_Füllung
  6
Continuous
 62
     7
100
AcDbHatch
 10
0.0
 20
0.0
 30
0.0
210
0.0
220
0.0
230
1.0
  2
SOLID
 70
     1
 71
     0
 91
        1
 92
        1
 93
       56
 72
     1
 10
119.2526290434154
 20
174.3827014819346
 11
117.9931245334923
 21
176.5642272854837
 72
     2
 10
118.4261372353845
 20
176.8142272854837
 40
0.5000000000000007
 50
150.0000000000003
 51
216.9717713184234
 73
     0
 72
     1
 10
118.0266712766844
 20
177.114938023303
 11
118.1076558043004
 21
177.22100754683
 72
     2
 10
125.8562040672061
 20
169.7740378627376
 40
10.74696969654103
 50
223.8630258158237
 51
316.136974184176
 73
     0
 72
     1
 10
133.6047523301118
 20
177.22100754683
 11
133.6857368577278
 21
177.114938023303
 72
     2
 10
133.2862708990276
 20
176.8142272854837
 40
0.4999999999999979
 50
323.0282286815775
 51
390.0000000000005
 73
     0
 72
     1
 10
133.7192836009199
 20
176.5642272854837
 11
132.4597790909967
 21
174.3827014819346
 72
     2
 10
132.0267663891045
 20
174.6327014819346
 40
0.5000000000000011
 50
30.00000000000053
 51
90.01244661210951
 73
     0
 72
     1
 10
132.0266577719243
 20
174.1327014937324
 11
128.9677722579122
 21
174.133365988786
 72
     2
 10
128.956225776485
 20
173.5334771119016
 40
0.5999999882024643
 50
88.89732415426225
 51
269.984097470793
 73
     1
 72
     1
 10
128.9560592455939
 20
172.9334771468096
 11
130.7568938415114
 21
172.9329773224642
 72
     2
 10
130.7567550657662
 20
172.4329773417228
 40
0.4999999999999996
 50
270.0159025292048
 51
389.9999998013978
 73
     0
 72
     1
 10
131.1897677685249
 20
172.1829773432238
 11
130.7058876777303
 21
171.3448724431966
 72
     2
 10
131.2255029200006
 20
171.0448724431969
 40
0.5999999999995187
 50
150.0000000000004
 51
329.9999999999981
 73
     1
 72
     1
 10
131.7451181622708
 20
170.7448724431971
 11
134.0987154991989
 21
174.8214226113153
 72
     2
 10
134.5317282010911
 20
174.5714226113154
 40
0.5000000000000057
 50
209.9999999999989
 51
338.8838551187504
 73
     0
 72
     2
 10
125.8562040672061
 20
171.2210075620449
 40
9.799999999999999
 50
338.8838551187501
 51
389.2895860079827
 73
     0
 72
     2
 10
133.8800595754896
 20
166.720147335134
 40
0.6000000000000012
 50
29.28958600798304
 51
135.0000000000019
 73
     0
 72
     1
 10
133.4557955067776
 20
166.2958832664221
 11
132.2930892403685
 21
167.4585895328312
 72
     2
 10
132.0804669252618
 20
167.2469489149937
 40
0.2999999999999975
 50
44.86742417133379
 51
135.0000000000346
 73
     1
 72
     1
 10
131.8683348909057
 20
167.4590809493495
 11
131.4440708221938
 21
167.0348168806376
 72
     2
 10
131.6562022886653
 20
166.8226842783987
 40
0.3000000000000003
 50
134.9998466175072
 51
224.9999999999962
 73
     1
 72
     1
 10
131.4440702543093
 20
166.6105522440427
 11
132.0507719807649
 21
166.0038505175871
 72
     2
 10
131.7679292682903
 20
165.7210078051125
 40
0.4
 50
314.9999999999999
 51
404.9999999999999
 73
     0
 72
     1
 10
132.0507719807649
 20
165.4381650926379
 11
131.44407135833
 21
164.831464470203
 72
     2
 10
131.6562031496176
 20
164.6193321927789
 40
0.2999999999999999
 50
134.9999343485123
 51
180.0
 73
     1
 72
     1
 10
131.3562031496176
 20
164.6193321927789
 11
131.3562038132727
 21
163.1099038890997
 72
     1
 10
131.3562038132727
 20
163.1099038890997
 11
131.3562038132727
 21
160.8210075620449
 72
     2
 10
131.9562038132727
 20
160.8210075620449
 40
0.5999999999999999
 50
180.0
 51
360.0
 73
     1
 72
     1
 10
132.5562038132727
 20
160.8210075620449
 11
132.5562038132727
 21
162.2060198356292
 72
     2
 10
133.1562038132727
 20
162.2060198356292
 40
0.5999999999999999
 50
180.0
 51
231.0007422767253
 73
     0
 72
     2
 10
125.8562040672061
 20
171.2210075620449
 40
11.0
 50
308.9992577232738
 51
591.0007435716403
 73
     1
 72
     2
 10
118.5562045248828
 20
162.2060196706454
 40
0.5999999999999996
 50
308.9992564283604
 51
360.0
 73
     0
 72
     1
 10
119.1562045248828
 20
162.2060196706454
 11
119.1562045248828
 21
160.821007562045
 72
     2
 10
119.756204482567
 20
160.8210075620449
 40
0.599999957684165
 50
180.0
 51
360.0
 73
     1
 72
     1
 10
120.3562044402511
 20
160.8210075620449
 11
120.3562043211394
 21
163.1099038890997
 72
     1
 10
120.3562043211394
 20
163.1099038890997
 11
120.3562049847945
 21
164.6193320955518
 72
     2
 10
120.0562049847945
 20
164.6193321927789
 40
0.2999999999999965
 50
0.0
 51
45.00006565148383
 73
     1
 72
     1
 10
120.2683367760822
 20
164.831464470203
 11
119.6616361536472
 21
165.4381650926379
 72
     2
 10
119.9444788661218
 20
165.7210078051125
 40
0.4
 50
134.9999999999985
 51
225.0000000000043
 73
     0
 72
     1
 10
119.6616361536473
 20
166.0038505175872
 11
120.2683378801028
 21
166.6105522440428
 72
     2
 10
120.0562058457469
 20
166.8226842783987
 40
0.300000000000001
 50
315.0
 51
405.0001533824948
 73
     1
 72
     1
 10
120.2683373122183
 20
167.0348168806376
 11
119.8440732435064
 21
167.4590809493495
 72
     2
 10
119.6319412091503
 20
167.2469489149937
 40
0.300000000000001
 50
44.99999999996354
 51
135.1325758286643
 73
     1
 72
     1
 10
119.4193188940436
 20
167.4585895328312
 11
118.2566126276345
 21
166.2958832664221
 72
     2
 10
117.8323485589225
 20
166.720147335134
 40
0.6000000000000014
 50
44.99999999999903
 51
150.710413992017
 73
     0
 72
     2
 10
125.8562040672061
 20
171.2210075620449
 40
9.8
 50
150.7104139920176
 51
201.1161448812491
 73
     0
 72
     2
 10
117.180679933321
 20
174.5714226113154
 40
0.5000000000000011
 50
201.1161448812315
 51
330.0000000000002
 73
     0
 72
     1
 10
117.6136926352132
 20
174.8214226113154
 11
119.9672899721413
 21
170.7448724431972
 72
     2
 10
120.4869052144115
 20
171.0448724431969
 40
0.5999999999995178
 50
210.0000000000026
 51
389.9999999999995
 73
     1
 72
     1
 10
121.0065204566818
 20
171.3448724431966
 11
120.5226403667532
 21
172.1829773437238
 72
     2
 10
120.955653068646
 20
172.4329773417228
 40
0.5000000000000009
 50
150.0000001986038
 51
269.9840974707935
 73
     0
 72
     1
 10
120.9555142929007
 20
172.9329773224642
 11
122.7563488888181
 21
172.9334771468096
 72
     2
 10
122.7561823579271
 20
173.5334771119016
 40
0.5999999882024647
 50
270.0159025292057
 51
451.1026758457377
 73
     1
 72
     1
 10
122.7446358764999
 20
174.133365988786
 11
119.6857503624878
 21
174.1327014937324
 72
     2
 10
119.6856417453076
 20
174.6327014819346
 40
0.4999999999999994
 50
89.9875533878905
 51
150.0000000000003
 73
     0
 97
        0
 75
     0
 76
     1
 98
        0
  0
HATCH
  5
12B
330
127
100
AcDbEntity
  8
DV2_Füllung
  6
Continuous
 62
     7
100
AcDbHatch
 10
0.0
 20
0.0
 30
0.0
210
0.0
220
0.0
230
1.0
  2
SOLID
 70
     1
 71
     0
 91
        1
 92
        1
 93
       24
 72
     1
 10
127.1331852277524
 20
169.2210071587831
 11
127.406204067206
 21
169.2210071587831
 72
     1
 10
127.406204067206
 20
169.2210071587831
 11
131.0300998871378
 21
169.2210071587831
 72
     1
 10
131.0300998871378
 20
169.2210071587831
 11
129.8759466084942
 21
172.3920172304459
 72
     2
 10
129.4061002981012
 20
172.221007158783
 40
0.5000000000000022
 50
20.00000000000259
 51
90.0
 73
     1
 72
     1
 10
129.4061002981012
 20
172.721007158783
 11
126.7708918734269
 21
172.721007158783
 72
     3
 10
126.770891873427
 20
172.221007158783
 11
1.084202172485504E-16
 21
0.5000000000000022
 40
0.3057306814586604
 50
0.0
 51
40.02986098535622
 73
     1
 72
     1
 10
126.6272454407697
 20
172.3920172304459
 11
126.6682402871471
 21
172.760421259111
 72
     3
 10
126.8693452928673
 20
172.5210071587831
 11
-2.168404344971009E-16
 21
-0.6999999999999992
 40
0.3057306814586611
 50
139.9701390146378
 51
180.0
 73
     0
 72
     1
 10
126.8693452928673
 20
173.2210071587831
 11
124.8430628415448
 21
173.221007158783
 72
     3
 10
124.8430628415448
 20
172.521007158783
 11
1.517883041479706E-15
 21
0.7000000000000079
 40
0.3057306814586578
 50
0.0
 51
40.02986098535838
 73
     0
 72
     1
 10
125.044167847265
 20
172.760421259111
 11
125.0851626936424
 21
172.3920172304459
 72
     3
 10
124.9415162609852
 20
172.221007158783
 11
2.168404344971009E-16
 21
-0.5000000000000004
 40
0.3057306814586597
 50
139.970139014644
 51
180.0
 73
     1
 72
     1
 10
124.9415162609852
 20
172.721007158783
 11
122.3063078363109
 21
172.721007158783
 72
     2
 10
122.3063078363109
 20
172.221007158783
 40
0.5000000000000022
 50
90.0
 51
159.9999999999969
 73
     1
 72
     1
 10
121.8364615259179
 20
172.3920172304459
 11
120.6823082472743
 21
169.2210071587831
 72
     1
 10
120.6823082472743
 20
169.221007158783
 11
124.3062040672061
 21
169.2210071587831
 72
     1
 10
124.3062040672061
 20
169.2210071587831
 11
124.5792229066597
 21
169.2210071587831
 72
     1
 10
124.5792229066597
 20
169.2210071587831
 11
124.67440211874
 21
169.0850771567673
 72
     3
 10
124.568336101562
 20
168.9335991857515
 11
-2.168404344971009E-15
 21
0.214222201011317
 40
0.7002075382097086
 50
35.00000000000605
 51
90.00000000000058
 73
     0
 72
     1
 10
124.718336101562
 20
168.9335991857515
 11
124.718336101562
 21
168.5997910296011
 72
     1
 10
124.718336101562
 20
168.5997910296011
 11
126.9940720328501
 21
168.5997910296011
 72
     1
 10
126.9940720328501
 20
168.5997910296011
 11
126.9940720328501
 21
168.9335991935845
 72
     3
 10
127.1440720328501
 20
168.9335991857515
 11
-2.168404344971009E-16
 21
-0.2142222010113179
 40
0.7002075382097077
 50
89.99999999999991
 51
144.9999999999941
 73
     0
 72
     1
 10
127.0380060156721
 20
169.0850771567673
 11
127.1331852277524
 21
169.2210071587831
 97
        0
 75
     0
 76
     1
 98
        0
  0
HATCH
  5
12C
330
127
100
AcDbEntity
  8
DV2_Füllung
  6
Continuous
 62
     7
100
AcDbHatch
 10
0.0
 20
0.0
 30
0.0
210
0.0
220
0.0
230
1.0
  2
SOLID
 70
     1
 71
     0
 91
        1
 92
        1
 93
        6
 72
     1
 10
123.8562040672061
 20
172.721007158783
 11
124.9415162609851
 21
172.721007158783
 72
     3
 10
124.9415162609852
 20
172.221007158783
 11
-2.168404344971009E-16
 21
0.5000000000000004
 40
0.3057306814586597
 50
0.0
 51
40.02986098535602
 73
     0
 72
     1
 10
125.0851626936424
 20
172.3920172304459
 11
125.044167847265
 21
172.760421259111
 72
     3
 10
124.8430628415448
 20
172.521007158783
 11
-1.517883041479706E-15
 21
-0.7000000000000079
 40
0.3057306814586578
 50
139.9701390146416
 51
180.0
 73
     1
 72
     1
 10
124.8430628415448
 20
173.221007158783
 11
123.8562040672061
 21
173.221007158783
 72
     1
 10
123.8562040672061
 20
173.221007158783
 11
123.8562040672061
 21
172.721007158783
 97
        0
 75
     0
 76
     1
 98
        0
  0
HATCH
  5
12D
330
127
100
AcDbEntity
  8
DV2_Füllung
  6
Continuous
 62
     7
100
AcDbHatch
 10
0.0
 20
0.0
 30
0.0
210
0.0
220
0.0
230
1.0
  2
SOLID
 70
     1
 71
     0
 91
        1
 92
        1
 93
        6
 72
     1
 10
126.7708918606174
 20
172.721007158783
 11
127.856204067206
 21
172.721007158783
 72
     1
 10
127.8562040672061
 20
172.721007158783
 11
127.8562040672061
 21
173.221007158783
 72
     1
 10
127.8562040672061
 20
173.221007158783
 11
126.8693452928673
 21
173.221007158783
 72
     3
 10
126.8693452928673
 20
172.5210071587831
 11
2.168404344971009E-16
 21
0.6999999999999992
 40
0.3057306814586611
 50
0.0
 51
40.02986098536218
 73
     1
 72
     1
 10
126.6682402871471
 20
172.760421259111
 11
126.6272454407697
 21
172.3920172304459
 72
     3
 10
126.770891873427
 20
172.221007158783
 11
-1.084202172485504E-16
 21
-0.5000000000000022
 40
0.3057306814586604
 50
139.9701390146438
 51
180.0
 73
     0
 97
        0
 75
     0
 76
     1
 98
        0
  0
HATCH
  5
12E
330
127
100
AcDbEntity
  8
DV2_Füllung
  6
Continuous
 62
     7
100
AcDbHatch
 10
0.0
 20
0.0
 30
0.0
210
0.0
220
0.0
230
1.0
  2
SOLID
 70
     1
 71
     0
 91
        1
 92
        1
 93
        4
 72
     1
 10
126.9940720328501
 20
168.5997910296011
 11
124.718336101562
 21
168.5997910296011
 72
     1
 10
124.718336101562
 20
168.5997910296011
 11
124.718336101562
 21
166.2210071587831
 72
     1
 10
124.718336101562
 20
166.221007158783
 11
126.9940720328501
 21
166.2210071587831
 72
     1
 10
126.9940720328501
 20
166.2210071587831
 11
126.9940720328501
 21
168.5997910296011
 97
        0
 75
     0
 76
     1
 98
        0
  0
HATCH
  5
12F
330
127
100
AcDbEntity
  8
DV2_Füllung
  6
Continuous
 62
     7
100
AcDbHatch
 10
0.0
 20
0.0
 30
0.0
210
0.0
220
0.0
230
1.0
  2
SOLID
 70
     1
 71
     0
 91
        1
 92
        1
 93
       10
 72
     1
 10
124.3062040672061
 20
163.2210071587831
 11
127.4062040672061
 21
163.2210071587831
 72
     1
 10
127.4062040672061
 20
163.2210071587831
 11
127.4062040672061
 21
165.2562799013511
 72
     1
 10
127.4062040672061
 20
165.2562799013511
 11
127.0380060156721
 21
165.7821212147357
 72
     3
 10
127.1440720328501
 20
165.9335991857515
 11
2.168404344971009E-16
 21
-0.2142222010113174
 40
0.7002075382097079
 50
34.99999999999567
 51
90.00001472479236
 73
     0
 72
     1
 10
126.9940720328501
 20
165.9335992243009
 11
126.9940720328501
 21
166.2210071587831
 72
     1
 10
126.9940720328501
 20
166.2210071587831
 11
124.718336101562
 21
166.2210071587831
 72
     1
 10
124.718336101562
 20
166.2210071587831
 11
124.718336101562
 21
165.9335991857515
 72
     3
 10
124.568336101562
 20
165.9335991857515
 11
0.0
 21
0.2142222010113174
 40
0.7002075382097097
 50
90.0
 51
145.0000000000043
 73
     0
 72
     1
 10
124.67440211874
 20
165.7821212147357
 11
124.3062040672061
 21
165.2562799013511
 72
     1
 10
124.3062040672061
 20
165.2562799013512
 11
124.3062040672061
 21
163.2210071587831
 97
        0
 75
     0
 76
     1
 98
        0
  0
HATCH
  5
130
330
127
100
AcDbEntity
  8
DV2_Füllung
  6
Continuous
 62
     7
100
AcDbHatch
 10
0.0
 20
0.0
 30
0.0
210
0.0
220
0.0
230
1.0
  2
SOLID
 70
     1
 71
     0
 91
        1
 92
        1
 93
        9
 72
     1
 10
120.406204067206
 20
166.2210071587831
 11
120.406204067206
 21
166.7887149839862
 72
     2
 10
121.0562040672061
 20
165.7210071587831
 40
1.25
 50
121.3322514975942
 51
124.5428828820135
 73
     1
 72
     2
 10
120.0562058457469
 20
166.8226842783987
 40
0.300000000000001
 50
13.8962945351266
 51
45.0
 73
     0
 72
     1
 10
120.2683378801028
 20
166.6105522440427
 11
119.9385309493399
 21
166.2807453132799
 72
     2
 10
121.0562040672061
 20
165.7210071587831
 40
1.25
 50
153.3979856359476
 51
206.6018816180412
 73
     1
 72
     1
 10
119.9385296525108
 20
165.1612715937743
 11
120.2683370191504
 21
164.8314642271347
 72
     2
 10
120.0562049847945
 20
164.6193321927789
 40
0.2999999999999965
 50
314.9999343485161
 51
326.442373206565
 73
     0
 72
     1
 10
120.3062040672061
 20
164.7851648156051
 11
120.306204067206
 21
166.2210071587831
 72
     1
 10
120.306204067206
 20
166.2210071587831
 11
120.406204067206
 21
166.2210071587831
 97
        0
 75
     0
 76
     1
 98
        0
  0
HATCH
  5
131
330
127
100
AcDbEntity
  8
DV2_Füllung
  6
Continuous
 62
     7
100
AcDbHatch
 10
0.0
 20
0.0
 30
0.0
210
0.0
220
0.0
230
1.0
  2
SOLID
 70
     1
 71
     0
 91
        1
 92
        1
 93
        9
 72
     2
 10
130.656204067206
 20
165.7210071587831
 40
1.25
 50
333.3981183819573
 51
386.6020143640539
 73
     1
 72
     1
 10
131.7738771850721
 20
166.2807453132799
 11
131.4440702543093
 21
166.6105522440428
 72
     2
 10
131.6562022886653
 20
166.8226842783987
 40
0.3000000000000003
 50
135.0000000000038
 51
166.1037054648675
 73
     0
 72
     2
 10
130.656204067206
 20
165.7210071587831
 40
1.25
 50
55.45711711798307
 51
58.66774850240469
 73
     1
 72
     1
 10
131.3062040672061
 20
166.7887149839862
 11
131.3062040672061
 21
166.2210071587831
 72
     1
 10
131.3062040672061
 20
166.2210071587831
 11
131.4062040672061
 21
166.2210071587831
 72
     1
 10
131.4062040672061
 20
166.2210071587831
 11
131.4062040672061
 21
164.7851648156051
 72
     2
 10
131.6562031496176
 20
164.6193321927789
 40
0.2999999999999999
 50
213.557626793435
 51
225.0000656514877
 73
     0
 72
     1
 10
131.44407135833
 20
164.831464470203
 11
131.7738784819013
 21
165.1612715937743
 97
        0
 75
     0
 76
     1
 98
        0
  0
HATCH
  5
132
330
127
100
AcDbEntity
  8
DV2_Füllung
  6
Continuous
 62
     7
100
AcDbHatch
 10
0.0
 20
0.0
 30
0.0
210
0.0
220
0.0
230
1.0
  2
SOLID
 70
     1
 71
     0
 91
        1
 92
        1
 93
       24
 72
     1
 10
124.3062040672061
 20
166.6109184701519
 11
124.3062040672061
 21
169.2210071587831
 72
     1
 10
124.3062040672061
 20
169.2210071587831
 11
120.456204067206
 21
169.2210071587831
 72
     1
 10
120.456204067206
 20
169.2210071587831
 11
120.456204067206
 21
160.8606425042565
 72
     1
 10
120.456204067206
 20
160.8606425042565
 11
120.4562040672061
 21
160.2210071587831
 72
     1
 10
120.4562040672061
 20
160.2210071587831
 11
124.2887413858757
 21
160.2210071587831
 72
     1
 10
124.2887413858756
 20
160.2210071587831
 11
124.2999062623612
 21
160.8606425042565
 72
     1
 10
124.2999062623613
 20
160.8606425042565
 11
124.3061964508039
 21
161.221007158783
 72
     1
 10
124.3061964508039
 20
161.221007158783
 11
127.4062116836082
 21
161.2210071587831
 72
     1
 10
127.4062116836082
 20
161.2210071587831
 11
127.4125018720508
 21
160.8606425042565
 72
     1
 10
127.4125018720508
 20
160.8606425042565
 11
127.4236667485365
 21
160.2210071587831
 72
     1
 10
127.4236667485365
 20
160.2210071587831
 11
131.2562040672061
 21
160.2210071587831
 72
     1
 10
131.2562040672061
 20
160.2210071587831
 11
131.2562040672061
 21
160.8606425042565
 72
     1
 10
131.2562040672061
 20
160.8606425042565
 11
131.2562040672061
 21
169.2210071587831
 72
     1
 10
131.2562040672061
 20
169.221007158783
 11
127.4062040672061
 21
169.2210071587831
 72
     1
 10
127.4062040672061
 20
169.2210071587831
 11
127.4062040672061
 21
166.6109184701519
 72
     1
 10
127.4062040672061
 20
166.6109184701519
 11
127.0380060156721
 21
166.0850771567673
 72
     3
 10
127.1440720328501
 20
165.9335991857515
 11
-2.168404344971009E-16
 21
0.2142222010113174
 40
0.7002075382097079
 50
34.99999999999561
 51
145.0000000000043
 73
     1
 72
     1
 10
127.0380060156721
 20
165.7821212147357
 11
127.4062040672061
 21
165.2562799013511
 72
     1
 10
127.4062040672061
 20
165.2562799013511
 11
127.4062040672061
 21
163.2210071587831
 72
     1
 10
127.4062040672061
 20
163.2210071587831
 11
124.3062040672061
 21
163.2210071587831
 72
     1
 10
124.3062040672061
 20
163.2210071587831
 11
124.3062040672061
 21
165.2562799013511
 72
     1
 10
124.3062040672061
 20
165.2562799013512
 11
124.67440211874
 21
165.7821212147357
 72
     3
 10
124.568336101562
 20
165.9335991857515
 11
0.0
 21
-0.2142222010113174
 40
0.7002075382097097
 50
34.99999999999571
 51
145.0000000000043
 73
     1
 72
     1
 10
124.67440211874
 20
166.0850771567673
 11
124.3062040672061
 21
166.6109184701518
 97
        0
 75
     0
 76
     1
 98
        0
  0
HATCH
  5
133
330
127
100
AcDbEntity
  8
DV2_Füllung
  6
Continuous
 62
     7
100
AcDbHatch
 10
0.0
 20
0.0
 30
0.0
210
0.0
220
0.0
230
1.0
  2
SOLID
 70
     1
 71
     0
 91
        1
 92
        1
 93
       24
 72
     1
 10
124.3062040672061
 20
166.6109184701519
 11
124.3062040672061
 21
169.2210071587831
 72
     1
 10
124.3062040672061
 20
169.2210071587831
 11
120.456204067206
 21
169.2210071587831
 72
     1
 10
120.456204067206
 20
169.2210071587831
 11
120.456204067206
 21
160.8606425042565
 72
     1
 10
120.456204067206
 20
160.8606425042565
 11
120.4562040672061
 21
160.2210071587831
 72
     1
 10
120.4562040672061
 20
160.2210071587831
 11
124.2887413858757
 21
160.2210071587831
 72
     1
 10
124.2887413858756
 20
160.2210071587831
 11
124.2999062623612
 21
160.8606425042565
 72
     1
 10
124.2999062623613
 20
160.8606425042565
 11
124.3061964508039
 21
161.221007158783
 72
     1
 10
124.3061964508039
 20
161.221007158783
 11
127.4062116836082
 21
161.2210071587831
 72
     1
 10
127.4062116836082
 20
161.2210071587831
 11
127.4125018720508
 21
160.8606425042565
 72
     1
 10
127.4125018720508
 20
160.8606425042565
 11
127.4236667485365
 21
160.2210071587831
 72
     1
 10
127.4236667485365
 20
160.2210071587831
 11
131.2562040672061
 21
160.2210071587831
 72
     1
 10
131.2562040672061
 20
160.2210071587831
 11
131.2562040672061
 21
160.8606425042565
 72
     1
 10
131.2562040672061
 20
160.8606425042565
 11
131.2562040672061
 21
169.2210071587831
 72
     1
 10
131.2562040672061
 20
169.221007158783
 11
127.4062040672061
 21
169.2210071587831
 72
     1
 10
127.4062040672061
 20
169.2210071587831
 11
127.4062040672061
 21
166.6109184701519
 72
     1
 10
127.4062040672061
 20
166.6109184701519
 11
127.0380060156721
 21
166.0850771567673
 72
     3
 10
127.1440720328501
 20
165.9335991857515
 11
-2.168404344971009E-16
 21
0.2142222010113174
 40
0.7002075382097079
 50
34.99999999999561
 51
145.0000000000043
 73
     1
 72
     1
 10
127.0380060156721
 20
165.7821212147357
 11
127.4062040672061
 21
165.2562799013511
 72
     1
 10
127.4062040672061
 20
165.2562799013511
 11
127.4062040672061
 21
163.2210071587831
 72
     1
 10
127.4062040672061
 20
163.2210071587831
 11
124.3062040672061
 21
163.2210071587831
 72
     1
 10
124.3062040672061
 20
163.2210071587831
 11
124.3062040672061
 21
165.2562799013511
 72
     1
 10
124.3062040672061
 20
165.2562799013512
 11
124.67440211874
 21
165.7821212147357
 72
     3
 10
124.568336101562
 20
165.9335991857515
 11
0.0
 21
-0.2142222010113174
 40
0.7002075382097097
 50
34.99999999999571
 51
145.0000000000043
 73
     1
 72
     1
 10
124.67440211874
 20
166.0850771567673
 11
124.3062040672061
 21
166.6109184701518
 97
        0
 75
     0
 76
     1
 98
        0
  0
HATCH
  5
134
330
127
100
AcDbEntity
  8
DV2_Füllung
  6
Continuous
 62
     7
100
AcDbHatch
 10
0.0
 20
0.0
 30
0.0
210
0.0
220
0.0
230
1.0
  2
SOLID
 70
     1
 71
     0
 91
        1
 92
        1
 93
        6
 72
     1
 10
127.4062116836082
 20
161.2210071587831
 11
124.3061964508039
 21
161.2210071587831
 72
     1
 10
124.3061964508039
 20
161.2210071587831
 11
124.2999062623613
 21
160.8606425042565
 72
     1
 10
124.2999062623613
 20
160.8606425042565
 11
124.2887413858756
 21
160.2210071587831
 72
     1
 10
124.2887413858756
 20
160.2210071587831
 11
127.4236667485365
 21
160.2210071587831
 72
     1
 10
127.4236667485365
 20
160.2210071587831
 11
127.4125018720509
 21
160.8606425042565
 72
     1
 10
127.4125018720509
 20
160.8606425042565
 11
127.4062116836083
 21
161.221007158783
 97
        0
 75
     0
 76
     1
 98
        0
  0
HATCH
  5
135
330
127
100
AcDbEntity
  8
DV2_Füllung
  6
Continuous
 62
     7
100
AcDbHatch
 10
0.0
 20
0.0
 30
0.0
210
0.0
220
0.0
230
1.0
  2
SOLID
 70
     1
 71
     0
 91
        1
 92
        1
 93
       10
 72
     1
 10
120.306204067206
 20
166.2210071587831
 11
120.306204067206
 21
164.7851648156051
 72
     2
 10
120.0562049847945
 20
164.6193321927789
 40
0.2999999999999965
 50
326.442373206565
 51
360.0
 73
     0
 72
     1
 10
120.3562049847945
 20
164.6193321927789
 11
120.3562043211394
 21
163.1099038890997
 72
     1
 10
120.3562043211394
 20
163.1099038890997
 11
120.356204482567
 21
160.8210076043608
 72
     2
 10
119.756204482567
 20
160.8210075620449
 40
0.599999957684165
 50
0.0
 51
23.55655428688977
 73
     0
 72
     1
 10
120.306204067206
 20
160.5812151390665
 11
120.3062040672061
 21
160.2210071587831
 72
     1
 10
120.306204067206
 20
160.2210071587831
 11
120.456204067206
 21
160.2210071587831
 72
     1
 10
120.4562040672061
 20
160.2210071587831
 11
120.4562040672061
 21
160.8606425042565
 72
     1
 10
120.4562040672061
 20
160.8606425042565
 11
120.456204067206
 21
166.2210071587831
 72
     1
 10
120.456204067206
 20
166.221007158783
 11
120.3062040672061
 21
166.2210071587831
 97
        0
 75
     0
 76
     1
 98
        0
  0
HATCH
  5
136
330
127
100
AcDbEntity
  8
DV2_Füllung
  6
Continuous
 62
     7
100
AcDbHatch
 10
0.0
 20
0.0
 30
0.0
210
0.0
220
0.0
230
1.0
  2
SOLID
 70
     1
 71
     0
 91
        1
 92
        1
 93
        4
 72
     1
 10
120.406204067206
 20
166.7887149839862
 11
120.406204067206
 21
166.2210071587831
 72
     1
 10
120.406204067206
 20
166.2210071587831
 11
120.456204067206
 21
166.2210071587831
 72
     1
 10
120.456204067206
 20
166.2210071587831
 11
120.456204067206
 21
166.8175927687561
 72
     2
 10
121.0562040672061
 20
165.7210071587831
 40
1.25
 50
118.6854020141188
 51
121.3322514975942
 73
     1
 97
        0
 75
     0
 76
     1
 98
        0
  0
HATCH
  5
137
330
127
100
AcDbEntity
  8
DV2_Füllung
  6
Continuous
 62
     7
100
AcDbHatch
 10
0.0
 20
0.0
 30
0.0
210
0.0
220
0.0
230
1.0
  2
SOLID
 70
     1
 71
     0
 91
        1
 92
        1
 93
        7
 72
     1
 10
124.3062040672061
 20
169.2210071587831
 11
124.3062040672061
 21
166.6109184701519
 72
     1
 10
124.3062040672061
 20
166.6109184701519
 11
124.67440211874
 21
166.0850771567673
 72
     3
 10
124.568336101562
 20
165.9335991857515
 11
0.0
 21
0.2142222010113174
 40
0.7002075382097097
 50
34.99999999999569
 51
90.0
 73
     0
 72
     1
 10
124.718336101562
 20
165.9335991857515
 11
124.718336101562
 21
168.9335991857515
 72
     3
 10
124.568336101562
 20
168.9335991857515
 11
2.168404344971009E-15
 21
-0.214222201011317
 40
0.7002075382097086
 50
89.99999999999942
 51
144.9999999999939
 73
     1
 72
     1
 10
124.67440211874
 20
169.0850771567673
 11
124.5792229066597
 21
169.2210071587831
 72
     1
 10
124.5792229066597
 20
169.2210071587831
 11
124.3062040672061
 21
169.2210071587831
 97
        0
 75
     0
 76
     1
 98
        0
  0
HATCH
  5
138
330
127
100
AcDbEntity
  8
DV2_Füllung
  6
Continuous
 62
     7
100
AcDbHatch
 10
0.0
 20
0.0
 30
0.0
210
0.0
220
0.0
230
1.0
  2
SOLID
 70
     1
 71
     0
 91
        1
 92
        1
 93
        7
 72
     1
 10
126.9940720328501
 20
168.9335991857515
 11
126.9940720328501
 21
165.9335991857515
 72
     3
 10
127.1440720328501
 20
165.9335991857515
 11
2.168404344971009E-16
 21
-0.2142222010113174
 40
0.7002075382097079
 50
90.00001472479236
 51
145.0000000000044
 73
     0
 72
     1
 10
127.0380060156721
 20
166.0850771567673
 11
127.406204067206
 21
166.6109184701518
 72
     1
 10
127.406204067206
 20
166.6109184701518
 11
127.4062040672061
 21
169.221007158783
 72
     1
 10
127.4062040672061
 20
169.221007158783
 11
127.1331852277524
 21
169.2210071587831
 72
     1
 10
127.1331852277524
 20
169.2210071587831
 11
127.0380060156721
 21
169.0850771567673
 72
     3
 10
127.1440720328501
 20
168.9335991857515
 11
2.168404344971009E-16
 21
0.2142222010113179
 40
0.7002075382097077
 50
35.00000000000588
 51
90.00000000000006
 73
     1
 97
        0
 75
     0
 76
     1
 98
        0
  0
HATCH
  5
139
330
127
100
AcDbEntity
  8
DV2_Füllung
  6
Continuous
 62
     7
100
AcDbHatch
 10
0.0
 20
0.0
 30
0.0
210
0.0
220
0.0
230
1.0
  2
SOLID
 70
     1
 71
     0
 91
        1
 92
        1
 93
       10
 72
     1
 10
131.4062040672061
 20
164.7851648156051
 11
131.4062040672061
 21
166.2210071587831
 72
     1
 10
131.4062040672061
 20
166.2210071587831
 11
131.2562040672061
 21
166.2210071587831
 72
     1
 10
131.2562040672061
 20
166.2210071587831
 11
131.2562040672061
 21
160.8606425042565
 72
     1
 10
131.2562040672061
 20
160.8606425042565
 11
131.2562040672061
 21
160.2210071587831
 72
     1
 10
131.2562040672061
 20
160.2210071587831
 11
131.4062040672061
 21
160.2210071587831
 72
     1
 10
131.4062040672061
 20
160.2210071587831
 11
131.4062040672061
 21
160.5812154034438
 72
     2
 10
131.9562038132727
 20
160.8210075620449
 40
0.5999999999999999
 50
156.4434750161601
 51
180.0
 73
     0
 72
     1
 10
131.3562038132727
 20
160.8210075620449
 11
131.3562038132727
 21
163.1099038890996
 72
     1
 10
131.3562038132727
 20
163.1099038890996
 11
131.3562031496176
 21
164.6193321927789
 72
     2
 10
131.6562031496176
 20
164.6193321927789
 40
0.2999999999999999
 50
180.0
 51
213.557626793435
 73
     0
 97
        0
 75
     0
 76
     1
 98
        0
  0
HATCH
  5
13A
330
127
100
AcDbEntity
  8
DV2_Füllung
  6
Continuous
 62
     7
100
AcDbHatch
 10
0.0
 20
0.0
 30
0.0
210
0.0
220
0.0
230
1.0
  2
SOLID
 70
     1
 71
     0
 91
        1
 92
        1
 93
        4
 72
     1
 10
131.3062040672061
 20
166.2210071587831
 11
131.3062040672061
 21
166.7887149839862
 72
     2
 10
130.656204067206
 20
165.7210071587831
 40
1.25
 50
58.66774850240469
 51
61.31459798588008
 73
     1
 72
     1
 10
131.2562040672061
 20
166.8175927687561
 11
131.2562040672061
 21
166.2210071587831
 72
     1
 10
131.2562040672061
 20
166.2210071587831
 11
131.306204067206
 21
166.2210071587831
 97
        0
 75
     0
 76
     1
 98
        0
  0
LINE
  5
13B
330
127
100
AcDbEntity
  8
D000121
  6
Continuous
 62
     7
100
AcDbLine
 10
131.2562040672
 20
169.2210071588
 30
0.0
 11
131.2562040672
 21
160.8606425043
 31
0.0
  0
LINE
  5
13C
330
127
100
AcDbEntity
  8
D000121
  6
Continuous
 62
     7
100
AcDbLine
 10
131.2562040672
 20
160.8606425043
 30
0.0
 11
131.2562040672
 21
160.2210071588
 31
0.0
  0
LINE
  5
13D
330
127
100
AcDbEntity
  8
D000121
  6
Continuous
 62
     7
100
AcDbLine
 10
124.3061964508
 20
161.2210071588
 30
0.0
 11
127.4062116836
 21
161.2210071588
 31
0.0
  0
LINE
  5
13E
330
127
100
AcDbEntity
  8
D000121
  6
Continuous
 62
     7
100
AcDbLine
 10
127.4062040672
 20
163.2210071588
 30
0.0
 11
124.3062040672
 21
163.2210071588
 31
0.0
  0
LINE
  5
13F
330
127
100
AcDbEntity
  8
D000121
  6
Continuous
 62
     7
100
AcDbLine
 10
120.4562040672
 20
160.2210071588
 30
0.0
 11
120.4562040672
 21
160.8606425043
 31
0.0
  0
LINE
  5
140
330
127
100
AcDbEntity
  8
D000121
  6
Continuous
 62
     7
100
AcDbLine
 10
120.4562040672
 20
169.2210071588
 30
0.0
 11
120.4562040672
 21
160.8606425043
 31
0.0
  0
LINE
  5
141
330
127
100
AcDbEntity
  8
D000121
  6
Continuous
 62
     7
100
AcDbLine
 10
120.3062040672
 20
160.2210071588
 30
0.0
 11
120.4562040672
 21
160.2210071588
 31
0.0
  0
LINE
  5
142
330
127
100
AcDbEntity
  8
D000121
  6
Continuous
 62
     7
100
AcDbLine
 10
131.2562040672
 20
160.2210071588
 30
0.0
 11
131.4062040672
 21
160.2210071588
 31
0.0
  0
LINE
  5
143
330
127
100
AcDbEntity
  8
D000121
  6
Continuous
 62
     7
100
AcDbLine
 10
131.2562040672
 20
160.2210071588
 30
0.0
 11
127.4236667485
 21
160.2210071588
 31
0.0
  0
LINE
  5
144
330
127
100
AcDbEntity
  8
D000121
  6
Continuous
 62
     7
100
AcDbLine
 10
127.4236667485
 20
160.2210071588
 30
0.0
 11
124.2887413859
 21
160.2210071588
 31
0.0
  0
LINE
  5
145
330
127
100
AcDbEntity
  8
D000121
  6
Continuous
 62
     7
100
AcDbLine
 10
124.2887413859
 20
160.2210071588
 30
0.0
 11
120.4562040672
 21
160.2210071588
 31
0.0
  0
LINE
  5
146
330
127
100
AcDbEntity
  8
D000121
  6
Continuous
 62
     7
100
AcDbLine
 10
124.3062040672
 20
169.2210071588
 30
0.0
 11
124.5792229067
 21
169.2210071588
 31
0.0
  0
LINE
  5
147
330
127
100
AcDbEntity
  8
D000121
  6
Continuous
 62
     7
100
AcDbLine
 10
124.3062040672
 20
169.2210071588
 30
0.0
 11
120.4562040672
 21
169.2210071588
 31
0.0
  0
LINE
  5
148
330
127
100
AcDbEntity
  8
D000121
  6
Continuous
 62
     7
100
AcDbLine
 10
124.6744021187
 20
166.0850771568
 30
0.0
 11
124.3062040672
 21
166.6109184702
 31
0.0
  0
LINE
  5
149
330
127
100
AcDbEntity
  8
D000121
  6
Continuous
 62
     7
100
AcDbLine
 10
124.6744021187
 20
169.0850771568
 30
0.0
 11
124.5792229067
 21
169.2210071588
 31
0.0
  0
LINE
  5
14A
330
127
100
AcDbEntity
  8
D000121
  6
Continuous
 62
     7
100
AcDbLine
 10
124.3062040672
 20
165.2562799014
 30
0.0
 11
124.6744021187
 21
165.7821212147
 31
0.0
  0
ELLIPSE
  5
14B
330
127
100
AcDbEntity
  8
D000121
  6
Continuous
 62
     7
100
AcDbEllipse
 10
124.5683361016
 20
165.9335991858
 30
0.0
 11
0.0
 21
-0.2142222010113174
 31
0.0
210
0.0
220
0.0
230
1.0
 40
0.7002075382
 41
0.7853981633973683
 42
2.356194490192425
  0
ELLIPSE
  5
14C
330
127
100
AcDbEntity
  8
D000121
  6
Continuous
 62
     7
100
AcDbEllipse
 10
124.5683361016
 20
168.9335991858
 30
0.0
 11
2.168404344971009E-15
 21
-0.214222201011317
 31
0.0
210
0.0
220
0.0
230
1.0
 40
0.7002075382
 41
1.570796326794889
 42
2.356194490192232
  0
LINE
  5
14D
330
127
100
AcDbEntity
  8
D000121
  6
Continuous
 62
     7
100
AcDbLine
 10
124.3062040672
 20
166.6109184702
 30
0.0
 11
124.3062040672
 21
169.2210071588
 31
0.0
  0
LINE
  5
14E
330
127
100
AcDbEntity
  8
D000121
  6
Continuous
 62
     7
100
AcDbLine
 10
127.1331852278
 20
169.2210071588
 30
0.0
 11
127.4062040672
 21
169.2210071588
 31
0.0
  0
LINE
  5
14F
330
127
100
AcDbEntity
  8
D000121
  6
Continuous
 62
     7
100
AcDbLine
 10
131.2562040672
 20
169.2210071588
 30
0.0
 11
127.4062040672
 21
169.2210071588
 31
0.0
  0
LINE
  5
150
330
127
100
AcDbEntity
  8
D000121
  6
Continuous
 62
     7
100
AcDbLine
 10
127.4062040672
 20
166.6109184702
 30
0.0
 11
127.0380060157
 21
166.0850771568
 31
0.0
  0
LINE
  5
151
330
127
100
AcDbEntity
  8
D000121
  6
Continuous
 62
     7
100
AcDbLine
 10
127.1331852278
 20
169.2210071588
 30
0.0
 11
127.0380060157
 21
169.0850771568
 31
0.0
  0
LINE
  5
152
330
127
100
AcDbEntity
  8
D000121
  6
Continuous
 62
     7
100
AcDbLine
 10
127.0380060157
 20
165.7821212147
 30
0.0
 11
127.4062040672
 21
165.2562799014
 31
0.0
  0
ELLIPSE
  5
153
330
127
100
AcDbEntity
  8
D000121
  6
Continuous
 62
     7
100
AcDbEllipse
 10
127.1440720329
 20
165.9335991858
 30
0.0
 11
-2.168404344971009E-16
 21
0.2142222010113174
 31
0.0
210
0.0
220
0.0
230
1.0
 40
0.7002075382
 41
0.7853981633973683
 42
2.356194490192424
  0
ELLIPSE
  5
154
330
127
100
AcDbEntity
  8
D000121
  6
Continuous
 62
     7
100
AcDbEllipse
 10
127.1440720329
 20
168.9335991858
 30
0.0
 11
2.168404344971009E-16
 21
0.2142222010113179
 31
0.0
210
0.0
220
0.0
230
1.0
 40
0.7002075382
 41
0.7853981633975593
 42
1.570796326794897
  0
LINE
  5
155
330
127
100
AcDbEntity
  8
D000121
  6
Continuous
 62
     7
100
AcDbLine
 10
127.4062040672
 20
169.2210071588
 30
0.0
 11
127.4062040672
 21
166.6109184702
 31
0.0
  0
LINE
  5
156
330
127
100
AcDbEntity
  8
D000121
  6
Continuous
 62
     7
100
AcDbLine
 10
127.4125018721
 20
160.8606425043
 30
0.0
 11
127.4062116836
 21
161.2210071588
 31
0.0
  0
LINE
  5
157
330
127
100
AcDbEntity
  8
D000121
  6
Continuous
 62
     7
100
AcDbLine
 10
127.4062040672
 20
165.2562799014
 30
0.0
 11
127.4062040672
 21
163.2210071588
 31
0.0
  0
LINE
  5
158
330
127
100
AcDbEntity
  8
D000121
  6
Continuous
 62
     7
100
AcDbLine
 10
124.3062040672
 20
163.2210071588
 30
0.0
 11
124.3062040672
 21
165.2562799014
 31
0.0
  0
LINE
  5
159
330
127
100
AcDbEntity
  8
D000121
  6
Continuous
 62
     7
100
AcDbLine
 10
124.3061964508
 20
161.2210071588
 30
0.0
 11
124.2999062624
 21
160.8606425043
 31
0.0
  0
LINE
  5
15A
330
127
100
AcDbEntity
  8
D000121
  6
Continuous
 62
     7
100
AcDbLine
 10
124.2999062624
 20
160.8606425043
 30
0.0
 11
124.2887413859
 21
160.2210071588
 31
0.0
  0
LINE
  5
15B
330
127
100
AcDbEntity
  8
D000121
  6
Continuous
 62
     7
100
AcDbLine
 10
127.4236667485
 20
160.2210071588
 30
0.0
 11
127.4125018721
 21
160.8606425043
 31
0.0
  0
LINE
  5
15C
330
127
100
AcDbEntity
  8
D000121
  6
Continuous
 62
     7
100
AcDbLine
 10
124.7183361016
 20
166.2210071588
 30
0.0
 11
126.9940720329
 21
166.2210071588
 31
0.0
  0
LINE
  5
15D
330
127
100
AcDbEntity
  8
D000121
  6
Continuous
 62
     7
100
AcDbLine
 10
120.3062040672
 20
166.2210071588
 30
0.0
 11
120.4562040672
 21
166.2210071588
 31
0.0
  0
LINE
  5
15E
330
127
100
AcDbEntity
  8
D000121
  6
Continuous
 62
     7
100
AcDbLine
 10
131.2562040672
 20
166.2210071588
 30
0.0
 11
131.4062040672
 21
166.2210071588
 31
0.0
  0
LINE
  5
15F
330
127
100
AcDbEntity
  8
D000121
  6
Continuous
 62
     7
100
AcDbLine
 10
131.4062040672
 20
166.2210071588
 30
0.0
 11
131.4062040672
 21
164.7851648156
 31
0.0
  0
LINE
  5
160
330
127
100
AcDbEntity
  8
D000121
  6
Continuous
 62
     7
100
AcDbLine
 10
131.4062040672
 20
160.5812154034
 30
0.0
 11
131.4062040672
 21
160.2210071588
 31
0.0
  0
LINE
  5
161
330
127
100
AcDbEntity
  8
D000121
  6
Continuous
 62
     7
100
AcDbLine
 10
120.3062040672
 20
166.2210071588
 30
0.0
 11
120.3062040672
 21
164.7851648156
 31
0.0
  0
LINE
  5
162
330
127
100
AcDbEntity
  8
D000121
  6
Continuous
 62
     7
100
AcDbLine
 10
120.3062040672
 20
160.5812150332
 30
0.0
 11
120.3062040672
 21
160.2210071588
 31
0.0
  0
LINE
  5
163
330
127
100
AcDbEntity
  8
D000121
  6
Continuous
 62
     7
100
AcDbLine
 10
124.7183361016
 20
165.9335991858
 30
0.0
 11
124.7183361016
 21
168.9335991858
 31
0.0
  0
LINE
  5
164
330
127
100
AcDbEntity
  8
D000121
  6
Continuous
 62
     7
100
AcDbLine
 10
126.9940720329
 20
168.9335991858
 30
0.0
 11
126.9940720329
 21
165.9335991858
 31
0.0
  0
LINE
  5
165
330
127
100
AcDbEntity
  8
D000122
  6
Continuous
 62
     7
100
AcDbLine
 10
123.8562040672
 20
172.7210071588
 30
0.0
 11
123.8562040672
 21
173.2210071588
 31
0.0
  0
LINE
  5
166
330
127
100
AcDbEntity
  8
D000122
  6
Continuous
 62
     7
100
AcDbLine
 10
127.8562040672
 20
173.2210071588
 30
0.0
 11
127.8562040672
 21
172.7210071588
 31
0.0
  0
ELLIPSE
  5
167
330
127
100
AcDbEntity
  8
D000122
  6
Continuous
 62
     7
100
AcDbEllipse
 10
124.941516261
 20
172.2210071588
 30
0.0
 11
2.168404344971009E-16
 21
-0.5000000000000004
 31
0.0
210
0.0
220
0.0
230
1.0
 40
0.3057306815
 41
1.919862177193823
 42
3.141592653589793
  0
LINE
  5
168
330
127
100
AcDbEntity
  8
D000122
  6
Continuous
 62
     7
100
AcDbLine
 10
122.3063078363
 20
172.7210071588
 30
0.0
 11
124.941516261
 21
172.7210071588
 31
0.0
  0
ARC
  5
169
330
127
100
AcDbEntity
  8
D000122
  6
Continuous
 62
     7
100
AcDbCircle
 10
122.3063078363
 20
172.2210071588
 30
0.0
 40
0.5000000000000022
100
AcDbArc
 50
90.0
 51
160.0
  0
LINE
  5
16A
330
127
100
AcDbEntity
  8
D000122
  6
Continuous
 62
     7
100
AcDbLine
 10
125.0441678473
 20
172.7604212591
 30
0.0
 11
125.0851626936
 21
172.3920172304
 31
0.0
  0
ELLIPSE
  5
16B
330
127
100
AcDbEntity
  8
D000122
  6
Continuous
 62
     7
100
AcDbEllipse
 10
124.8430628415
 20
172.5210071588
 30
0.0
 11
-1.517883041479706E-15
 21
-0.7000000000000079
 31
0.0
210
0.0
220
0.0
230
1.0
 40
0.3057306815
 41
1.919862177193794
 42
3.141592653589793
  0
LINE
  5
16C
330
127
100
AcDbEntity
  8
D000122
  6
Continuous
 62
     7
100
AcDbLine
 10
124.8430628415
 20
173.2210071588
 30
0.0
 11
123.8562040672
 21
173.2210071588
 31
0.0
  0
LINE
  5
16D
330
127
100
AcDbEntity
  8
D000122
  6
Continuous
 62
     7
100
AcDbLine
 10
124.8430628415
 20
173.2210071588
 30
0.0
 11
126.8693452929
 21
173.2210071588
 31
0.0
  0
LINE
  5
16E
330
127
100
AcDbEntity
  8
D000122
  6
Continuous
 62
     7
100
AcDbLine
 10
127.8562040672
 20
173.2210071588
 30
0.0
 11
126.8693452929
 21
173.2210071588
 31
0.0
  0
LINE
  5
16F
330
127
100
AcDbEntity
  8
D000122
  6
Continuous
 62
     7
100
AcDbLine
 10
126.7708918734
 20
172.7210071588
 30
0.0
 11
129.4061002981
 21
172.7210071588
 31
0.0
  0
LINE
  5
170
330
127
100
AcDbEntity
  8
D000122
  6
Continuous
 62
     7
100
AcDbLine
 10
131.3062040672
 20
166.2210071588
 30
0.0
 11
131.3062040672
 21
166.788714984
 31
0.0
  0
ARC
  5
171
330
127
100
AcDbEntity
  8
D000122
  6
Continuous
 62
     7
100
AcDbCircle
 10
130.6562040672
 20
165.7210071588
 30
0.0
 40
1.25
100
AcDbArc
 50
58.6677485024
 51
61.3145979859
  0
LINE
  5
172
330
127
100
AcDbEntity
  8
D000122
  6
Continuous
 62
     7
100
AcDbLine
 10
126.9940720329
 20
168.5997910296
 30
0.0
 11
124.7183361016
 21
168.5997910296
 31
0.0
  0
ARC
  5
173
330
127
100
AcDbEntity
  8
D000122
  6
Continuous
 62
     7
100
AcDbCircle
 10
121.0562040672
 20
165.7210071588
 30
0.0
 40
1.25
100
AcDbArc
 50
118.6854020141
 51
121.3322514976
  0
LINE
  5
174
330
127
100
AcDbEntity
  8
D000122
  6
Continuous
 62
     7
100
AcDbLine
 10
120.4062040672
 20
166.788714984
 30
0.0
 11
120.4062040672
 21
166.2210071588
 31
0.0
  0
ELLIPSE
  5
175
330
127
100
AcDbEntity
  8
D000122
  6
Continuous
 62
     7
100
AcDbEllipse
 10
126.7708918734
 20
172.2210071588
 30
0.0
 11
1.084202172485504E-16
 21
0.5000000000000022
 31
0.0
210
0.0
220
0.0
230
1.0
 40
0.3057306815
 41
0.0
 42
1.221730476395971
  0
ARC
  5
176
330
127
100
AcDbEntity
  8
D000122
  6
Continuous
 62
     7
100
AcDbCircle
 10
129.4061002981
 20
172.2210071588
 30
0.0
 40
0.5000000000000022
100
AcDbArc
 50
20.0
 51
90.0
  0
LINE
  5
177
330
127
100
AcDbEntity
  8
D000122
  6
Continuous
 62
     7
100
AcDbLine
 10
126.6682402871
 20
172.7604212591
 30
0.0
 11
126.6272454408
 21
172.3920172304
 31
0.0
  0
LINE
  5
178
330
127
100
AcDbEntity
  8
D000122
  6
Continuous
 62
     7
100
AcDbLine
 10
121.8364615259
 20
172.3920172304
 30
0.0
 11
120.6823082473
 21
169.2210071588
 31
0.0
  0
LINE
  5
179
330
127
100
AcDbEntity
  8
D000122
  6
Continuous
 62
     7
100
AcDbLine
 10
131.0300998871
 20
169.2210071588
 30
0.0
 11
129.8759466085
 21
172.3920172304
 31
0.0
  0
ARC
  5
17A
330
127
100
AcDbEntity
  8
D000122
  6
Continuous
 62
     7
100
AcDbCircle
 10
121.0562040672
 20
165.7210071588
 30
0.0
 40
1.25
100
AcDbArc
 50
121.3322514976
 51
124.542882882
  0
ARC
  5
17B
330
127
100
AcDbEntity
  8
D000122
  6
Continuous
 62
     7
100
AcDbCircle
 10
121.0562040672
 20
165.7210071588
 30
0.0
 40
1.25
100
AcDbArc
 50
153.3979856359
 51
206.601881618
  0
ARC
  5
17C
330
127
100
AcDbEntity
  8
D000122
  6
Continuous
 62
     7
100
AcDbCircle
 10
130.6562040672
 20
165.7210071588
 30
0.0
 40
1.25
100
AcDbArc
 50
333.398118382
 51
26.6020143641
  0
ARC
  5
17D
330
127
100
AcDbEntity
  8
D000122
  6
Continuous
 62
     7
100
AcDbCircle
 10
130.6562040672
 20
165.7210071588
 30
0.0
 40
1.25
100
AcDbArc
 50
55.457117118
 51
58.6677485024
  0
ELLIPSE
  5
17E
330
127
100
AcDbEntity
  8
D000122
  6
Continuous
 62
     7
100
AcDbEllipse
 10
126.8693452929
 20
172.5210071588
 30
0.0
 11
2.168404344971009E-16
 21
0.6999999999999993
 31
0.0
210
0.0
220
0.0
230
1.0
 40
0.3057306815
 41
0.0
 42
1.221730476396039
  0
LINE
  5
17F
330
127
100
AcDbEntity
  8
D000126
  6
Continuous
 62
     7
100
AcDbLine
 10
131.3562038133
 20
163.1099038891
 30
0.0
 11
131.3562038133
 21
160.821007562
 31
0.0
  0
ARC
  5
180
330
127
100
AcDbEntity
  8
D000126
  6
Continuous
 62
     7
100
AcDbCircle
 10
119.9444788661
 20
165.7210078051
 30
0.0
 40
0.4
100
AcDbArc
 50
135.0
 51
225.0
  0
LINE
  5
181
330
127
100
AcDbEntity
  8
D000126
  6
Continuous
 62
     7
100
AcDbLine
 10
119.6616361536
 20
166.0038505176
 30
0.0
 11
120.2683378801
 21
166.610552244
 31
0.0
  0
ARC
  5
182
330
127
100
AcDbEntity
  8
D000126
  6
Continuous
 62
     7
100
AcDbCircle
 10
120.0562058457
 20
166.8226842784
 30
0.0
 40
0.300000000000001
100
AcDbArc
 50
315.0
 51
45.0001533825
  0
LINE
  5
183
330
127
100
AcDbEntity
  8
D000126
  6
Continuous
 62
     7
100
AcDbLine
 10
120.2683373122
 20
167.0348168806
 30
0.0
 11
119.8440732435
 21
167.4590809493
 31
0.0
  0
ARC
  5
184
330
127
100
AcDbEntity
  8
D000126
  6
Continuous
 62
     7
100
AcDbCircle
 10
119.6319412092
 20
167.246948915
 30
0.0
 40
0.300000000000001
100
AcDbArc
 50
45.0
 51
135.1325758287
  0
LINE
  5
185
330
127
100
AcDbEntity
  8
D000126
  6
Continuous
 62
     7
100
AcDbLine
 10
119.419318894
 20
167.4585895328
 30
0.0
 11
118.2566126276
 21
166.2958832664
 31
0.0
  0
LINE
  5
186
330
127
100
AcDbEntity
  8
D000126
  6
Continuous
 62
     7
100
AcDbLine
 10
120.3562043211
 20
163.1099038891
 30
0.0
 11
120.3562049848
 21
164.6193320956
 31
0.0
  0
ARC
  5
187
330
127
100
AcDbEntity
  8
D000126
  6
Continuous
 62
     7
100
AcDbCircle
 10
120.0562049848
 20
164.6193321928
 30
0.0
 40
0.2999999999999965
100
AcDbArc
 50
0.0
 51
45.0000656515
  0
LINE
  5
188
330
127
100
AcDbEntity
  8
D000126
  6
Continuous
 62
     7
100
AcDbLine
 10
120.2683367761
 20
164.8314644702
 30
0.0
 11
119.6616361536
 21
165.4381650926
 31
0.0
  0
ARC
  5
189
330
127
100
AcDbEntity
  8
D000126
  6
Continuous
 62
     7
100
AcDbCircle
 10
125.8562040672
 20
171.221007562
 30
0.0
 40
9.8
100
AcDbArc
 50
36.9717713184
 51
37.7520011937
  0
ARC
  5
18A
330
127
100
AcDbEntity
  8
D000126
  6
Continuous
 62
     7
100
AcDbCircle
 10
125.8562040672
 20
169.7740378627
 30
0.0
 40
10.74696969654103
100
AcDbArc
 50
43.8630258158
 51
136.1369741842
  0
ARC
  5
18B
330
127
100
AcDbEntity
  8
D000126
  6
Continuous
 62
     7
100
AcDbCircle
 10
125.8562040672
 20
171.221007562
 30
0.0
 40
9.799999999999999
100
AcDbArc
 50
142.2479988063
 51
143.0282286816
  0
ARC
  5
18C
330
127
100
AcDbEntity
  8
D000126
  6
Continuous
 62
     7
100
AcDbCircle
 10
120.9556530686
 20
172.4329773417
 30
0.0
 40
0.5000000000000009
100
AcDbArc
 50
90.0159025292
 51
209.9999998014
  0
LINE
  5
18D
330
127
100
AcDbEntity
  8
D000126
  6
Continuous
 62
     7
100
AcDbLine
 10
120.5226403668
 20
172.1829773437
 30
0.0
 11
121.0065204567
 21
171.3448724432
 31
0.0
  0
ARC
  5
18E
330
127
100
AcDbEntity
  8
D000126
  6
Continuous
 62
     7
100
AcDbCircle
 10
120.4869052144
 20
171.0448724432
 30
0.0
 40
0.5999999999995178
100
AcDbArc
 50
210.0
 51
30.0
  0
LINE
  5
18F
330
127
100
AcDbEntity
  8
D000126
  6
Continuous
 62
     7
100
AcDbLine
 10
119.9672899721
 20
170.7448724432
 30
0.0
 11
117.6136926352
 21
174.8214226113
 31
0.0
  0
ARC
  5
190
330
127
100
AcDbEntity
  8
D000126
  6
Continuous
 62
     7
100
AcDbCircle
 10
117.1806799333
 20
174.5714226113
 30
0.0
 40
0.5000000000000011
100
AcDbArc
 50
30.0
 51
158.8838551188
  0
ARC
  5
191
330
127
100
AcDbEntity
  8
D000126
  6
Continuous
 62
     7
100
AcDbCircle
 10
118.4261372354
 20
176.8142272855
 30
0.0
 40
0.5000000000000007
100
AcDbArc
 50
143.0282286816
 51
210.0
  0
LINE
  5
192
330
127
100
AcDbEntity
  8
D000126
  6
Continuous
 62
     7
100
AcDbLine
 10
117.9931245335
 20
176.5642272855
 30
0.0
 11
119.2526290434
 21
174.3827014819
 31
0.0
  0
ARC
  5
193
330
127
100
AcDbEntity
  8
D000126
  6
Continuous
 62
     7
100
AcDbCircle
 10
119.6856417453
 20
174.6327014819
 30
0.0
 40
0.4999999999999994
100
AcDbArc
 50
210.0
 51
270.0124466121
  0
LINE
  5
194
330
127
100
AcDbEntity
  8
D000126
  6
Continuous
 62
     7
100
AcDbLine
 10
119.6857503625
 20
174.1327014937
 30
0.0
 11
122.7446358765
 21
174.1333659888
 31
0.0
  0
ARC
  5
195
330
127
100
AcDbEntity
  8
D000126
  6
Continuous
 62
     7
100
AcDbCircle
 10
122.7561823579
 20
173.5334771119
 30
0.0
 40
0.5999999882024647
100
AcDbArc
 50
270.0159025292
 51
91.1026758457
  0
LINE
  5
196
330
127
100
AcDbEntity
  8
D000126
  6
Continuous
 62
     7
100
AcDbLine
 10
122.7563488888
 20
172.9334771468
 30
0.0
 11
120.9555142929
 21
172.9329773225
 31
0.0
  0
LINE
  5
197
330
127
100
AcDbEntity
  8
D000126
  6
Continuous
 62
     7
100
AcDbLine
 10
120.3562044826
 20
160.8210076044
 30
0.0
 11
120.3562043211
 21
163.1099038891
 31
0.0
  0
ARC
  5
198
330
127
100
AcDbEntity
  8
D000126
  6
Continuous
 62
     7
100
AcDbCircle
 10
119.7562044826
 20
160.821007562
 30
0.0
 40
0.599999957684165
100
AcDbArc
 50
180.0
 51
0.0
  0
ARC
  5
199
330
127
100
AcDbEntity
  8
D000126
  6
Continuous
 62
     7
100
AcDbCircle
 10
125.8562040672
 20
171.221007562
 30
0.0
 40
9.8
100
AcDbArc
 50
158.8838551188
 51
209.289586008
  0
ARC
  5
19A
330
127
100
AcDbEntity
  8
D000126
  6
Continuous
 62
     7
100
AcDbCircle
 10
117.8323485589
 20
166.7201473351
 30
0.0
 40
0.6000000000000014
100
AcDbArc
 50
209.289586008
 51
315.0
  0
LINE
  5
19B
330
127
100
AcDbEntity
  8
D000126
  6
Continuous
 62
     7
100
AcDbLine
 10
119.1562045249
 20
162.2060196706
 30
0.0
 11
119.1562045249
 21
160.821007562
 31
0.0
  0
ARC
  5
19C
330
127
100
AcDbEntity
  8
D000126
  6
Continuous
 62
     7
100
AcDbCircle
 10
118.5562045249
 20
162.2060196706
 30
0.0
 40
0.5999999999999996
100
AcDbArc
 50
0.0
 51
51.0007435716
  0
LINE
  5
19D
330
127
100
AcDbEntity
  8
D000126
  6
Continuous
 62
     7
100
AcDbLine
 10
131.4440702543
 20
166.610552244
 30
0.0
 11
132.0507719808
 21
166.0038505176
 31
0.0
  0
ARC
  5
19E
330
127
100
AcDbEntity
  8
D000126
  6
Continuous
 62
     7
100
AcDbCircle
 10
131.7679292683
 20
165.7210078051
 30
0.0
 40
0.4
100
AcDbArc
 50
315.0
 51
45.0
  0
LINE
  5
19F
330
127
100
AcDbEntity
  8
D000126
  6
Continuous
 62
     7
100
AcDbLine
 10
132.0507719808
 20
165.4381650926
 30
0.0
 11
131.4440713583
 21
164.8314644702
 31
0.0
  0
ARC
  5
1A0
330
127
100
AcDbEntity
  8
D000126
  6
Continuous
 62
     7
100
AcDbCircle
 10
131.6562031496
 20
164.6193321928
 30
0.0
 40
0.2999999999999999
100
AcDbArc
 50
134.9999343485
 51
180.0
  0
LINE
  5
1A1
330
127
100
AcDbEntity
  8
D000126
  6
Continuous
 62
     7
100
AcDbLine
 10
131.3562031496
 20
164.6193321928
 30
0.0
 11
131.3562038133
 21
163.1099038891
 31
0.0
  0
ARC
  5
1A2
330
127
100
AcDbEntity
  8
D000126
  6
Continuous
 62
     7
100
AcDbCircle
 10
132.0804669253
 20
167.246948915
 30
0.0
 40
0.2999999999999975
100
AcDbArc
 50
44.8674241713
 51
135.0
  0
LINE
  5
1A3
330
127
100
AcDbEntity
  8
D000126
  6
Continuous
 62
     7
100
AcDbLine
 10
131.8683348909
 20
167.4590809493
 30
0.0
 11
131.4440708222
 21
167.0348168806
 31
0.0
  0
ARC
  5
1A4
330
127
100
AcDbEntity
  8
D000126
  6
Continuous
 62
     7
100
AcDbCircle
 10
131.6562022887
 20
166.8226842784
 30
0.0
 40
0.3000000000000003
100
AcDbArc
 50
134.9998466175
 51
225.0
  0
ARC
  5
1A5
330
127
100
AcDbEntity
  8
D000126
  6
Continuous
 62
     7
100
AcDbCircle
 10
125.8562040672
 20
171.221007562
 30
0.0
 40
9.799999999999999
100
AcDbArc
 50
330.710413992
 51
21.1161448812
  0
LINE
  5
1A6
330
127
100
AcDbEntity
  8
D000126
  6
Continuous
 62
     7
100
AcDbLine
 10
130.7058876777
 20
171.3448724432
 30
0.0
 11
131.1897677685
 21
172.1829773432
 31
0.0
  0
ARC
  5
1A7
330
127
100
AcDbEntity
  8
D000126
  6
Continuous
 62
     7
100
AcDbCircle
 10
130.7567550658
 20
172.4329773417
 30
0.0
 40
0.4999999999999996
100
AcDbArc
 50
330.0000001986
 51
89.9840974708
  0
LINE
  5
1A8
330
127
100
AcDbEntity
  8
D000126
  6
Continuous
 62
     7
100
AcDbLine
 10
130.7568938415
 20
172.9329773225
 30
0.0
 11
128.9560592456
 21
172.9334771468
 31
0.0
  0
ARC
  5
1A9
330
127
100
AcDbEntity
  8
D000126
  6
Continuous
 62
     7
100
AcDbCircle
 10
128.9562257765
 20
173.5334771119
 30
0.0
 40
0.5999999882024643
100
AcDbArc
 50
88.8973241543
 51
269.9840974708
  0
LINE
  5
1AA
330
127
100
AcDbEntity
  8
D000126
  6
Continuous
 62
     7
100
AcDbLine
 10
128.9677722579
 20
174.1333659888
 30
0.0
 11
132.0266577719
 21
174.1327014937
 31
0.0
  0
ARC
  5
1AB
330
127
100
AcDbEntity
  8
D000126
  6
Continuous
 62
     7
100
AcDbCircle
 10
132.0267663891
 20
174.6327014819
 30
0.0
 40
0.5000000000000011
100
AcDbArc
 50
269.9875533879
 51
330.0
  0
LINE
  5
1AC
330
127
100
AcDbEntity
  8
D000126
  6
Continuous
 62
     7
100
AcDbLine
 10
132.459779091
 20
174.3827014819
 30
0.0
 11
133.7192836009
 21
176.5642272855
 31
0.0
  0
ARC
  5
1AD
330
127
100
AcDbEntity
  8
D000126
  6
Continuous
 62
     7
100
AcDbCircle
 10
133.286270899
 20
176.8142272855
 30
0.0
 40
0.4999999999999979
100
AcDbArc
 50
330.0
 51
36.9717713184
  0
ARC
  5
1AE
330
127
100
AcDbEntity
  8
D000126
  6
Continuous
 62
     7
100
AcDbCircle
 10
134.5317282011
 20
174.5714226113
 30
0.0
 40
0.5000000000000057
100
AcDbArc
 50
21.1161448812
 51
150.0
  0
LINE
  5
1AF
330
127
100
AcDbEntity
  8
D000126
  6
Continuous
 62
     7
100
AcDbLine
 10
134.0987154992
 20
174.8214226113
 30
0.0
 11
131.7451181623
 21
170.7448724432
 31
0.0
  0
ARC
  5
1B0
330
127
100
AcDbEntity
  8
D000126
  6
Continuous
 62
     7
100
AcDbCircle
 10
131.22550292
 20
171.0448724432
 30
0.0
 40
0.5999999999995187
100
AcDbArc
 50
150.0
 51
330.0
  0
ARC
  5
1B1
330
127
100
AcDbEntity
  8
D000126
  6
Continuous
 62
     7
100
AcDbCircle
 10
131.9562038133
 20
160.821007562
 30
0.0
 40
0.5999999999999999
100
AcDbArc
 50
180.0
 51
0.0
  0
LINE
  5
1B2
330
127
100
AcDbEntity
  8
D000126
  6
Continuous
 62
     7
100
AcDbLine
 10
133.4557955068
 20
166.2958832664
 30
0.0
 11
132.2930892404
 21
167.4585895328
 31
0.0
  0
ARC
  5
1B3
330
127
100
AcDbEntity
  8
D000126
  6
Continuous
 62
     7
100
AcDbCircle
 10
133.8800595755
 20
166.7201473351
 30
0.0
 40
0.6000000000000012
100
AcDbArc
 50
225.0
 51
330.710413992
  0
ARC
  5
1B4
330
127
100
AcDbEntity
  8
D000126
  6
Continuous
 62
     7
100
AcDbCircle
 10
125.8562040672
 20
171.221007562
 30
0.0
 40
11.0
100
AcDbArc
 50
308.9992577233
 51
231.0007435716
  0
ARC
  5
1B5
330
127
100
AcDbEntity
  8
D000126
  6
Continuous
 62
     7
100
AcDbCircle
 10
133.1562038133
 20
162.2060198356
 30
0.0
 40
0.5999999999999999
100
AcDbArc
 50
128.9992577233
 51
180.0
  0
LINE
  5
1B6
330
127
100
AcDbEntity
  8
D000126
  6
Continuous
 62
     7
100
AcDbLine
 10
132.5562038133
 20
160.821007562
 30
0.0
 11
132.5562038133
 21
162.2060198356
 31
0.0
  0
LINE
  5
1B8
330
127
100
AcDbEntity
  8
DV2_Standard
  6
CENTER2
 62
     7
100
AcDbLine
 10
125.8562040672
 20
156.7210071588
 30
0.0
 11
125.8562040672
 21
166.7210071588
 31
0.0
  0
ENDBLK
  5
1BA
330
127
100
AcDbEntity
  8
0
100
AcDbBlockEnd
  0
ENDSEC
  0
SECTION
  2
ENTITIES
  0
INSERT
  5
60
330
1F
100
AcDbEntity
  8
Standard
100
AcDbBlockReference
  2
SE
 10
0.0
 20
0.0
 30
0.0
  0
DIMENSION
  5
109
330
1F
100
AcDbEntity
  8
Standard
  6
Continuous
 62
     7
100
AcDbDimension
  2
DMBLK412
 10
69.6361164535
 20
151.7592063147
 30
0.0
 11
76.3361162479
 21
151.7592063147
 31
0.0
 70
   161
  1
\A1;<>
 71
     5
 42
-1.0
 73
     0
 74
     0
 75
     0
  3
E-Katalog
100
AcDbAlignedDimension
 13
69.6361164535
 23
160.821007562
 33
0.0
 14
83.0361157419
 24
160.821007562
 34
0.0
  0
DIMENSION
  5
113
330
1F
100
AcDbEntity
  8
Standard
  6
Continuous
 62
     7
100
AcDbDimension
  2
DMBLK413
 10
76.3361159959
 20
171.221007562
 30
0.0
 11
89.3151872845
 21
178.7080274141
 31
0.0
 70
   164
  1
\A1;<>
 71
     5
 42
-1.0
 73
     0
 74
     0
 75
     0
  3
E-Katalog
100
AcDbRadialDimension
 15
85.8644452945
 25
176.7174555766
 35
0.0
 40
0.0
1001
ACAD
1000
DSTYLE
1002
{
1070
   271
1070
     2
1070
   283
1070
     1
1070
     0
1002
}
  0
DIMENSION
  5
11B
330
1F
100
AcDbEntity
  8
Standard
  6
Continuous
 62
     7
100
AcDbDimension
  2
DMBLK414
 10
59.8000350837
 20
182.221007562
 30
0.0
 11
59.8000350837
 21
171.2210075448
 31
0.0
 70
   160
  1
\A1;<>{\H0.7x; \S+4^ 0;}
 71
     5
 42
-1.0
 73
     0
 74
     0
 75
     0
  3
E-Katalog
100
AcDbAlignedDimension
 13
70.2361164112
 23
160.2210076044
 33
0.0
 14
76.3361158716
 24
182.221007562
 34
0.0
 50
90.0
100
AcDbRotatedDimension
1001
ACAD
1000
DSTYLE
1002
{
1070
   271
1070
     2
1070
     0
1002
}
  0
INSERT
  5
128
330
1F
100
AcDbEntity
  8
Standard
100
AcDbBlockReference
  2
SE1
 10
0.0
 20
0.0
 30
0.0
  0
MTEXT
  5
1BC
330
1F
100
AcDbEntity
  8
Default
100
AcDbMText
 10
139.6221177889
 20
28.161474171
 30
0.0
 40
2.5
 41
60.0887616677
 46
5.4782708696
 71
     4
 72
     1
  1
{\fSolid Edge ISO|b0||i0||c0|p34;\C7;\H2.5;\W1.;BU-22K+}
 73
     1
 44
1.0
1001
ACAD
1000
ACAD_MTEXT_DEFINED_HEIGHT_BEGIN
1070
    46
1040
5.4782708696
1000
ACAD_MTEXT_DEFINED_HEIGHT_END
  0
LINE
  5
1BD
330
1F
100
AcDbEntity
  8
Default
  6
Continuous
 62
     7
100
AcDbLine
 10
138.2000000051
 20
9.9999999541
 30
0.0
 11
138.2000000051
 21
34.3502211504
 31
0.0
  0
MTEXT
  5
1BE
330
1F
100
AcDbEntity
  8
Default
100
AcDbMText
 10
122.5168744495
 20
17.5485405285
 30
0.0
 40
2.2
 41
15.7520375387
 46
4.0615484615
 71
     1
 72
     1
  1
{\fCiutadella Regular|b0||i0||c0|p34;\C7;\H2.2;\W0.5776;Maßst.}{\fCiutadella Regular|b0||i0||c0|p34;\C7;\H1.5;\W0.5776;/ scale}
 73
     1
 44
1.0
1001
ACAD
1000
ACAD_MTEXT_DEFINED_HEIGHT_BEGIN
1070
    46
1040
4.0615484615
1000
ACAD_MTEXT_DEFINED_HEIGHT_END
  0
MTEXT
  5
1BF
330
1F
100
AcDbEntity
  8
Default
100
AcDbMText
 10
148.2238718478
 20
15.907103298
 30
0.0
 40
2.2
 41
18.1206027323
 46
4.0615484615
 71
     5
 72
     1
  1
{\fCiutadella Regular|b0||i0||c0|p34;\C7;\H2.2;\W0.5776;Art. Nr.}{\fCiutadella Regular|b0||i0||c0|p34;\C7;\H1.5;\W0.5776;/ art. no.}
 73
     1
 44
1.0
1001
ACAD
1000
ACAD_MTEXT_DEFINED_HEIGHT_BEGIN
1070
    46
1040
4.0615484615
1000
ACAD_MTEXT_DEFINED_HEIGHT_END
  0
MTEXT
  5
1C0
330
1F
100
AcDbEntity
  8
Default
100
AcDbMText
 10
139.5512791446
 20
32.9682471949
 30
0.0
 40
2.2
 41
21.7100432289
 46
4.0615484615
 71
     1
 72
     1
  1
{\fCiutadella Regular|b0||i0||c0|p34;\C7;\H2.2;\W0.82;Benennung}{\fCiutadella Regular|b0||i0||c0|p34;\C7;\H1.5;\W0.82;/ title}
 73
     1
 44
1.0
1001
ACAD
1000
ACAD_MTEXT_DEFINED_HEIGHT_BEGIN
1070
    46
1040
4.0615484615
1000
ACAD_MTEXT_DEFINED_HEIGHT_END
  0
LINE
  5
1C1
330
1F
100
AcDbEntity
  8
Default
  6
Continuous
 62
     7
100
AcDbLine
 10
9.9999999859
 20
25.9987912971
 30
0.0
 11
199.9999999859
 21
25.9987912971
 31
0.0
  0
LINE
  5
1C2
330
1F
100
AcDbEntity
  8
Default
  6
Continuous
 62
     7
100
AcDbLine
 10
138.2000000051
 20
34.3502211504
 30
0.0
 11
199.9999999859
 21
34.3502211504
 31
0.0
  0
MTEXT
  5
1C3
330
1F
100
AcDbEntity
  8
Default
100
AcDbMText
 10
139.7786414766
 20
12.1030055624
 30
0.0
 40
3.0
 41
18.7991063348
 46
5.0845858028
 71
     4
 72
     1
  1
{\fSolid Edge ISO|b0||i0||c0|p34;\C7;\H3.;\W1.;5-340}
 73
     1
 44
1.0
1001
ACAD
1000
ACAD_MTEXT_DEFINED_HEIGHT_BEGIN
1070
    46
1040
5.0845858028
1000
ACAD_MTEXT_DEFINED_HEIGHT_END
  0
MTEXT
  5
1C4
330
1F
100
AcDbEntity
  8
Standard
100
AcDbMText
 10
128.2243715112
 20
21.9523050455
 30
0.0
 40
2.5
 41
4.125011
 46
4.0909190909
 71
     1
 72
     1
  1
{\fSolid Edge ISO|b0||i0||c0|p34;\C7;\H2.5;\W1.;mm}
 73
     1
 44
1.0
1001
ACAD
1000
ACAD_MTEXT_DEFINED_HEIGHT_BEGIN
1070
    46
1040
4.0909190909
1000
ACAD_MTEXT_DEFINED_HEIGHT_END
  0
LINE
  5
1C5
330
1F
100
AcDbEntity
  8
Standard
  6
Continuous
 62
     7
100
AcDbLine
 10
138.2000000051
 20
18.2287912793
 30
0.0
 11
106.3095894048
 21
18.2287912793
 31
0.0
  0
LINE
  5
1C6
330
1F
100
AcDbEntity
  8
Standard
  6
Continuous
 62
     7
100
AcDbLine
 10
106.3095894048
 20
25.9987912971
 30
0.0
 11
106.3095894048
 21
9.9999999541
 31
0.0
  0
MTEXT
  5
1C7
330
1F
100
AcDbEntity
  8
Standard
100
AcDbMText
 10
106.9145404388
 20
25.2290846617
 30
0.0
 40
2.2
 41
14.4015494615
 46
4.0615484615
 71
     1
 72
     1
  1
{\fCiutadella Regular|b0||i0||c0|p34;\C7;\H2.2;\W0.5776;freig.}{\fCiutadella Regular|b0||i0||c0|p34;\C7;\H1.5;\W0.5776;/ appr.}
 73
     1
 44
1.0
1001
ACAD
1000
ACAD_MTEXT_DEFINED_HEIGHT_BEGIN
1070
    46
1040
4.0615484615
1000
ACAD_MTEXT_DEFINED_HEIGHT_END
  0
MTEXT
  5
1C8
330
1F
100
AcDbEntity
  8
Default
100
AcDbMText
 10
107.6188207159
 20
17.6037681847
 30
0.0
 40
2.2
 41
13.1956831311
 46
4.0615484615
 71
     1
 72
     1
  1
{\fCiutadella Regular|b0||i0||c0|p34;\C7;\H2.2;\W0.5776;Blatt}{\fCiutadella Regular|b0||i0||c0|p34;\C7;\H1.5;\W0.5776;/ sheet}
 73
     1
 44
1.0
1001
ACAD
1000
ACAD_MTEXT_DEFINED_HEIGHT_BEGIN
1070
    46
1040
4.0615484615
1000
ACAD_MTEXT_DEFINED_HEIGHT_END
  0
MTEXT
  5
1C9
330
1F
100
AcDbEntity
  8
Standard
100
AcDbMText
 10
112.0531670475
 20
14.2192192227
 30
0.0
 40
3.0
 41
3.750011
 46
4.9091009091
 71
     1
 72
     1
  1
{\fSolid Edge ISO|b0||i0||c0|p34;\C7;\H3.;\W1.;A4}
 73
     1
 44
1.0
1001
ACAD
1000
ACAD_MTEXT_DEFINED_HEIGHT_BEGIN
1070
    46
1040
4.9091009091
1000
ACAD_MTEXT_DEFINED_HEIGHT_END
  0
MTEXT
  5
1CA
330
1F
100
AcDbEntity
  8
Default
100
AcDbMText
 10
107.1395513873
 20
20.4081738308
 30
0.0
 40
2.2
 41
14.7330465525
 46
3.6
 71
     4
 72
     1
  1
{\fSolid Edge ISO|b0||i0||c0|p34;\C7;\H2.2;\W1.;02.11.2023}
 73
     1
 44
1.0
1001
ACAD
1000
ACAD_MTEXT_DEFINED_HEIGHT_BEGIN
1070
    46
1040
3.6
1000
ACAD_MTEXT_DEFINED_HEIGHT_END
  0
MTEXT
  5
1CB
330
1F
100
AcDbEntity
  8
Standard
100
AcDbMText
 10
10.6587314417
 20
33.7981133176
 30
0.0
 40
1.2
 41
127.5412685634
 46
8.1685527897
 71
     1
 72
     1
  3
{\fCiutadella Regular|b0||i0||c0|p34;\C7;\H1.2;\W0.82;Weitergabe sowie Vervielfältigung dieser vertraulichen Unterlage(n), Verwertung und Mitteilung ihres Inhalts nicht ohne unsere vorherige schriftliche Genehmigung gestattet. \P}{\fCiutadella Regula
  3
r|b0||i0||c0|p34;\C7;\H1.2;\W0.82;Zuwiderhandlungen verpflichten zu Schadenersatz. Alle Rechte für den Fall der Patenterteilung oder Gebrauchsmuster-Eintragung vorbehalten.\P}{\fCiutadella Regular|b0||i0||c0|p34;\C7;\H1.;\W0.82;The copying, use, dist
  3
ribution or disclosure of the confidential and proprietary information contained in this document(s) is strictly prohibited without prior written consent. Any breach shall subject the \P}{\fCiutadella Regular|b0||i0||c0|p34;\C7;\H1.;\W0.82;infringing
  1
 party to remedies. The owner reserves all rights in the event of the grant of a patent or the registration of a utility model or design.}
 73
     1
 44
0.9
1001
ACAD
1000
ACAD_MTEXT_DEFINED_HEIGHT_BEGIN
1070
    46
1040
8.1685527897
1000
ACAD_MTEXT_DEFINED_HEIGHT_END
  0
MTEXT
  5
1CC
330
1F
100
AcDbEntity
  8
Default
100
AcDbMText
 10
139.5531289039
 20
20.5520608538
 30
0.0
 40
2.5
 41
59.872727305
 46
4.6153946154
 71
     4
 72
     1
  1
{\fSolid Edge ISO|b0||i0||c0|p34;\C7;\H2.5;\W1.;technische Zeichnung mkt}
 73
     1
 44
1.0
1001
ACAD
1000
ACAD_MTEXT_DEFINED_HEIGHT_BEGIN
1070
    46
1040
4.6153946154
1000
ACAD_MTEXT_DEFINED_HEIGHT_END
  0
MTEXT
  5
1CD
330
1F
100
AcDbEntity
  8
Default
100
AcDbMText
 10
139.645932934
 20
25.5772390452
 30
0.0
 40
2.2
 41
33.0612482929
 46
4.0615484615
 71
     1
 72
     1
  1
{\fCiutadella Regular|b0||i0||c0|p34;\C7;\H2.2;\W0.82;Zeichnungsart}{\fCiutadella Regular|b0||i0||c0|p34;\C7;\H1.5;\W0.82;/ drawing type}
 73
     1
 44
1.0
1001
ACAD
1000
ACAD_MTEXT_DEFINED_HEIGHT_BEGIN
1070
    46
1040
4.0615484615
1000
ACAD_MTEXT_DEFINED_HEIGHT_END
  0
MTEXT
  5
1CE
330
1F
100
AcDbEntity
  8
Standard
100
AcDbMText
 10
122.722860057
 20
25.1473558409
 30
0.0
 40
2.2
 41
15.8428315128
 46
4.0615484615
 71
     1
 72
     1
  1
{\fCiutadella Regular|b0||i0||c0|p34;\C7;\H2.2;\W0.5776;Einheit}{\fCiutadella Regular|b0||i0||c0|p34;\C7;\H1.5;\W0.5776;/ unit}
 73
     1
 44
1.0
1001
ACAD
1000
ACAD_MTEXT_DEFINED_HEIGHT_BEGIN
1070
    46
1040
4.0615484615
1000
ACAD_MTEXT_DEFINED_HEIGHT_END
  0
LINE
  5
1CF
330
1F
100
AcDbEntity
  8
Standard
  6
Continuous
 62
     7
100
AcDbLine
 10
122.1841943695
 20
25.9987912971
 30
0.0
 11
122.1841943695
 21
10.0
 31
0.0
  0
LINE
  5
1D0
330
1F
100
AcDbEntity
  8
Standard
  6
Continuous
 62
     7
100
AcDbLine
 10
138.2000000051
 20
18.2287912793
 30
0.0
 11
200.0
 21
18.2287912793
 31
0.0
  0
LINE
  5
1D1
330
1F
100
AcDbEntity
  8
Standard
  6
Continuous
 62
     7
100
AcDbLine
 10
138.2000000051
 20
34.3502211504
 30
0.0
 11
10.0
 21
34.3502211504
 31
0.0
  0
LINE
  5
1D3
330
1F
100
AcDbEntity
  8
Skizziergeometrie(DIN)
  6
Continuous
 62
     7
100
AcDbLine
 10
10.0
 20
287.0
 30
0.0
 11
200.0
 21
287.0
 31
0.0
  0
LINE
  5
1D4
330
1F
100
AcDbEntity
  8
Skizziergeometrie(DIN)
  6
Continuous
 62
     7
100
AcDbLine
 10
200.0
 20
287.0
 30
0.0
 11
200.0
 21
9.9999926436
 31
0.0
  0
LINE
  5
1D5
330
1F
100
AcDbEntity
  8
Skizziergeometrie(DIN)
  6
Continuous
 62
     7
100
AcDbLine
 10
200.0
 20
9.9999926436
 30
0.0
 11
10.0
 21
9.9999926436
 31
0.0
  0
LINE
  5
1D6
330
1F
100
AcDbEntity
  8
Skizziergeometrie(DIN)
  6
Continuous
 62
     7
100
AcDbLine
 10
10.0
 20
10.0
 30
0.0
 11
10.0
 21
287.0
 31
0.0
  0
MTEXT
  5
1D7
330
1F
100
AcDbEntity
  8
Standard
100
AcDbMText
 10
128.0338637269
 20
14.0002455575
 30
0.0
 40
3.0
 41
3.225011
 46
4.9091009091
 71
     1
 72
     1
  1
{\fSolid Edge ISO|b0||i0||c0|p34;\C7;\H3.;\W1.;1:1}
 73
     1
 44
1.0
1001
ACAD
1000
ACAD_MTEXT_DEFINED_HEIGHT_BEGIN
1070
    46
1040
4.9091009091
1000
ACAD_MTEXT_DEFINED_HEIGHT_END
  0
IMAGE
  5
1DB
330
1F
100
AcDbEntity
  8
0
 92
      140
310
8C000000010000008400000006000000050000000E64D78BE9972B40BC01B030F29425400000000000000000559114E8E5774740BC01B030F29425400000000000000000559114E8E5774740017F9619FA7E384000000000000000000E64D78BE9972B40017F9619FA7E384000000000000000000E64D78BE9972B40BC01B0
310
30F29425400000000000000000
100
AcDbRasterImage
 90
        0
 10
13.7967036915
 20
10.7909102645
 30
0.0
 11
0.07742990654205607
 21
0.0
 31
0.0
 12
0.0
 22
0.07742990654205609
 32
0.0
 13
428.0
 23
177.0
340
1DA
 70
     7
280
     0
281
    50
282
    50
283
     0
360
1DC
 71
     1
 91
        2
 14
-0.5
 24
-0.5
 14
427.5
 24
176.5
  0
ENDSEC
  0
SECTION
  2
OBJECTS
  0
DICTIONARY
  5
C
330
0
100
AcDbDictionary
281
     1
  3
ACAD_DETAILVIEWSTYLE
350
218
  3
ACAD_GROUP
350
D
  3
ACAD_IMAGE_DICT
350
1D9
  3
ACAD_IMAGE_VARS
350
1D8
  3
ACAD_LAYOUT
350
1A
  3
ACAD_MATERIAL
350
43
  3
ACAD_MLEADERSTYLE
350
5B
  3
ACAD_MLINESTYLE
350
17
  3
ACAD_PLOTSETTINGS
350
19
  3
ACAD_PLOTSTYLENAME
350
E
  3
ACAD_SCALELIST
350
47
  3
ACAD_SECTIONVIEWSTYLE
350
219
  3
ACAD_TABLESTYLE
350
59
  3
ACAD_VISUALSTYLE
350
2A
  3
ACDB_RECOMPOSE_DATA
350
215
  3
AcDbVariableDictionary
350
1DD
  0
SUN
  5
5D
330
29
100
AcDbSun
 90
        1
290
     0
 63
     7
421
 16777215
 40
1.0
291
     1
 91
  2455826
 92
 54000000
292
     0
 70
     2
 71
   256
280
     1
  0
IMAGEDEF_REACTOR
  5
1DC
330
1DB
100
AcDbRasterImageDefReactor
 90
        2
330
1DB
  0
DICTIONARY
  5
218
102
{ACAD_REACTORS
330
C
102
}
330
C
100
AcDbDictionary
281
     1
  0
DICTIONARY
  5
D
102
{ACAD_REACTORS
330
C
102
}
330
C
100
AcDbDictionary
281
     1
  0
DICTIONARY
  5
1D9
102
{ACAD_REACTORS
330
C
102
}
330
C
100
AcDbDictionary
281
     1
  3
BU-22K+-1x_1.bmp
350
1DA
  0
RASTERVARIABLES
  5
1D8
102
{ACAD_REACTORS
330
C
102
}
330
C
100
AcDbRasterVariables
 90
        0
 70
     1
 71
     1
 72
     1
  0
DICTIONARY
  5
1A
102
{ACAD_REACTORS
330
C
102
}
330
C
100
AcDbDictionary
281
     1
  3
Layout1
350
1E
  3
Model
350
22
  0
DICTIONARY
  5
43
102
{ACAD_REACTORS
330
C
102
}
330
C
100
AcDbDictionary
281
     1
  3
ByBlock
350
45
  3
ByLayer
350
44
  3
Global
350
46
  0
DICTIONARY
  5
5B
102
{ACAD_REACTORS
330
C
102
}
330
C
100
AcDbDictionary
281
     1
  3
Standard
350
5C
  0
DICTIONARY
  5
17
102
{ACAD_REACTORS
330
C
102
}
330
C
100
AcDbDictionary
281
     1
  3
Standard
350
18
  0
DICTIONARY
  5
19
102
{ACAD_REACTORS
330
C
102
}
330
C
100
AcDbDictionary
281
     1
  0
ACDBDICTIONARYWDFLT
  5
E
102
{ACAD_REACTORS
330
C
102
}
330
C
100
AcDbDictionary
281
     1
  3
Normal
350
F
100
AcDbDictionaryWithDefault
340
F
  0
DICTIONARY
  5
47
102
{ACAD_REACTORS
330
C
102
}
330
C
100
AcDbDictionary
281
     1
  3
A0
350
48
  3
A1
350
49
  3
A2
350
4A
  3
A3
350
4B
  3
A4
350
4C
  3
A5
350
4D
  3
A6
350
4E
  3
A7
350
4F
  3
A8
350
50
  3
A9
350
51
  3
B0
350
52
  3
B1
350
53
  3
B2
350
54
  3
B3
350
55
  3
B4
350
56
  3
B5
350
57
  3
B6
350
58
  0
DICTIONARY
  5
219
102
{ACAD_REACTORS
330
C
102
}
330
C
100
AcDbDictionary
281
     1
  0
DICTIONARY
  5
59
102
{ACAD_REACTORS
330
C
102
}
330
C
100
AcDbDictionary
281
     1
  3
Standard
350
5A
  0
DICTIONARY
  5
2A
102
{ACAD_REACTORS
330
C
102
}
330
C
100
AcDbDictionary
281
     1
  3
2dWireframe
350
2F
  3
Basic
350
32
  3
Brighten
350
36
  3
ColorChange
350
3A
  3
Conceptual
350
34
  3
Dim
350
35
  3
EdgeColorOff
350
3D
  3
Facepattern
350
39
  3
Flat
350
2B
  3
FlatWithEdges
350
2C
  3
Gouraud
350
2D
  3
GouraudWithEdges
350
2E
  3
Hidden
350
31
  3
JitterOff
350
3B
  3
Linepattern
350
38
  3
OverhangOff
350
3C
  3
Realistic
350
33
  3
Shaded
350
42
  3
Shaded with edges
350
41
  3
Shades of Gray
350
3E
  3
Sketchy
350
3F
  3
Thicken
350
37
  3
Wireframe
350
30
  3
X-Ray
350
40
  0
XRECORD
  5
215
102
{ACAD_REACTORS
330
C
102
}
330
C
100
AcDbXrecord
280
     1
 90
        1
330
5A
  0
DICTIONARY
  5
1DD
102
{ACAD_REACTORS
330
C
102
}
330
C
100
AcDbDictionary
281
     1
  3
CANNOSCALE
350
1DE
  3
CENTEREXE
350
21A
  3
CENTERLTYPEFILE
350
21B
  3
CMLEADERSTYLE
350
217
  3
CTABLESTYLE
350
216
  3
XCLIPFRAME
350
1DF
  0
IMAGEDEF
  5
1DA
102
{ACAD_REACTORS
330
1D9
330
1DC
102
}
330
1D9
100
AcDbRasterImageDef
 90
        0
  1
BU-22K+-1x_1.bmp
 10
428.0
 20
177.0
 11
0.002336448598130841
 21
0.002336448598130841
280
     1
281
     5
  0
LAYOUT
  5
1E
102
{ACAD_REACTORS
330
1A
102
}
330
1A
100
AcDbPlotSettings
  1

  2
none_device
  4

  6

 40
0.0
 41
0.0
 42
0.0
 43
0.0
 44
0.0
 45
0.0
 46
0.0
 47
0.0
 48
0.0
 49
0.0
140
0.0
141
0.0
142
1.0
143
1.0
 70
   688
 72
     1
 73
     0
 74
     5
  7

 75
    16
 76
     0
 77
     2
 78
   300
147
1.0
148
0.0
149
0.0
100
AcDbLayout
  1
Layout1
 70
     1
 71
     1
 10
0.0
 20
0.0
 11
210.0
 21
297.0
 12
0.0
 22
0.0
 32
0.0
 14
0.0
 24
0.0
 34
0.0
 15
210.0
 25
297.0
 35
0.0
146
0.0
 13
0.0
 23
0.0
 33
0.0
 16
1.0
 26
0.0
 36
0.0
 17
0.0
 27
1.0
 37
0.0
 76
     0
330
1B
  0
LAYOUT
  5
22
102
{ACAD_REACTORS
330
1A
102
}
330
1A
100
AcDbPlotSettings
  1

  2
none_device
  4
Letter_(8.50_x_11.00_Inches)
  6

 40
6.35
 41
6.35
 42
6.35000508
 43
6.35000508
 44
215.9
 45
279.4
 46
0.0
 47
0.0
 48
0.0
 49
0.0
140
0.0
141
0.0
142
1.0
143
1.0
 70
  1712
 72
     1
 73
     0
 74
     0
  7

 75
     0
 76
     0
 77
     2
 78
   300
147
1.0
148
0.0
149
0.0
100
AcDbLayout
  1
Model
 70
     1
 71
     0
 10
0.0
 20
0.0
 11
210.0
 21
297.0
 12
0.0
 22
0.0
 32
0.0
 14
0.0
 24
0.0
 34
0.0
 15
210.0
 25
297.0
 35
0.0
146
0.0
 13
0.0
 23
0.0
 33
0.0
 16
1.0
 26
0.0
 36
0.0
 17
0.0
 27
1.0
 37
0.0
 76
     0
330
1F
331
29
  0
MATERIAL
  5
45
102
{ACAD_REACTORS
330
43
102
}
330
43
100
AcDbMaterial
  1
ByBlock
 72
     1
 94
      127
  0
MATERIAL
  5
44
102
{ACAD_REACTORS
330
43
102
}
330
43
100
AcDbMaterial
  1
ByLayer
 72
     1
 94
      127
  0
MATERIAL
  5
46
102
{ACAD_REACTORS
330
43
102
}
330
43
100
AcDbMaterial
  1
Global
 72
     1
 94
      127
  0
MLEADERSTYLE
  5
5C
102
{ACAD_REACTORS
330
5B
102
}
102
{ACAD_XDICTIONARY
360
213
102
}
330
5B
100
AcDbMLeaderStyle
170
     2
171
     1
172
     0
 90
        2
 40
0.0
 41
0.0
173
     1
 91
-1056964608
340
14
 92
       -2
290
     1
 42
2.0
291
     1
 43
8.0
  3
Standard
341
0
 44
4.0
300

342
11
174
     1
178
     6
175
     1
176
     0
 93
-1056964608
 45
4.0
292
     0
297
     0
 46
4.0
343
0
 94
-1056964608
 47
1.0
 49
1.0
140
1.0
293
     1
141
0.0
294
     1
177
     0
142
1.0
295
     0
296
     0
143
3.75
1001
ACAD_MLEADERVER
1070
     2
  0
MLINESTYLE
  5
18
102
{ACAD_REACTORS
330
17
102
}
330
17
100
AcDbMlineStyle
  2
Standard
 70
     0
  3

 62
   256
 51
90.0
 52
90.0
 71
     2
 49
0.5
 62
   256
  6
BYLAYER
 49
-0.5
 62
   256
  6
BYLAYER
  0
ACDBPLACEHOLDER
  5
F
102
{ACAD_REACTORS
330
E
102
}
330
E
  0
SCALE
  5
48
102
{ACAD_REACTORS
330
47
102
}
330
47
100
AcDbScale
 70
     0
300
1:1
140
1.0
141
1.0
290
     1
  0
SCALE
  5
49
102
{ACAD_REACTORS
330
47
102
}
330
47
100
AcDbScale
 70
     0
300
1:2
140
1.0
141
2.0
290
     0
  0
SCALE
  5
4A
102
{ACAD_REACTORS
330
47
102
}
330
47
100
AcDbScale
 70
     0
300
1:4
140
1.0
141
4.0
290
     0
  0
SCALE
  5
4B
102
{ACAD_REACTORS
330
47
102
}
330
47
100
AcDbScale
 70
     0
300
1:5
140
1.0
141
5.0
290
     0
  0
SCALE
  5
4C
102
{ACAD_REACTORS
330
47
102
}
330
47
100
AcDbScale
 70
     0
300
1:8
140
1.0
141
8.0
290
     0
  0
SCALE
  5
4D
102
{ACAD_REACTORS
330
47
102
}
330
47
100
AcDbScale
 70
     0
300
1:10
140
1.0
141
10.0
290
     0
  0
SCALE
  5
4E
102
{ACAD_REACTORS
330
47
102
}
330
47
100
AcDbScale
 70
     0
300
1:16
140
1.0
141
16.0
290
     0
  0
SCALE
  5
4F
102
{ACAD_REACTORS
330
47
102
}
330
47
100
AcDbScale
 70
     0
300
1:20
140
1.0
141
20.0
290
     0
  0
SCALE
  5
50
102
{ACAD_REACTORS
330
47
102
}
330
47
100
AcDbScale
 70
     0
300
1:30
140
1.0
141
30.0
290
     0
  0
SCALE
  5
51
102
{ACAD_REACTORS
330
47
102
}
330
47
100
AcDbScale
 70
     0
300
1:40
140
1.0
141
40.0
290
     0
  0
SCALE
  5
52
102
{ACAD_REACTORS
330
47
102
}
330
47
100
AcDbScale
 70
     0
300
1:50
140
1.0
141
50.0
290
     0
  0
SCALE
  5
53
102
{ACAD_REACTORS
330
47
102
}
330
47
100
AcDbScale
 70
     0
300
1:100
140
1.0
141
100.0
290
     0
  0
SCALE
  5
54
102
{ACAD_REACTORS
330
47
102
}
330
47
100
AcDbScale
 70
     0
300
2:1
140
2.0
141
1.0
290
     0
  0
SCALE
  5
55
102
{ACAD_REACTORS
330
47
102
}
330
47
100
AcDbScale
 70
     0
300
4:1
140
4.0
141
1.0
290
     0
  0
SCALE
  5
56
102
{ACAD_REACTORS
330
47
102
}
330
47
100
AcDbScale
 70
     0
300
8:1
140
8.0
141
1.0
290
     0
  0
SCALE
  5
57
102
{ACAD_REACTORS
330
47
102
}
330
47
100
AcDbScale
 70
     0
300
10:1
140
10.0
141
1.0
290
     0
  0
SCALE
  5
58
102
{ACAD_REACTORS
330
47
102
}
330
47
100
AcDbScale
 70
     0
300
100:1
140
100.0
141
1.0
290
     0
  0
TABLESTYLE
  5
5A
102
{ACAD_REACTORS
330
59
102
}
102
{ACAD_XDICTIONARY
360
210
102
}
330
59
100
AcDbTableStyle
  3
Standard
 70
     0
 71
     0
 40
0.06
 41
0.06
280
     0
281
     0
  7
Standard
140
4.5
170
     2
 62
     0
 63
   257
283
     0
 90
        4
 91
        0
  1

274
    -2
284
     1
 64
     0
275
    -2
285
     1
 65
     0
276
    -2
286
     1
 66
     0
277
    -2
287
     1
 67
     0
278
    -2
288
     1
 68
     0
279
    -2
289
     1
 69
     0
  7
Standard
140
6.0
170
     5
 62
     0
 63
   257
283
     0
 90
        4
 91
        0
  1

274
    -2
284
     1
 64
     0
275
    -2
285
     1
 65
     0
276
    -2
286
     1
 66
     0
277
    -2
287
     1
 67
     0
278
    -2
288
     1
 68
     0
279
    -2
289
     1
 69
     0
  7
Standard
140
4.5
170
     5
 62
     0
 63
   257
283
     0
 90
        4
 91
        0
  1

274
    -2
284
     1
 64
     0
275
    -2
285
     1
 65
     0
276
    -2
286
     1
 66
     0
277
    -2
287
     1
 67
     0
278
    -2
288
     1
 68
     0
279
    -2
289
     1
 69
     0
  0
VISUALSTYLE
  5
2F
102
{ACAD_REACTORS
330
2A
102
}
102
{ACAD_XDICTIONARY
360
1E8
102
}
330
2A
100
AcDbVisualStyle
  2
2dWireframe
 70
     4
 71
     0
 72
     2
 73
     0
 90
        0
 40
0.6
 41
30.0
 62
     5
 63
     7
421
 16777215
 74
     1
 91
        4
 64
     7
 65
   257
 75
     1
175
     1
 42
1.0
 92
        0
 66
   257
 43
1.0
 76
     1
 77
     6
 78
     2
 67
     7
 79
     5
170
     0
171
     0
290
     0
174
     0
 93
        1
 44
0.0
173
     0
291
     0
 45
0.0
  0
VISUALSTYLE
  5
32
102
{ACAD_REACTORS
330
2A
102
}
102
{ACAD_XDICTIONARY
360
1EE
102
}
330
2A
100
AcDbVisualStyle
  2
Basic
 70
     7
 71
     1
 72
     0
 73
     1
 90
        0
 40
0.6
 41
30.0
 62
     5
 63
     7
421
 16777215
 74
     0
 91
        4
 64
     7
 65
   257
 75
     1
175
     1
 42
1.0
 92
        8
 66
     7
 43
1.0
 76
     1
 77
     6
 78
     2
 67
     7
 79
     5
170
     0
171
     0
290
     0
174
     0
 93
        1
 44
0.0
173
     0
291
     1
 45
0.0
  0
VISUALSTYLE
  5
36
102
{ACAD_REACTORS
330
2A
102
}
102
{ACAD_XDICTIONARY
360
1F6
102
}
330
2A
100
AcDbVisualStyle
  2
Brighten
 70
    12
 71
     2
 72
     2
 73
     0
 90
        0
 40
0.6
 41
30.0
 62
     5
 63
     7
421
 16777215
 74
     1
 91
        4
 64
     7
 65
   257
 75
     1
175
     1
 42
1.0
 92
        8
 66
     7
 43
1.0
 76
     1
 77
     6
 78
     2
 67
     7
 79
     5
170
     0
171
     0
290
     0
174
     0
 93
        1
 44
50.0
173
     0
291
     1
 45
0.0
  0
VISUALSTYLE
  5
3A
102
{ACAD_REACTORS
330
2A
102
}
102
{ACAD_XDICTIONARY
360
1FE
102
}
330
2A
100
AcDbVisualStyle
  2
ColorChange
 70
    16
 71
     2
 72
     2
 73
     3
 90
        0
 40
0.6
 41
30.0
 62
     5
 63
     8
421
  8421504
 74
     1
 91
        4
 64
     7
 65
   257
 75
     1
175
     1
 42
1.0
 92
        8
 66
     8
424
  8421504
 43
1.0
 76
     1
 77
     6
 78
     2
 67
     7
 79
     5
170
     0
171
     0
290
     0
174
     0
 93
        1
 44
0.0
173
     0
291
     1
 45
0.0
  0
VISUALSTYLE
  5
34
102
{ACAD_REACTORS
330
2A
102
}
102
{ACAD_XDICTIONARY
360
1F2
102
}
330
2A
100
AcDbVisualStyle
  2
Conceptual
 70
     9
 71
     3
 72
     2
 73
     0
 90
        0
 40
0.6
 41
30.0
 62
     5
 63
     7
421
 16777215
 74
     2
 91
        2
 64
     7
 65
   257
 75
     1
175
     1
 42
179.0
 92
        8
 66
     7
 43
1.0
 76
     1
 77
     6
 78
     2
 67
     7
 79
     3
170
     0
171
     0
290
     0
174
     0
 93
        1
 44
0.0
173
     0
291
     0
 45
0.0
  0
VISUALSTYLE
  5
35
102
{ACAD_REACTORS
330
2A
102
}
102
{ACAD_XDICTIONARY
360
1F4
102
}
330
2A
100
AcDbVisualStyle
  2
Dim
 70
    11
 71
     2
 72
     2
 73
     0
 90
        0
 40
0.6
 41
30.0
 62
     5
 63
     7
421
 16777215
 74
     1
 91
        4
 64
     7
 65
   257
 75
     1
175
     1
 42
1.0
 92
        8
 66
     7
 43
1.0
 76
     1
 77
     6
 78
     2
 67
     7
 79
     5
170
     0
171
     0
290
     0
174
     0
 93
        1
 44
-50.0
173
     0
291
     1
 45
0.0
  0
VISUALSTYLE
  5
3D
102
{ACAD_REACTORS
330
2A
102
}
102
{ACAD_XDICTIONARY
360
204
102
}
330
2A
100
AcDbVisualStyle
  2
EdgeColorOff
 70
    22
 71
     2
 72
     2
 73
     0
 90
        0
 40
0.6
 41
30.0
 62
     5
 63
     7
421
 16777215
 74
     1
 91
        4
 64
     7
 65
   257
 75
     1
175
     1
 42
1.0
 92
        8
 66
     7
 43
1.0
 76
     1
 77
     6
 78
     2
 67
     7
 79
     5
170
     0
171
     0
290
     0
174
     0
 93
        1
 44
0.0
173
     0
291
     1
 45
0.0
  0
VISUALSTYLE
  5
39
102
{ACAD_REACTORS
330
2A
102
}
102
{ACAD_XDICTIONARY
360
1FC
102
}
330
2A
100
AcDbVisualStyle
  2
Facepattern
 70
    15
 71
     2
 72
     2
 73
     0
 90
        0
 40
0.6
 41
30.0
 62
     5
 63
     7
421
 16777215
 74
     1
 91
        4
 64
     7
 65
   257
 75
     1
175
     1
 42
1.0
 92
        8
 66
     7
 43
1.0
 76
     1
 77
     6
 78
     2
 67
     7
 79
     5
170
     0
171
     0
290
     0
174
     0
 93
        1
 44
0.0
173
     0
291
     1
 45
0.0
  0
VISUALSTYLE
  5
2B
102
{ACAD_REACTORS
330
2A
102
}
102
{ACAD_XDICTIONARY
360
1E0
102
}
330
2A
100
AcDbVisualStyle
  2
Flat
 70
     0
 71
     2
 72
     1
 73
     1
 90
        2
 40
0.6
 41
30.0
 62
     5
 63
     7
421
 16777215
 74
     0
 91
        0
 64
     7
 65
   257
 75
     1
175
     1
 42
1.0
 92
        8
 66
     7
 43
1.0
 76
     1
 77
     6
 78
     2
 67
     7
 79
     5
170
     0
171
     0
290
     0
174
     0
 93
       13
 44
0.0
173
     0
291
     1
 45
0.0
  0
VISUALSTYLE
  5
2C
102
{ACAD_REACTORS
330
2A
102
}
102
{ACAD_XDICTIONARY
360
1E2
102
}
330
2A
100
AcDbVisualStyle
  2
FlatWithEdges
 70
     1
 71
     2
 72
     1
 73
     1
 90
        2
 40
0.6
 41
30.0
 62
     5
 63
     7
421
 16777215
 74
     1
 91
        0
 64
     7
 65
   257
 75
     1
175
     1
 42
1.0
 92
        0
 66
   257
 43
1.0
 76
     1
 77
     6
 78
     2
 67
     7
 79
     5
170
     0
171
     0
290
     0
174
     0
 93
       13
 44
0.0
173
     0
291
     1
 45
0.0
  0
VISUALSTYLE
  5
2D
102
{ACAD_REACTORS
330
2A
102
}
102
{ACAD_XDICTIONARY
360
1E4
102
}
330
2A
100
AcDbVisualStyle
  2
Gouraud
 70
     2
 71
     2
 72
     2
 73
     1
 90
        2
 40
0.6
 41
30.0
 62
     5
 63
     7
421
 16777215
 74
     0
 91
        0
 64
     7
 65
   257
 75
     1
175
     1
 42
1.0
 92
        0
 66
     7
 43
1.0
 76
     1
 77
     6
 78
     2
 67
     7
 79
     5
170
     0
171
     0
290
     0
174
     0
 93
       13
 44
0.0
173
     0
291
     1
 45
0.0
  0
VISUALSTYLE
  5
2E
102
{ACAD_REACTORS
330
2A
102
}
102
{ACAD_XDICTIONARY
360
1E6
102
}
330
2A
100
AcDbVisualStyle
  2
GouraudWithEdges
 70
     3
 71
     2
 72
     2
 73
     1
 90
        2
 40
0.6
 41
30.0
 62
     5
 63
     7
421
 16777215
 74
     1
 91
        0
 64
     7
 65
   257
 75
     1
175
     1
 42
1.0
 92
        0
 66
   257
 43
1.0
 76
     1
 77
     6
 78
     2
 67
     7
 79
     5
170
     0
171
     0
290
     0
174
     0
 93
       13
 44
0.0
173
     0
291
     1
 45
0.0
  0
VISUALSTYLE
  5
31
102
{ACAD_REACTORS
330
2A
102
}
102
{ACAD_XDICTIONARY
360
1EC
102
}
330
2A
100
AcDbVisualStyle
  2
Hidden
 70
     6
 71
     1
 72
     2
 73
     2
 90
        0
 40
0.6
 41
30.0
 62
     5
 63
     7
421
 16777215
 74
     2
 91
        2
 64
     7
 65
   257
 75
     2
175
     1
 42
40.0
 92
        0
 66
   257
 43
1.0
 76
     1
 77
     6
 78
     2
 67
     7
 79
     3
170
     0
171
     0
290
     0
174
     0
 93
        1
 44
0.0
173
     0
291
     0
 45
0.0
  0
VISUALSTYLE
  5
3B
102
{ACAD_REACTORS
330
2A
102
}
102
{ACAD_XDICTIONARY
360
200
102
}
330
2A
100
AcDbVisualStyle
  2
JitterOff
 70
    20
 71
     2
 72
     2
 73
     0
 90
        0
 40
0.6
 41
30.0
 62
     5
 63
     7
421
 16777215
 74
     1
 91
        4
 64
     7
 65
   257
 75
     1
175
     1
 42
1.0
 92
       10
 66
     7
 43
1.0
 76
     1
 77
     6
 78
     2
 67
     7
 79
     5
170
     0
171
     0
290
     0
174
     0
 93
        1
 44
0.0
173
     0
291
     1
 45
0.0
  0
VISUALSTYLE
  5
38
102
{ACAD_REACTORS
330
2A
102
}
102
{ACAD_XDICTIONARY
360
1FA
102
}
330
2A
100
AcDbVisualStyle
  2
Linepattern
 70
    14
 71
     2
 72
     2
 73
     0
 90
        0
 40
0.6
 41
30.0
 62
     5
 63
     7
421
 16777215
 74
     1
 91
        4
 64
     7
 65
   257
 75
     7
175
     7
 42
1.0
 92
        8
 66
     7
 43
1.0
 76
     1
 77
     6
 78
     2
 67
     7
 79
     5
170
     0
171
     0
290
     0
174
     0
 93
        1
 44
0.0
173
     0
291
     1
 45
0.0
  0
VISUALSTYLE
  5
3C
102
{ACAD_REACTORS
330
2A
102
}
102
{ACAD_XDICTIONARY
360
202
102
}
330
2A
100
AcDbVisualStyle
  2
OverhangOff
 70
    21
 71
     2
 72
     2
 73
     0
 90
        0
 40
0.6
 41
30.0
 62
     5
 63
     7
421
 16777215
 74
     1
 91
        4
 64
     7
 65
   257
 75
     1
175
     1
 42
1.0
 92
        9
 66
     7
 43
1.0
 76
     1
 77
     6
 78
     2
 67
     7
 79
     5
170
     0
171
     0
290
     0
174
     0
 93
        1
 44
0.0
173
     0
291
     1
 45
0.0
  0
VISUALSTYLE
  5
33
102
{ACAD_REACTORS
330
2A
102
}
102
{ACAD_XDICTIONARY
360
1F0
102
}
330
2A
100
AcDbVisualStyle
  2
Realistic
 70
     8
 71
     2
 72
     3
 73
     0
 90
        2
 40
0.6
 41
30.0
 62
     5
 63
     7
421
 16777215
 74
     0
 91
        0
 64
     7
 65
   257
 75
     1
175
     1
 42
1.0
 92
        8
 66
   257
 43
1.0
 76
     1
 77
     6
 78
     2
 67
     7
 79
     3
170
     0
171
     0
290
     0
174
     0
 93
       13
 44
0.0
173
     0
291
     0
 45
0.0
  0
VISUALSTYLE
  5
42
102
{ACAD_REACTORS
330
2A
102
}
102
{ACAD_XDICTIONARY
360
20E
102
}
330
2A
100
AcDbVisualStyle
  2
Shaded
 70
    27
 71
     2
 72
     2
 73
     1
 90
        2
 40
0.6
 41
30.0
 62
     5
 63
     7
421
 16777215
 74
     0
 91
        4
 64
     7
 65
   257
 75
     1
175
     1
 42
1.0
 92
        8
 66
   257
 43
1.0
 76
     1
 77
     6
 78
     2
 67
     8
425
  7895160
 79
     3
170
     0
171
     0
290
     0
174
     0
 93
        5
 44
0.0
173
     0
291
     0
 45
0.0
  0
VISUALSTYLE
  5
41
102
{ACAD_REACTORS
330
2A
102
}
102
{ACAD_XDICTIONARY
360
20C
102
}
330
2A
100
AcDbVisualStyle
  2
Shaded with edges
 70
    26
 71
     2
 72
     2
 73
     1
 90
        2
 40
0.6
 41
30.0
 62
     5
 63
     7
421
 16777215
 74
     1
 91
       10
 64
     7
 65
   257
 75
     2
175
     1
 42
1.0
 92
        8
 66
   257
 43
1.0
 76
     1
 77
     6
 78
     2
 67
     7
 79
     3
170
     0
171
     0
290
     0
174
     0
 93
        5
 44
0.0
173
     0
291
     0
 45
0.0
  0
VISUALSTYLE
  5
3E
102
{ACAD_REACTORS
330
2A
102
}
102
{ACAD_XDICTIONARY
360
206
102
}
330
2A
100
AcDbVisualStyle
  2
Shades of Gray
 70
    23
 71
     2
 72
     2
 73
     3
 90
        0
 40
0.6
 41
30.0
 62
     5
 63
     7
421
 16777215
 74
     2
 91
        2
 64
     7
 65
     7
 75
     1
175
     1
 42
40.0
 92
        8
 66
     7
 43
1.0
 76
     1
 77
     6
 78
     2
 67
     7
 79
     3
170
     0
171
     0
290
     0
174
     0
 93
        1
 44
0.0
173
     0
291
     0
 45
0.0
  0
VISUALSTYLE
  5
3F
102
{ACAD_REACTORS
330
2A
102
}
102
{ACAD_XDICTIONARY
360
208
102
}
330
2A
100
AcDbVisualStyle
  2
Sketchy
 70
    24
 71
     1
 72
     2
 73
     2
 90
        0
 40
0.6
 41
30.0
 62
     5
 63
     7
421
 16777215
 74
     2
 91
        2
 64
     7
 65
     7
 75
     1
175
     1
 42
40.0
 92
       11
 66
     7
 43
1.0
 76
     1
 77
     6
 78
     2
 67
     7
 79
     6
170
     0
171
     0
290
     0
174
     0
 93
        1
 44
0.0
173
     0
291
     0
 45
0.0
  0
VISUALSTYLE
  5
37
102
{ACAD_REACTORS
330
2A
102
}
102
{ACAD_XDICTIONARY
360
1F8
102
}
330
2A
100
AcDbVisualStyle
  2
Thicken
 70
    13
 71
     2
 72
     2
 73
     0
 90
        0
 40
0.6
 41
30.0
 62
     5
 63
     7
421
 16777215
 74
     1
 91
        4
 64
     7
 65
   257
 75
     1
175
     1
 42
1.0
 92
       12
 66
     7
 43
1.0
 76
     1
 77
     6
 78
     2
 67
     7
 79
     5
170
     0
171
     0
290
     0
174
     0
 93
        1
 44
0.0
173
     0
291
     1
 45
0.0
  0
VISUALSTYLE
  5
30
102
{ACAD_REACTORS
330
2A
102
}
102
{ACAD_XDICTIONARY
360
1EA
102
}
330
2A
100
AcDbVisualStyle
  2
Wireframe
 70
     5
 71
     0
 72
     2
 73
     0
 90
        0
 40
0.6
 41
30.0
 62
     5
 63
     7
421
 16777215
 74
     1
 91
        4
 64
     7
 65
   257
 75
     1
175
     1
 42
1.0
 92
        0
 66
   257
 43
1.0
 76
     1
 77
     6
 78
     2
 67
     7
 79
     3
170
     0
171
     0
290
     0
174
     0
 93
        1
 44
0.0
173
     0
291
     0
 45
0.0
  0
VISUALSTYLE
  5
40
102
{ACAD_REACTORS
330
2A
102
}
102
{ACAD_XDICTIONARY
360
20A
102
}
330
2A
100
AcDbVisualStyle
  2
X-Ray
 70
    25
 71
     2
 72
     2
 73
     1
 90
        1
 40
0.5
 41
30.0
 62
     5
 63
     7
421
 16777215
 74
     1
 91
        0
 64
     7
 65
   257
 75
     1
175
     1
 42
1.0
 92
        8
 66
     7
 43
1.0
 76
     1
 77
     6
 78
     2
 67
     7
 79
     3
170
     0
171
     0
290
     0
174
     0
 93
       13
 44
0.0
173
     0
291
     0
 45
0.0
  0
DICTIONARYVAR
  5
1DE
102
{ACAD_REACTORS
330
1DD
102
}
330
1DD
100
DictionaryVariables
280
     0
  1
1:1
  0
DICTIONARYVAR
  5
21A
102
{ACAD_REACTORS
330
1DD
102
}
330
1DD
100
DictionaryVariables
280
     0
  1
3.500000
  0
DICTIONARYVAR
  5
21B
102
{ACAD_REACTORS
330
1DD
102
}
330
1DD
100
DictionaryVariables
280
     0
  1
acadiso.lin
  0
DICTIONARYVAR
  5
217
102
{ACAD_REACTORS
330
1DD
102
}
330
1DD
100
DictionaryVariables
280
     0
  1
Standard
  0
DICTIONARYVAR
  5
216
102
{ACAD_REACTORS
330
1DD
102
}
330
1DD
100
DictionaryVariables
280
     0
  1
Standard
  0
DICTIONARYVAR
  5
1DF
102
{ACAD_REACTORS
330
1DD
102
}
330
1DD
100
DictionaryVariables
280
     0
  1
2
  0
DICTIONARY
  5
213
330
5C
100
AcDbDictionary
280
     1
281
     1
  3
ACAD_XREC_ROUNDTRIP
360
214
  0
DICTIONARY
  5
210
330
5A
100
AcDbDictionary
280
     1
281
     1
  3
ACAD_ROUNDTRIP_2008_TABLESTYLE_CELLSTYLEMAP
360
211
  0
DICTIONARY
  5
1E8
330
2F
100
AcDbDictionary
280
     1
281
     1
  3
ACAD_XREC_ROUNDTRIP
360
1E9
  0
DICTIONARY
  5
1EE
330
32
100
AcDbDictionary
280
     1
281
     1
  3
ACAD_XREC_ROUNDTRIP
360
1EF
  0
DICTIONARY
  5
1F6
330
36
100
AcDbDictionary
280
     1
281
     1
  3
ACAD_XREC_ROUNDTRIP
360
1F7
  0
DICTIONARY
  5
1FE
330
3A
100
AcDbDictionary
280
     1
281
     1
  3
ACAD_XREC_ROUNDTRIP
360
1FF
  0
DICTIONARY
  5
1F2
330
34
100
AcDbDictionary
280
     1
281
     1
  3
ACAD_XREC_ROUNDTRIP
360
1F3
  0
DICTIONARY
  5
1F4
330
35
100
AcDbDictionary
280
     1
281
     1
  3
ACAD_XREC_ROUNDTRIP
360
1F5
  0
DICTIONARY
  5
204
330
3D
100
AcDbDictionary
280
     1
281
     1
  3
ACAD_XREC_ROUNDTRIP
360
205
  0
DICTIONARY
  5
1FC
330
39
100
AcDbDictionary
280
     1
281
     1
  3
ACAD_XREC_ROUNDTRIP
360
1FD
  0
DICTIONARY
  5
1E0
330
2B
100
AcDbDictionary
280
     1
281
     1
  3
ACAD_XREC_ROUNDTRIP
360
1E1
  0
DICTIONARY
  5
1E2
330
2C
100
AcDbDictionary
280
     1
281
     1
  3
ACAD_XREC_ROUNDTRIP
360
1E3
  0
DICTIONARY
  5
1E4
330
2D
100
AcDbDictionary
280
     1
281
     1
  3
ACAD_XREC_ROUNDTRIP
360
1E5
  0
DICTIONARY
  5
1E6
330
2E
100
AcDbDictionary
280
     1
281
     1
  3
ACAD_XREC_ROUNDTRIP
360
1E7
  0
DICTIONARY
  5
1EC
330
31
100
AcDbDictionary
280
     1
281
     1
  3
ACAD_XREC_ROUNDTRIP
360
1ED
  0
DICTIONARY
  5
200
330
3B
100
AcDbDictionary
280
     1
281
     1
  3
ACAD_XREC_ROUNDTRIP
360
201
  0
DICTIONARY
  5
1FA
330
38
100
AcDbDictionary
280
     1
281
     1
  3
ACAD_XREC_ROUNDTRIP
360
1FB
  0
DICTIONARY
  5
202
330
3C
100
AcDbDictionary
280
     1
281
     1
  3
ACAD_XREC_ROUNDTRIP
360
203
  0
DICTIONARY
  5
1F0
330
33
100
AcDbDictionary
280
     1
281
     1
  3
ACAD_XREC_ROUNDTRIP
360
1F1
  0
DICTIONARY
  5
20E
330
42
100
AcDbDictionary
280
     1
281
     1
  3
ACAD_XREC_ROUNDTRIP
360
20F
  0
DICTIONARY
  5
20C
330
41
100
AcDbDictionary
280
     1
281
     1
  3
ACAD_XREC_ROUNDTRIP
360
20D
  0
DICTIONARY
  5
206
330
3E
100
AcDbDictionary
280
     1
281
     1
  3
ACAD_XREC_ROUNDTRIP
360
207
  0
DICTIONARY
  5
208
330
3F
100
AcDbDictionary
280
     1
281
     1
  3
ACAD_XREC_ROUNDTRIP
360
209
  0
DICTIONARY
  5
1F8
330
37
100
AcDbDictionary
280
     1
281
     1
  3
ACAD_XREC_ROUNDTRIP
360
1F9
  0
DICTIONARY
  5
1EA
330
30
100
AcDbDictionary
280
     1
281
     1
  3
ACAD_XREC_ROUNDTRIP
360
1EB
  0
DICTIONARY
  5
20A
330
40
100
AcDbDictionary
280
     1
281
     1
  3
ACAD_XREC_ROUNDTRIP
360
20B
  0
XRECORD
  5
214
102
{ACAD_REACTORS
330
213
102
}
330
213
100
AcDbXrecord
280
     1
102
ACAD_ROUNDTRIP_2010_MLEADER_STYLE
  0
CELLSTYLEMAP
  5
211
102
{ACAD_REACTORS
330
210
102
}
330
210
100
AcDbCellStyleMap
 90
        3
300
CELLSTYLE
  1
TABLEFORMAT_BEGIN
 90
        5
170
     1
 91
        0
 92
    32768
 62
   257
 93
        1
300
CONTENTFORMAT
  1
CONTENTFORMAT_BEGIN
 90
        0
 91
        0
 92
        4
 93
        0
300

 40
0.0
140
1.0
 94
        5
 62
     0
340
11
144
6.0
309
CONTENTFORMAT_END
171
     1
301
MARGIN
  1
CELLMARGIN_BEGIN
 40
1.5
 40
1.5
 40
1.5
 40
1.5
 40
1.5
 40
1.5
309
CELLMARGIN_END
 94
        6
 95
        1
302
GRIDFORMAT
  1
GRIDFORMAT_BEGIN
 90
        0
 91
        1
 62
     0
 92
       -2
340
14
 93
        0
 40
0.045
309
GRIDFORMAT_END
 95
        2
302
GRIDFORMAT
  1
GRIDFORMAT_BEGIN
 90
        0
 91
        1
 62
     0
 92
       -2
340
14
 93
        0
 40
0.045
309
GRIDFORMAT_END
 95
        4
302
GRIDFORMAT
  1
GRIDFORMAT_BEGIN
 90
        0
 91
        1
 62
     0
 92
       -2
340
14
 93
        0
 40
0.045
309
GRIDFORMAT_END
 95
        8
302
GRIDFORMAT
  1
GRIDFORMAT_BEGIN
 90
        0
 91
        1
 62
     0
 92
       -2
340
14
 93
        0
 40
0.045
309
GRIDFORMAT_END
 95
       16
302
GRIDFORMAT
  1
GRIDFORMAT_BEGIN
 90
        0
 91
        1
 62
     0
 92
       -2
340
14
 93
        0
 40
0.045
309
GRIDFORMAT_END
 95
       32
302
GRIDFORMAT
  1
GRIDFORMAT_BEGIN
 90
        0
 91
        1
 62
     0
 92
       -2
340
14
 93
        0
 40
0.045
309
GRIDFORMAT_END
309
TABLEFORMAT_END
  1
CELLSTYLE_BEGIN
 90
        1
 91
        1
300
_TITLE
309
CELLSTYLE_END
300
CELLSTYLE
  1
TABLEFORMAT_BEGIN
 90
        5
170
     1
 91
        0
 92
        0
 62
   257
 93
        1
300
CONTENTFORMAT
  1
CONTENTFORMAT_BEGIN
 90
        0
 91
        0
 92
        4
 93
        0
300

 40
0.0
140
1.0
 94
        5
 62
     0
340
11
144
4.5
309
CONTENTFORMAT_END
171
     1
301
MARGIN
  1
CELLMARGIN_BEGIN
 40
1.5
 40
1.5
 40
1.5
 40
1.5
 40
1.5
 40
1.5
309
CELLMARGIN_END
 94
        6
 95
        1
302
GRIDFORMAT
  1
GRIDFORMAT_BEGIN
 90
        0
 91
        1
 62
     0
 92
       -2
340
14
 93
        0
 40
0.045
309
GRIDFORMAT_END
 95
        2
302
GRIDFORMAT
  1
GRIDFORMAT_BEGIN
 90
        0
 91
        1
 62
     0
 92
       -2
340
14
 93
        0
 40
0.045
309
GRIDFORMAT_END
 95
        4
302
GRIDFORMAT
  1
GRIDFORMAT_BEGIN
 90
        0
 91
        1
 62
     0
 92
       -2
340
14
 93
        0
 40
0.045
309
GRIDFORMAT_END
 95
        8
302
GRIDFORMAT
  1
GRIDFORMAT_BEGIN
 90
        0
 91
        1
 62
     0
 92
       -2
340
14
 93
        0
 40
0.045
309
GRIDFORMAT_END
 95
       16
302
GRIDFORMAT
  1
GRIDFORMAT_BEGIN
 90
        0
 91
        1
 62
     0
 92
       -2
340
14
 93
        0
 40
0.045
309
GRIDFORMAT_END
 95
       32
302
GRIDFORMAT
  1
GRIDFORMAT_BEGIN
 90
        0
 91
        1
 62
     0
 92
       -2
340
14
 93
        0
 40
0.045
309
GRIDFORMAT_END
309
TABLEFORMAT_END
  1
CELLSTYLE_BEGIN
 90
        2
 91
        1
300
_HEADER
309
CELLSTYLE_END
300
CELLSTYLE
  1
TABLEFORMAT_BEGIN
 90
        5
170
     1
 91
        0
 92
        0
 62
   257
 93
        1
300
CONTENTFORMAT
  1
CONTENTFORMAT_BEGIN
 90
        0
 91
        0
 92
        4
 93
        0
300

 40
0.0
140
1.0
 94
        2
 62
     0
340
11
144
4.5
309
CONTENTFORMAT_END
171
     1
301
MARGIN
  1
CELLMARGIN_BEGIN
 40
1.5
 40
1.5
 40
1.5
 40
1.5
 40
1.5
 40
1.5
309
CELLMARGIN_END
 94
        6
 95
        1
302
GRIDFORMAT
  1
GRIDFORMAT_BEGIN
 90
        0
 91
        1
 62
     0
 92
       -2
340
14
 93
        0
 40
0.045
309
GRIDFORMAT_END
 95
        2
302
GRIDFORMAT
  1
GRIDFORMAT_BEGIN
 90
        0
 91
        1
 62
     0
 92
       -2
340
14
 93
        0
 40
0.045
309
GRIDFORMAT_END
 95
        4
302
GRIDFORMAT
  1
GRIDFORMAT_BEGIN
 90
        0
 91
        1
 62
     0
 92
       -2
340
14
 93
        0
 40
0.045
309
GRIDFORMAT_END
 95
        8
302
GRIDFORMAT
  1
GRIDFORMAT_BEGIN
 90
        0
 91
        1
 62
     0
 92
       -2
340
14
 93
        0
 40
0.045
309
GRIDFORMAT_END
 95
       16
302
GRIDFORMAT
  1
GRIDFORMAT_BEGIN
 90
        0
 91
        1
 62
     0
 92
       -2
340
14
 93
        0
 40
0.045
309
GRIDFORMAT_END
 95
       32
302
GRIDFORMAT
  1
GRIDFORMAT_BEGIN
 90
        0
 91
        1
 62
     0
 92
       -2
340
14
 93
        0
 40
0.045
309
GRIDFORMAT_END
309
TABLEFORMAT_END
  1
CELLSTYLE_BEGIN
 90
        3
 91
        2
300
_DATA
309
CELLSTYLE_END
  0
XRECORD
  5
1E9
102
{ACAD_REACTORS
330
1E8
102
}
330
1E8
100
AcDbXrecord
280
     1
102
RTVSPropertyOp0
 70
     1
102
RTVSPropertyOp1
 70
     1
102
RTVSPropertyOp2
 70
     1
102
RTVSPropertyOp3
 70
     1
102
RTVSPropertyOp4
 70
     1
102
RTVSPropertyOp5
 70
     1
102
RTVSPropertyOp6
 70
     1
102
RTVSPropertyOp7
 70
     1
102
RTVSPropertyOp8
 70
     1
102
RTVSPropertyOp9
 70
     1
102
RTVSPropertyOp10
 70
     1
102
RTVSPropertyOp11
 70
     1
102
RTVSPropertyOp12
 70
     1
102
RTVSPropertyOp13
 70
     1
102
RTVSPropertyOp14
 70
     1
102
RTVSPropertyOp15
 70
     1
102
RTVSPropertyOp16
 70
     1
102
RTVSPropertyOp17
 70
     1
102
RTVSPropertyOp18
 70
     1
102
RTVSPropertyOp19
 70
     1
102
RTVSPropertyOp20
 70
     1
102
RTVSPropertyOp21
 70
     1
102
RTVSPropertyOp22
 70
     1
102
RTVSPropertyOp23
 70
     1
102
RTVSPropertyOp24
 70
     1
102
RTVSPropertyOp25
 70
     1
102
RTVSPropertyOp26
 70
     1
102
RTVSPropertyOp27
 70
     1
102
RTVSPropertyOp28
 70
     1
102
RTVSPropertyOp29
 70
     1
102
RTVSPropertyOp30
 70
     1
102
RTVSPropertyOp31
 70
     1
102
RTVSPropertyOp32
 70
     1
102
RTVSPropertyOp33
 70
     1
102
RTVSPropertyOp34
 70
     1
102
RTVSPropertyOp35
 70
     1
102
RTVSPropertyOp36
 70
     1
102
RTVSPropertyOp37
 70
     1
102
RTVSPropertyOp38
 70
     1
102
RTVSPropertyOp39
 70
     1
102
RTVSPropertyOp40
 70
     1
102
RTVSPropertyOp41
 70
     1
102
RTVSPropertyOp42
 70
     1
102
RTVSPropertyOp43
 70
     1
102
RTVSPropertyOp44
 70
     1
102
RTVSPropertyOp45
 70
     1
102
RTVSPropertyOp46
 70
     1
102
RTVSPropertyOp47
 70
     1
102
RTVSPropertyOp48
 70
     1
102
RTVSPropertyOp49
 70
     1
102
RTVSPropertyOp50
 70
     1
102
RTVSPropertyOp51
 70
     0
102
RTVSPropertyOp52
 70
     0
102
RTVSPropertyOp53
 70
     1
102
RTVSPropertyOp54
 70
     1
102
RTVSPropertyOp55
 70
     1
102
RTVSPropertyOp56
 70
     1
102
RTVSPropertyOp57
 70
     1
102
RTVSPost2010Prop28
280
     1
102
RTVSPost2010PropOp28
 70
     1
102
RTVSPost2010Prop29
280
     1
102
RTVSPost2010PropOp29
 70
     1
102
RTVSPost2010Prop30
280
     0
102
RTVSPost2010PropOp30
 70
     1
102
RTVSPost2010Prop31
280
     0
102
RTVSPost2010PropOp31
 70
     1
102
RTVSPost2010Prop32
280
     0
102
RTVSPost2010PropOp32
 70
     1
102
RTVSPost2010Prop33
280
     0
102
RTVSPost2010PropOp33
 70
     1
102
RTVSPost2010Prop34
280
     0
102
RTVSPost2010PropOp34
 70
     1
102
RTVSPost2010Prop35
280
     0
102
RTVSPost2010PropOp35
 70
     1
102
RTVSPost2010Prop36
280
     0
102
RTVSPost2010PropOp36
 70
     1
102
RTVSPost2010Prop37
 90
       50
102
RTVSPost2010PropOp37
 70
     1
102
RTVSPost2010Prop38
140
0.0
102
RTVSPost2010PropOp38
 70
     1
102
RTVSPost2010Prop39
140
1.0
102
RTVSPost2010PropOp39
 70
     1
102
RTVSPost2010Prop40
 90
        0
102
RTVSPost2010PropOp40
 70
     1
102
RTVSPost2010Prop41ColorIndex
 90
       18
102
RTVSPost2010Prop41ColorRGB
 90
        0
102
RTVSPost2010PropOp41
 70
     1
102
RTVSPost2010Prop42
 90
       50
102
RTVSPost2010PropOp42
 70
     1
102
RTVSPost2010Prop43
 90
        3
102
RTVSPost2010PropOp43
 70
     1
102
RTVSPost2010Prop44ColorIndex
 90
        5
102
RTVSPost2010Prop44ColorRGB
 90
      255
102
RTVSPost2010PropOp44
 70
     1
102
RTVSPost2010Prop45
280
     0
102
RTVSPost2010PropOp45
 70
     1
102
RTVSPost2010Prop46
 90
       50
102
RTVSPost2010PropOp46
 70
     1
102
RTVSPost2010Prop47
 90
       50
102
RTVSPost2010PropOp47
 70
     1
102
RTVSPost2010Prop48
 90
       50
102
RTVSPost2010PropOp48
 70
     1
102
RTVSPost2010Prop49
280
     0
102
RTVSPost2010PropOp49
 70
     1
102
RTVSPost2010Prop50
 90
       50
102
RTVSPost2010PropOp50
 70
     1
102
RTVSPost2010Prop51ColorIndex
 90
      256
102
RTVSPost2010Prop51ColorRGB
 90
-16777216
102
RTVSPost2010PropOp51
 70
     0
102
RTVSPost2010Prop52
140
1.0
102
RTVSPost2010PropOp52
 70
     0
102
RTVSPost2010Prop53
 90
        2
102
RTVSPost2010PropOp53
 70
     1
102
RTVSPost2010Prop54
  1
strokes_ogs.tif
102
RTVSPost2010PropOp54
 70
     1
102
RTVSPost2010Prop55
280
     0
102
RTVSPost2010PropOp55
 70
     1
102
RTVSPost2010Prop56
140
1.0
102
RTVSPost2010PropOp56
 70
     1
102
RTVSPost2010Prop57
140
1.0
102
RTVSPost2010PropOp57
 70
     1
  0
XRECORD
  5
1EF
102
{ACAD_REACTORS
330
1EE
102
}
330
1EE
100
AcDbXrecord
280
     1
102
RTVSPropertyOp0
 70
     1
102
RTVSPropertyOp1
 70
     1
102
RTVSPropertyOp2
 70
     1
102
RTVSPropertyOp3
 70
     1
102
RTVSPropertyOp4
 70
     1
102
RTVSPropertyOp5
 70
     1
102
RTVSPropertyOp6
 70
     1
102
RTVSPropertyOp7
 70
     1
102
RTVSPropertyOp8
 70
     1
102
RTVSPropertyOp9
 70
     1
102
RTVSPropertyOp10
 70
     1
102
RTVSPropertyOp11
 70
     1
102
RTVSPropertyOp12
 70
     1
102
RTVSPropertyOp13
 70
     1
102
RTVSPropertyOp14
 70
     1
102
RTVSPropertyOp15
 70
     1
102
RTVSPropertyOp16
 70
     1
102
RTVSPropertyOp17
 70
     1
102
RTVSPropertyOp18
 70
     1
102
RTVSPropertyOp19
 70
     1
102
RTVSPropertyOp20
 70
     1
102
RTVSPropertyOp21
 70
     1
102
RTVSPropertyOp22
 70
     1
102
RTVSPropertyOp23
 70
     1
102
RTVSPropertyOp24
 70
     1
102
RTVSPropertyOp25
 70
     1
102
RTVSPropertyOp26
 70
     1
102
RTVSPropertyOp27
 70
     1
102
RTVSPropertyOp28
 70
     1
102
RTVSPropertyOp29
 70
     1
102
RTVSPropertyOp30
 70
     1
102
RTVSPropertyOp31
 70
     1
102
RTVSPropertyOp32
 70
     1
102
RTVSPropertyOp33
 70
     1
102
RTVSPropertyOp34
 70
     1
102
RTVSPropertyOp35
 70
     1
102
RTVSPropertyOp36
 70
     1
102
RTVSPropertyOp37
 70
     1
102
RTVSPropertyOp38
 70
     1
102
RTVSPropertyOp39
 70
     1
102
RTVSPropertyOp40
 70
     1
102
RTVSPropertyOp41
 70
     1
102
RTVSPropertyOp42
 70
     1
102
RTVSPropertyOp43
 70
     1
102
RTVSPropertyOp44
 70
     1
102
RTVSPropertyOp45
 70
     1
102
RTVSPropertyOp46
 70
     1
102
RTVSPropertyOp47
 70
     1
102
RTVSPropertyOp48
 70
     1
102
RTVSPropertyOp49
 70
     1
102
RTVSPropertyOp50
 70
     1
102
RTVSPropertyOp51
 70
     0
102
RTVSPropertyOp52
 70
     0
102
RTVSPropertyOp53
 70
     1
102
RTVSPropertyOp54
 70
     1
102
RTVSPropertyOp55
 70
     1
102
RTVSPropertyOp56
 70
     1
102
RTVSPropertyOp57
 70
     1
102
RTVSPost2010Prop28
280
     0
102
RTVSPost2010PropOp28
 70
     1
102
RTVSPost2010Prop29
280
     1
102
RTVSPost2010PropOp29
 70
     1
102
RTVSPost2010Prop30
280
     1
102
RTVSPost2010PropOp30
 70
     1
102
RTVSPost2010Prop31
280
     0
102
RTVSPost2010PropOp31
 70
     1
102
RTVSPost2010Prop32
280
     0
102
RTVSPost2010PropOp32
 70
     1
102
RTVSPost2010Prop33
280
     0
102
RTVSPost2010PropOp33
 70
     1
102
RTVSPost2010Prop34
280
     0
102
RTVSPost2010PropOp34
 70
     1
102
RTVSPost2010Prop35
280
     0
102
RTVSPost2010PropOp35
 70
     1
102
RTVSPost2010Prop36
280
     0
102
RTVSPost2010PropOp36
 70
     1
102
RTVSPost2010Prop37
 90
       50
102
RTVSPost2010PropOp37
 70
     1
102
RTVSPost2010Prop38
140
0.0
102
RTVSPost2010PropOp38
 70
     1
102
RTVSPost2010Prop39
140
1.0
102
RTVSPost2010PropOp39
 70
     1
102
RTVSPost2010Prop40
 90
        0
102
RTVSPost2010PropOp40
 70
     1
102
RTVSPost2010Prop41ColorIndex
 90
       18
102
RTVSPost2010Prop41ColorRGB
 90
        0
102
RTVSPost2010PropOp41
 70
     1
102
RTVSPost2010Prop42
 90
       50
102
RTVSPost2010PropOp42
 70
     1
102
RTVSPost2010Prop43
 90
        3
102
RTVSPost2010PropOp43
 70
     1
102
RTVSPost2010Prop44ColorIndex
 90
        5
102
RTVSPost2010Prop44ColorRGB
 90
      255
102
RTVSPost2010PropOp44
 70
     1
102
RTVSPost2010Prop45
280
     0
102
RTVSPost2010PropOp45
 70
     1
102
RTVSPost2010Prop46
 90
       50
102
RTVSPost2010PropOp46
 70
     1
102
RTVSPost2010Prop47
 90
       50
102
RTVSPost2010PropOp47
 70
     1
102
RTVSPost2010Prop48
 90
       50
102
RTVSPost2010PropOp48
 70
     1
102
RTVSPost2010Prop49
280
     0
102
RTVSPost2010PropOp49
 70
     1
102
RTVSPost2010Prop50
 90
       50
102
RTVSPost2010PropOp50
 70
     1
102
RTVSPost2010Prop51ColorIndex
 90
      256
102
RTVSPost2010Prop51ColorRGB
 90
-16777216
102
RTVSPost2010PropOp51
 70
     0
102
RTVSPost2010Prop52
140
1.0
102
RTVSPost2010PropOp52
 70
     0
102
RTVSPost2010Prop53
 90
        2
102
RTVSPost2010PropOp53
 70
     1
102
RTVSPost2010Prop54
  1
strokes_ogs.tif
102
RTVSPost2010PropOp54
 70
     1
102
RTVSPost2010Prop55
280
     0
102
RTVSPost2010PropOp55
 70
     1
102
RTVSPost2010Prop56
140
1.0
102
RTVSPost2010PropOp56
 70
     1
102
RTVSPost2010Prop57
140
1.0
102
RTVSPost2010PropOp57
 70
     1
  0
XRECORD
  5
1F7
102
{ACAD_REACTORS
330
1F6
102
}
330
1F6
100
AcDbXrecord
280
     1
102
RTVSPropertyOp0
 70
     1
102
RTVSPropertyOp1
 70
     1
102
RTVSPropertyOp2
 70
     1
102
RTVSPropertyOp3
 70
     1
102
RTVSPropertyOp4
 70
     1
102
RTVSPropertyOp5
 70
     1
102
RTVSPropertyOp6
 70
     1
102
RTVSPropertyOp7
 70
     1
102
RTVSPropertyOp8
 70
     1
102
RTVSPropertyOp9
 70
     1
102
RTVSPropertyOp10
 70
     1
102
RTVSPropertyOp11
 70
     1
102
RTVSPropertyOp12
 70
     1
102
RTVSPropertyOp13
 70
     1
102
RTVSPropertyOp14
 70
     1
102
RTVSPropertyOp15
 70
     1
102
RTVSPropertyOp16
 70
     1
102
RTVSPropertyOp17
 70
     1
102
RTVSPropertyOp18
 70
     1
102
RTVSPropertyOp19
 70
     1
102
RTVSPropertyOp20
 70
     1
102
RTVSPropertyOp21
 70
     1
102
RTVSPropertyOp22
 70
     1
102
RTVSPropertyOp23
 70
     1
102
RTVSPropertyOp24
 70
     1
102
RTVSPropertyOp25
 70
     1
102
RTVSPropertyOp26
 70
     1
102
RTVSPropertyOp27
 70
     1
102
RTVSPropertyOp28
 70
     1
102
RTVSPropertyOp29
 70
     1
102
RTVSPropertyOp30
 70
     1
102
RTVSPropertyOp31
 70
     1
102
RTVSPropertyOp32
 70
     1
102
RTVSPropertyOp33
 70
     1
102
RTVSPropertyOp34
 70
     1
102
RTVSPropertyOp35
 70
     1
102
RTVSPropertyOp36
 70
     1
102
RTVSPropertyOp37
 70
     1
102
RTVSPropertyOp38
 70
     1
102
RTVSPropertyOp39
 70
     1
102
RTVSPropertyOp40
 70
     1
102
RTVSPropertyOp41
 70
     1
102
RTVSPropertyOp42
 70
     1
102
RTVSPropertyOp43
 70
     1
102
RTVSPropertyOp44
 70
     1
102
RTVSPropertyOp45
 70
     1
102
RTVSPropertyOp46
 70
     1
102
RTVSPropertyOp47
 70
     1
102
RTVSPropertyOp48
 70
     1
102
RTVSPropertyOp49
 70
     1
102
RTVSPropertyOp50
 70
     1
102
RTVSPropertyOp51
 70
     0
102
RTVSPropertyOp52
 70
     0
102
RTVSPropertyOp53
 70
     1
102
RTVSPropertyOp54
 70
     1
102
RTVSPropertyOp55
 70
     1
102
RTVSPropertyOp56
 70
     1
102
RTVSPropertyOp57
 70
     1
102
RTVSPost2010Prop28
280
     0
102
RTVSPost2010PropOp28
 70
     1
102
RTVSPost2010Prop29
280
     1
102
RTVSPost2010PropOp29
 70
     1
102
RTVSPost2010Prop30
280
     1
102
RTVSPost2010PropOp30
 70
     1
102
RTVSPost2010Prop31
280
     0
102
RTVSPost2010PropOp31
 70
     1
102
RTVSPost2010Prop32
280
     0
102
RTVSPost2010PropOp32
 70
     1
102
RTVSPost2010Prop33
280
     0
102
RTVSPost2010PropOp33
 70
     1
102
RTVSPost2010Prop34
280
     0
102
RTVSPost2010PropOp34
 70
     1
102
RTVSPost2010Prop35
280
     0
102
RTVSPost2010PropOp35
 70
     1
102
RTVSPost2010Prop36
280
     0
102
RTVSPost2010PropOp36
 70
     1
102
RTVSPost2010Prop37
 90
       50
102
RTVSPost2010PropOp37
 70
     1
102
RTVSPost2010Prop38
140
0.0
102
RTVSPost2010PropOp38
 70
     1
102
RTVSPost2010Prop39
140
1.0
102
RTVSPost2010PropOp39
 70
     1
102
RTVSPost2010Prop40
 90
        0
102
RTVSPost2010PropOp40
 70
     1
102
RTVSPost2010Prop41ColorIndex
 90
       18
102
RTVSPost2010Prop41ColorRGB
 90
        0
102
RTVSPost2010PropOp41
 70
     1
102
RTVSPost2010Prop42
 90
       50
102
RTVSPost2010PropOp42
 70
     1
102
RTVSPost2010Prop43
 90
        3
102
RTVSPost2010PropOp43
 70
     1
102
RTVSPost2010Prop44ColorIndex
 90
        5
102
RTVSPost2010Prop44ColorRGB
 90
      255
102
RTVSPost2010PropOp44
 70
     1
102
RTVSPost2010Prop45
280
     0
102
RTVSPost2010PropOp45
 70
     1
102
RTVSPost2010Prop46
 90
       50
102
RTVSPost2010PropOp46
 70
     1
102
RTVSPost2010Prop47
 90
       50
102
RTVSPost2010PropOp47
 70
     1
102
RTVSPost2010Prop48
 90
       50
102
RTVSPost2010PropOp48
 70
     1
102
RTVSPost2010Prop49
280
     0
102
RTVSPost2010PropOp49
 70
     1
102
RTVSPost2010Prop50
 90
       50
102
RTVSPost2010PropOp50
 70
     1
102
RTVSPost2010Prop51ColorIndex
 90
      256
102
RTVSPost2010Prop51ColorRGB
 90
-16777216
102
RTVSPost2010PropOp51
 70
     0
102
RTVSPost2010Prop52
140
1.0
102
RTVSPost2010PropOp52
 70
     0
102
RTVSPost2010Prop53
 90
        2
102
RTVSPost2010PropOp53
 70
     1
102
RTVSPost2010Prop54
  1
strokes_ogs.tif
102
RTVSPost2010PropOp54
 70
     1
102
RTVSPost2010Prop55
280
     0
102
RTVSPost2010PropOp55
 70
     1
102
RTVSPost2010Prop56
140
1.0
102
RTVSPost2010PropOp56
 70
     1
102
RTVSPost2010Prop57
140
1.0
102
RTVSPost2010PropOp57
 70
     1
  0
XRECORD
  5
1FF
102
{ACAD_REACTORS
330
1FE
102
}
330
1FE
100
AcDbXrecord
280
     1
102
RTVSPropertyOp0
 70
     1
102
RTVSPropertyOp1
 70
     1
102
RTVSPropertyOp2
 70
     1
102
RTVSPropertyOp3
 70
     1
102
RTVSPropertyOp4
 70
     1
102
RTVSPropertyOp5
 70
     1
102
RTVSPropertyOp6
 70
     1
102
RTVSPropertyOp7
 70
     1
102
RTVSPropertyOp8
 70
     1
102
RTVSPropertyOp9
 70
     1
102
RTVSPropertyOp10
 70
     1
102
RTVSPropertyOp11
 70
     1
102
RTVSPropertyOp12
 70
     1
102
RTVSPropertyOp13
 70
     1
102
RTVSPropertyOp14
 70
     1
102
RTVSPropertyOp15
 70
     1
102
RTVSPropertyOp16
 70
     1
102
RTVSPropertyOp17
 70
     1
102
RTVSPropertyOp18
 70
     1
102
RTVSPropertyOp19
 70
     1
102
RTVSPropertyOp20
 70
     1
102
RTVSPropertyOp21
 70
     1
102
RTVSPropertyOp22
 70
     1
102
RTVSPropertyOp23
 70
     1
102
RTVSPropertyOp24
 70
     1
102
RTVSPropertyOp25
 70
     1
102
RTVSPropertyOp26
 70
     1
102
RTVSPropertyOp27
 70
     1
102
RTVSPropertyOp28
 70
     1
102
RTVSPropertyOp29
 70
     1
102
RTVSPropertyOp30
 70
     1
102
RTVSPropertyOp31
 70
     1
102
RTVSPropertyOp32
 70
     1
102
RTVSPropertyOp33
 70
     1
102
RTVSPropertyOp34
 70
     1
102
RTVSPropertyOp35
 70
     1
102
RTVSPropertyOp36
 70
     1
102
RTVSPropertyOp37
 70
     1
102
RTVSPropertyOp38
 70
     1
102
RTVSPropertyOp39
 70
     1
102
RTVSPropertyOp40
 70
     1
102
RTVSPropertyOp41
 70
     1
102
RTVSPropertyOp42
 70
     1
102
RTVSPropertyOp43
 70
     1
102
RTVSPropertyOp44
 70
     1
102
RTVSPropertyOp45
 70
     1
102
RTVSPropertyOp46
 70
     1
102
RTVSPropertyOp47
 70
     1
102
RTVSPropertyOp48
 70
     1
102
RTVSPropertyOp49
 70
     1
102
RTVSPropertyOp50
 70
     1
102
RTVSPropertyOp51
 70
     0
102
RTVSPropertyOp52
 70
     0
102
RTVSPropertyOp53
 70
     1
102
RTVSPropertyOp54
 70
     1
102
RTVSPropertyOp55
 70
     1
102
RTVSPropertyOp56
 70
     1
102
RTVSPropertyOp57
 70
     1
102
RTVSPost2010Prop28
280
     0
102
RTVSPost2010PropOp28
 70
     1
102
RTVSPost2010Prop29
280
     1
102
RTVSPost2010PropOp29
 70
     1
102
RTVSPost2010Prop30
280
     1
102
RTVSPost2010PropOp30
 70
     1
102
RTVSPost2010Prop31
280
     0
102
RTVSPost2010PropOp31
 70
     1
102
RTVSPost2010Prop32
280
     0
102
RTVSPost2010PropOp32
 70
     1
102
RTVSPost2010Prop33
280
     0
102
RTVSPost2010PropOp33
 70
     1
102
RTVSPost2010Prop34
280
     0
102
RTVSPost2010PropOp34
 70
     1
102
RTVSPost2010Prop35
280
     0
102
RTVSPost2010PropOp35
 70
     1
102
RTVSPost2010Prop36
280
     0
102
RTVSPost2010PropOp36
 70
     1
102
RTVSPost2010Prop37
 90
       50
102
RTVSPost2010PropOp37
 70
     1
102
RTVSPost2010Prop38
140
0.0
102
RTVSPost2010PropOp38
 70
     1
102
RTVSPost2010Prop39
140
1.0
102
RTVSPost2010PropOp39
 70
     1
102
RTVSPost2010Prop40
 90
        0
102
RTVSPost2010PropOp40
 70
     1
102
RTVSPost2010Prop41ColorIndex
 90
       18
102
RTVSPost2010Prop41ColorRGB
 90
        0
102
RTVSPost2010PropOp41
 70
     1
102
RTVSPost2010Prop42
 90
       50
102
RTVSPost2010PropOp42
 70
     1
102
RTVSPost2010Prop43
 90
        3
102
RTVSPost2010PropOp43
 70
     1
102
RTVSPost2010Prop44ColorIndex
 90
        5
102
RTVSPost2010Prop44ColorRGB
 90
      255
102
RTVSPost2010PropOp44
 70
     1
102
RTVSPost2010Prop45
280
     0
102
RTVSPost2010PropOp45
 70
     1
102
RTVSPost2010Prop46
 90
       50
102
RTVSPost2010PropOp46
 70
     1
102
RTVSPost2010Prop47
 90
       50
102
RTVSPost2010PropOp47
 70
     1
102
RTVSPost2010Prop48
 90
       50
102
RTVSPost2010PropOp48
 70
     1
102
RTVSPost2010Prop49
280
     0
102
RTVSPost2010PropOp49
 70
     1
102
RTVSPost2010Prop50
 90
       50
102
RTVSPost2010PropOp50
 70
     1
102
RTVSPost2010Prop51ColorIndex
 90
      256
102
RTVSPost2010Prop51ColorRGB
 90
-16777216
102
RTVSPost2010PropOp51
 70
     0
102
RTVSPost2010Prop52
140
1.0
102
RTVSPost2010PropOp52
 70
     0
102
RTVSPost2010Prop53
 90
        2
102
RTVSPost2010PropOp53
 70
     1
102
RTVSPost2010Prop54
  1
strokes_ogs.tif
102
RTVSPost2010PropOp54
 70
     1
102
RTVSPost2010Prop55
280
     0
102
RTVSPost2010PropOp55
 70
     1
102
RTVSPost2010Prop56
140
1.0
102
RTVSPost2010PropOp56
 70
     1
102
RTVSPost2010Prop57
140
1.0
102
RTVSPost2010PropOp57
 70
     1
  0
XRECORD
  5
1F3
102
{ACAD_REACTORS
330
1F2
102
}
330
1F2
100
AcDbXrecord
280
     1
102
RTVSPropertyOp0
 70
     1
102
RTVSPropertyOp1
 70
     1
102
RTVSPropertyOp2
 70
     1
102
RTVSPropertyOp3
 70
     1
102
RTVSPropertyOp4
 70
     1
102
RTVSPropertyOp5
 70
     1
102
RTVSPropertyOp6
 70
     1
102
RTVSPropertyOp7
 70
     1
102
RTVSPropertyOp8
 70
     1
102
RTVSPropertyOp9
 70
     1
102
RTVSPropertyOp10
 70
     1
102
RTVSPropertyOp11
 70
     1
102
RTVSPropertyOp12
 70
     1
102
RTVSPropertyOp13
 70
     1
102
RTVSPropertyOp14
 70
     1
102
RTVSPropertyOp15
 70
     1
102
RTVSPropertyOp16
 70
     1
102
RTVSPropertyOp17
 70
     1
102
RTVSPropertyOp18
 70
     1
102
RTVSPropertyOp19
 70
     1
102
RTVSPropertyOp20
 70
     1
102
RTVSPropertyOp21
 70
     1
102
RTVSPropertyOp22
 70
     1
102
RTVSPropertyOp23
 70
     1
102
RTVSPropertyOp24
 70
     1
102
RTVSPropertyOp25
 70
     1
102
RTVSPropertyOp26
 70
     1
102
RTVSPropertyOp27
 70
     1
102
RTVSPropertyOp28
 70
     1
102
RTVSPropertyOp29
 70
     1
102
RTVSPropertyOp30
 70
     1
102
RTVSPropertyOp31
 70
     1
102
RTVSPropertyOp32
 70
     1
102
RTVSPropertyOp33
 70
     1
102
RTVSPropertyOp34
 70
     1
102
RTVSPropertyOp35
 70
     1
102
RTVSPropertyOp36
 70
     1
102
RTVSPropertyOp37
 70
     1
102
RTVSPropertyOp38
 70
     1
102
RTVSPropertyOp39
 70
     1
102
RTVSPropertyOp40
 70
     1
102
RTVSPropertyOp41
 70
     1
102
RTVSPropertyOp42
 70
     1
102
RTVSPropertyOp43
 70
     1
102
RTVSPropertyOp44
 70
     1
102
RTVSPropertyOp45
 70
     1
102
RTVSPropertyOp46
 70
     1
102
RTVSPropertyOp47
 70
     1
102
RTVSPropertyOp48
 70
     1
102
RTVSPropertyOp49
 70
     1
102
RTVSPropertyOp50
 70
     1
102
RTVSPropertyOp51
 70
     0
102
RTVSPropertyOp52
 70
     0
102
RTVSPropertyOp53
 70
     1
102
RTVSPropertyOp54
 70
     1
102
RTVSPropertyOp55
 70
     1
102
RTVSPropertyOp56
 70
     1
102
RTVSPropertyOp57
 70
     1
102
RTVSPost2010Prop28
280
     0
102
RTVSPost2010PropOp28
 70
     1
102
RTVSPost2010Prop29
280
     1
102
RTVSPost2010PropOp29
 70
     1
102
RTVSPost2010Prop30
280
     1
102
RTVSPost2010PropOp30
 70
     1
102
RTVSPost2010Prop31
280
     0
102
RTVSPost2010PropOp31
 70
     1
102
RTVSPost2010Prop32
280
     0
102
RTVSPost2010PropOp32
 70
     1
102
RTVSPost2010Prop33
280
     0
102
RTVSPost2010PropOp33
 70
     1
102
RTVSPost2010Prop34
280
     0
102
RTVSPost2010PropOp34
 70
     1
102
RTVSPost2010Prop35
280
     0
102
RTVSPost2010PropOp35
 70
     1
102
RTVSPost2010Prop36
280
     0
102
RTVSPost2010PropOp36
 70
     1
102
RTVSPost2010Prop37
 90
       50
102
RTVSPost2010PropOp37
 70
     1
102
RTVSPost2010Prop38
140
0.0
102
RTVSPost2010PropOp38
 70
     1
102
RTVSPost2010Prop39
140
1.0
102
RTVSPost2010PropOp39
 70
     1
102
RTVSPost2010Prop40
 90
        0
102
RTVSPost2010PropOp40
 70
     1
102
RTVSPost2010Prop41ColorIndex
 90
       18
102
RTVSPost2010Prop41ColorRGB
 90
        0
102
RTVSPost2010PropOp41
 70
     1
102
RTVSPost2010Prop42
 90
       50
102
RTVSPost2010PropOp42
 70
     1
102
RTVSPost2010Prop43
 90
        3
102
RTVSPost2010PropOp43
 70
     1
102
RTVSPost2010Prop44ColorIndex
 90
        5
102
RTVSPost2010Prop44ColorRGB
 90
      255
102
RTVSPost2010PropOp44
 70
     1
102
RTVSPost2010Prop45
280
     0
102
RTVSPost2010PropOp45
 70
     1
102
RTVSPost2010Prop46
 90
       50
102
RTVSPost2010PropOp46
 70
     1
102
RTVSPost2010Prop47
 90
       50
102
RTVSPost2010PropOp47
 70
     1
102
RTVSPost2010Prop48
 90
       50
102
RTVSPost2010PropOp48
 70
     1
102
RTVSPost2010Prop49
280
     0
102
RTVSPost2010PropOp49
 70
     1
102
RTVSPost2010Prop50
 90
       50
102
RTVSPost2010PropOp50
 70
     1
102
RTVSPost2010Prop51ColorIndex
 90
      256
102
RTVSPost2010Prop51ColorRGB
 90
-16777216
102
RTVSPost2010PropOp51
 70
     0
102
RTVSPost2010Prop52
140
1.0
102
RTVSPost2010PropOp52
 70
     0
102
RTVSPost2010Prop53
 90
        2
102
RTVSPost2010PropOp53
 70
     1
102
RTVSPost2010Prop54
  1
strokes_ogs.tif
102
RTVSPost2010PropOp54
 70
     1
102
RTVSPost2010Prop55
280
     0
102
RTVSPost2010PropOp55
 70
     1
102
RTVSPost2010Prop56
140
1.0
102
RTVSPost2010PropOp56
 70
     1
102
RTVSPost2010Prop57
140
1.0
102
RTVSPost2010PropOp57
 70
     1
  0
XRECORD
  5
1F5
102
{ACAD_REACTORS
330
1F4
102
}
330
1F4
100
AcDbXrecord
280
     1
102
RTVSPropertyOp0
 70
     1
102
RTVSPropertyOp1
 70
     1
102
RTVSPropertyOp2
 70
     1
102
RTVSPropertyOp3
 70
     1
102
RTVSPropertyOp4
 70
     1
102
RTVSPropertyOp5
 70
     1
102
RTVSPropertyOp6
 70
     1
102
RTVSPropertyOp7
 70
     1
102
RTVSPropertyOp8
 70
     1
102
RTVSPropertyOp9
 70
     1
102
RTVSPropertyOp10
 70
     1
102
RTVSPropertyOp11
 70
     1
102
RTVSPropertyOp12
 70
     1
102
RTVSPropertyOp13
 70
     1
102
RTVSPropertyOp14
 70
     1
102
RTVSPropertyOp15
 70
     1
102
RTVSPropertyOp16
 70
     1
102
RTVSPropertyOp17
 70
     1
102
RTVSPropertyOp18
 70
     1
102
RTVSPropertyOp19
 70
     1
102
RTVSPropertyOp20
 70
     1
102
RTVSPropertyOp21
 70
     1
102
RTVSPropertyOp22
 70
     1
102
RTVSPropertyOp23
 70
     1
102
RTVSPropertyOp24
 70
     1
102
RTVSPropertyOp25
 70
     1
102
RTVSPropertyOp26
 70
     1
102
RTVSPropertyOp27
 70
     1
102
RTVSPropertyOp28
 70
     1
102
RTVSPropertyOp29
 70
     1
102
RTVSPropertyOp30
 70
     1
102
RTVSPropertyOp31
 70
     1
102
RTVSPropertyOp32
 70
     1
102
RTVSPropertyOp33
 70
     1
102
RTVSPropertyOp34
 70
     1
102
RTVSPropertyOp35
 70
     1
102
RTVSPropertyOp36
 70
     1
102
RTVSPropertyOp37
 70
     1
102
RTVSPropertyOp38
 70
     1
102
RTVSPropertyOp39
 70
     1
102
RTVSPropertyOp40
 70
     1
102
RTVSPropertyOp41
 70
     1
102
RTVSPropertyOp42
 70
     1
102
RTVSPropertyOp43
 70
     1
102
RTVSPropertyOp44
 70
     1
102
RTVSPropertyOp45
 70
     1
102
RTVSPropertyOp46
 70
     1
102
RTVSPropertyOp47
 70
     1
102
RTVSPropertyOp48
 70
     1
102
RTVSPropertyOp49
 70
     1
102
RTVSPropertyOp50
 70
     1
102
RTVSPropertyOp51
 70
     0
102
RTVSPropertyOp52
 70
     0
102
RTVSPropertyOp53
 70
     1
102
RTVSPropertyOp54
 70
     1
102
RTVSPropertyOp55
 70
     1
102
RTVSPropertyOp56
 70
     1
102
RTVSPropertyOp57
 70
     1
102
RTVSPost2010Prop28
280
     0
102
RTVSPost2010PropOp28
 70
     1
102
RTVSPost2010Prop29
280
     1
102
RTVSPost2010PropOp29
 70
     1
102
RTVSPost2010Prop30
280
     1
102
RTVSPost2010PropOp30
 70
     1
102
RTVSPost2010Prop31
280
     0
102
RTVSPost2010PropOp31
 70
     1
102
RTVSPost2010Prop32
280
     0
102
RTVSPost2010PropOp32
 70
     1
102
RTVSPost2010Prop33
280
     0
102
RTVSPost2010PropOp33
 70
     1
102
RTVSPost2010Prop34
280
     0
102
RTVSPost2010PropOp34
 70
     1
102
RTVSPost2010Prop35
280
     0
102
RTVSPost2010PropOp35
 70
     1
102
RTVSPost2010Prop36
280
     0
102
RTVSPost2010PropOp36
 70
     1
102
RTVSPost2010Prop37
 90
       50
102
RTVSPost2010PropOp37
 70
     1
102
RTVSPost2010Prop38
140
0.0
102
RTVSPost2010PropOp38
 70
     1
102
RTVSPost2010Prop39
140
1.0
102
RTVSPost2010PropOp39
 70
     1
102
RTVSPost2010Prop40
 90
        0
102
RTVSPost2010PropOp40
 70
     1
102
RTVSPost2010Prop41ColorIndex
 90
       18
102
RTVSPost2010Prop41ColorRGB
 90
        0
102
RTVSPost2010PropOp41
 70
     1
102
RTVSPost2010Prop42
 90
       50
102
RTVSPost2010PropOp42
 70
     1
102
RTVSPost2010Prop43
 90
        3
102
RTVSPost2010PropOp43
 70
     1
102
RTVSPost2010Prop44ColorIndex
 90
        5
102
RTVSPost2010Prop44ColorRGB
 90
      255
102
RTVSPost2010PropOp44
 70
     1
102
RTVSPost2010Prop45
280
     0
102
RTVSPost2010PropOp45
 70
     1
102
RTVSPost2010Prop46
 90
       50
102
RTVSPost2010PropOp46
 70
     1
102
RTVSPost2010Prop47
 90
       50
102
RTVSPost2010PropOp47
 70
     1
102
RTVSPost2010Prop48
 90
       50
102
RTVSPost2010PropOp48
 70
     1
102
RTVSPost2010Prop49
280
     0
102
RTVSPost2010PropOp49
 70
     1
102
RTVSPost2010Prop50
 90
       50
102
RTVSPost2010PropOp50
 70
     1
102
RTVSPost2010Prop51ColorIndex
 90
      256
102
RTVSPost2010Prop51ColorRGB
 90
-16777216
102
RTVSPost2010PropOp51
 70
     0
102
RTVSPost2010Prop52
140
1.0
102
RTVSPost2010PropOp52
 70
     0
102
RTVSPost2010Prop53
 90
        2
102
RTVSPost2010PropOp53
 70
     1
102
RTVSPost2010Prop54
  1
strokes_ogs.tif
102
RTVSPost2010PropOp54
 70
     1
102
RTVSPost2010Prop55
280
     0
102
RTVSPost2010PropOp55
 70
     1
102
RTVSPost2010Prop56
140
1.0
102
RTVSPost2010PropOp56
 70
     1
102
RTVSPost2010Prop57
140
1.0
102
RTVSPost2010PropOp57
 70
     1
  0
XRECORD
  5
205
102
{ACAD_REACTORS
330
204
102
}
330
204
100
AcDbXrecord
280
     1
102
RTVSPropertyOp0
 70
     0
102
RTVSPropertyOp1
 70
     0
102
RTVSPropertyOp2
 70
     0
102
RTVSPropertyOp3
 70
     0
102
RTVSPropertyOp4
 70
     0
102
RTVSPropertyOp5
 70
     0
102
RTVSPropertyOp6
 70
     0
102
RTVSPropertyOp7
 70
     0
102
RTVSPropertyOp8
 70
     0
102
RTVSPropertyOp9
 70
     0
102
RTVSPropertyOp10
 70
     0
102
RTVSPropertyOp11
 70
     0
102
RTVSPropertyOp12
 70
     0
102
RTVSPropertyOp13
 70
     0
102
RTVSPropertyOp14
 70
     2
102
RTVSPropertyOp15
 70
     0
102
RTVSPropertyOp16
 70
     0
102
RTVSPropertyOp17
 70
     0
102
RTVSPropertyOp18
 70
     0
102
RTVSPropertyOp19
 70
     0
102
RTVSPropertyOp20
 70
     0
102
RTVSPropertyOp21
 70
     0
102
RTVSPropertyOp22
 70
     0
102
RTVSPropertyOp23
 70
     0
102
RTVSPropertyOp24
 70
     0
102
RTVSPropertyOp25
 70
     0
102
RTVSPropertyOp26
 70
     0
102
RTVSPropertyOp27
 70
     0
102
RTVSPropertyOp28
 70
     0
102
RTVSPropertyOp29
 70
     0
102
RTVSPropertyOp30
 70
     0
102
RTVSPropertyOp31
 70
     0
102
RTVSPropertyOp32
 70
     0
102
RTVSPropertyOp33
 70
     0
102
RTVSPropertyOp34
 70
     0
102
RTVSPropertyOp35
 70
     0
102
RTVSPropertyOp36
 70
     0
102
RTVSPropertyOp37
 70
     0
102
RTVSPropertyOp38
 70
     0
102
RTVSPropertyOp39
 70
     0
102
RTVSPropertyOp40
 70
     0
102
RTVSPropertyOp41
 70
     0
102
RTVSPropertyOp42
 70
     0
102
RTVSPropertyOp43
 70
     0
102
RTVSPropertyOp44
 70
     0
102
RTVSPropertyOp45
 70
     0
102
RTVSPropertyOp46
 70
     0
102
RTVSPropertyOp47
 70
     0
102
RTVSPropertyOp48
 70
     0
102
RTVSPropertyOp49
 70
     0
102
RTVSPropertyOp50
 70
     0
102
RTVSPropertyOp51
 70
     0
102
RTVSPropertyOp52
 70
     0
102
RTVSPropertyOp53
 70
     0
102
RTVSPropertyOp54
 70
     0
102
RTVSPropertyOp55
 70
     0
102
RTVSPropertyOp56
 70
     0
102
RTVSPropertyOp57
 70
     0
102
RTVSPost2010Prop28
280
     0
102
RTVSPost2010PropOp28
 70
     0
102
RTVSPost2010Prop29
280
     1
102
RTVSPost2010PropOp29
 70
     0
102
RTVSPost2010Prop30
280
     1
102
RTVSPost2010PropOp30
 70
     0
102
RTVSPost2010Prop31
280
     0
102
RTVSPost2010PropOp31
 70
     0
102
RTVSPost2010Prop32
280
     0
102
RTVSPost2010PropOp32
 70
     0
102
RTVSPost2010Prop33
280
     0
102
RTVSPost2010PropOp33
 70
     0
102
RTVSPost2010Prop34
280
     0
102
RTVSPost2010PropOp34
 70
     0
102
RTVSPost2010Prop35
280
     0
102
RTVSPost2010PropOp35
 70
     0
102
RTVSPost2010Prop36
280
     0
102
RTVSPost2010PropOp36
 70
     0
102
RTVSPost2010Prop37
 90
       50
102
RTVSPost2010PropOp37
 70
     0
102
RTVSPost2010Prop38
140
0.0
102
RTVSPost2010PropOp38
 70
     0
102
RTVSPost2010Prop39
140
1.0
102
RTVSPost2010PropOp39
 70
     0
102
RTVSPost2010Prop40
 90
        0
102
RTVSPost2010PropOp40
 70
     0
102
RTVSPost2010Prop41ColorIndex
 90
       18
102
RTVSPost2010Prop41ColorRGB
 90
        0
102
RTVSPost2010PropOp41
 70
     0
102
RTVSPost2010Prop42
 90
       50
102
RTVSPost2010PropOp42
 70
     0
102
RTVSPost2010Prop43
 90
        3
102
RTVSPost2010PropOp43
 70
     0
102
RTVSPost2010Prop44ColorIndex
 90
        5
102
RTVSPost2010Prop44ColorRGB
 90
      255
102
RTVSPost2010PropOp44
 70
     0
102
RTVSPost2010Prop45
280
     0
102
RTVSPost2010PropOp45
 70
     0
102
RTVSPost2010Prop46
 90
       50
102
RTVSPost2010PropOp46
 70
     0
102
RTVSPost2010Prop47
 90
       50
102
RTVSPost2010PropOp47
 70
     0
102
RTVSPost2010Prop48
 90
       50
102
RTVSPost2010PropOp48
 70
     0
102
RTVSPost2010Prop49
280
     0
102
RTVSPost2010PropOp49
 70
     0
102
RTVSPost2010Prop50
 90
       50
102
RTVSPost2010PropOp50
 70
     0
102
RTVSPost2010Prop51ColorIndex
 90
      256
102
RTVSPost2010Prop51ColorRGB
 90
-16777216
102
RTVSPost2010PropOp51
 70
     0
102
RTVSPost2010Prop52
140
1.0
102
RTVSPost2010PropOp52
 70
     0
102
RTVSPost2010Prop53
 90
        2
102
RTVSPost2010PropOp53
 70
     0
102
RTVSPost2010Prop54
  1
strokes_ogs.tif
102
RTVSPost2010PropOp54
 70
     0
102
RTVSPost2010Prop55
280
     0
102
RTVSPost2010PropOp55
 70
     0
102
RTVSPost2010Prop56
140
1.0
102
RTVSPost2010PropOp56
 70
     0
102
RTVSPost2010Prop57
140
1.0
102
RTVSPost2010PropOp57
 70
     0
  0
XRECORD
  5
1FD
102
{ACAD_REACTORS
330
1FC
102
}
330
1FC
100
AcDbXrecord
280
     1
102
RTVSPropertyOp0
 70
     1
102
RTVSPropertyOp1
 70
     1
102
RTVSPropertyOp2
 70
     1
102
RTVSPropertyOp3
 70
     1
102
RTVSPropertyOp4
 70
     1
102
RTVSPropertyOp5
 70
     1
102
RTVSPropertyOp6
 70
     1
102
RTVSPropertyOp7
 70
     1
102
RTVSPropertyOp8
 70
     1
102
RTVSPropertyOp9
 70
     1
102
RTVSPropertyOp10
 70
     1
102
RTVSPropertyOp11
 70
     1
102
RTVSPropertyOp12
 70
     1
102
RTVSPropertyOp13
 70
     1
102
RTVSPropertyOp14
 70
     1
102
RTVSPropertyOp15
 70
     1
102
RTVSPropertyOp16
 70
     1
102
RTVSPropertyOp17
 70
     1
102
RTVSPropertyOp18
 70
     1
102
RTVSPropertyOp19
 70
     1
102
RTVSPropertyOp20
 70
     1
102
RTVSPropertyOp21
 70
     1
102
RTVSPropertyOp22
 70
     1
102
RTVSPropertyOp23
 70
     1
102
RTVSPropertyOp24
 70
     1
102
RTVSPropertyOp25
 70
     1
102
RTVSPropertyOp26
 70
     1
102
RTVSPropertyOp27
 70
     1
102
RTVSPropertyOp28
 70
     1
102
RTVSPropertyOp29
 70
     1
102
RTVSPropertyOp30
 70
     1
102
RTVSPropertyOp31
 70
     1
102
RTVSPropertyOp32
 70
     1
102
RTVSPropertyOp33
 70
     1
102
RTVSPropertyOp34
 70
     1
102
RTVSPropertyOp35
 70
     1
102
RTVSPropertyOp36
 70
     1
102
RTVSPropertyOp37
 70
     1
102
RTVSPropertyOp38
 70
     1
102
RTVSPropertyOp39
 70
     1
102
RTVSPropertyOp40
 70
     1
102
RTVSPropertyOp41
 70
     1
102
RTVSPropertyOp42
 70
     1
102
RTVSPropertyOp43
 70
     1
102
RTVSPropertyOp44
 70
     1
102
RTVSPropertyOp45
 70
     1
102
RTVSPropertyOp46
 70
     1
102
RTVSPropertyOp47
 70
     1
102
RTVSPropertyOp48
 70
     1
102
RTVSPropertyOp49
 70
     1
102
RTVSPropertyOp50
 70
     1
102
RTVSPropertyOp51
 70
     0
102
RTVSPropertyOp52
 70
     0
102
RTVSPropertyOp53
 70
     1
102
RTVSPropertyOp54
 70
     1
102
RTVSPropertyOp55
 70
     1
102
RTVSPropertyOp56
 70
     1
102
RTVSPropertyOp57
 70
     1
102
RTVSPost2010Prop28
280
     0
102
RTVSPost2010PropOp28
 70
     1
102
RTVSPost2010Prop29
280
     1
102
RTVSPost2010PropOp29
 70
     1
102
RTVSPost2010Prop30
280
     1
102
RTVSPost2010PropOp30
 70
     1
102
RTVSPost2010Prop31
280
     0
102
RTVSPost2010PropOp31
 70
     1
102
RTVSPost2010Prop32
280
     0
102
RTVSPost2010PropOp32
 70
     1
102
RTVSPost2010Prop33
280
     0
102
RTVSPost2010PropOp33
 70
     1
102
RTVSPost2010Prop34
280
     0
102
RTVSPost2010PropOp34
 70
     1
102
RTVSPost2010Prop35
280
     0
102
RTVSPost2010PropOp35
 70
     1
102
RTVSPost2010Prop36
280
     0
102
RTVSPost2010PropOp36
 70
     1
102
RTVSPost2010Prop37
 90
       50
102
RTVSPost2010PropOp37
 70
     1
102
RTVSPost2010Prop38
140
0.0
102
RTVSPost2010PropOp38
 70
     1
102
RTVSPost2010Prop39
140
1.0
102
RTVSPost2010PropOp39
 70
     1
102
RTVSPost2010Prop40
 90
        0
102
RTVSPost2010PropOp40
 70
     1
102
RTVSPost2010Prop41ColorIndex
 90
       18
102
RTVSPost2010Prop41ColorRGB
 90
        0
102
RTVSPost2010PropOp41
 70
     1
102
RTVSPost2010Prop42
 90
       50
102
RTVSPost2010PropOp42
 70
     1
102
RTVSPost2010Prop43
 90
        3
102
RTVSPost2010PropOp43
 70
     1
102
RTVSPost2010Prop44ColorIndex
 90
        5
102
RTVSPost2010Prop44ColorRGB
 90
      255
102
RTVSPost2010PropOp44
 70
     1
102
RTVSPost2010Prop45
280
     0
102
RTVSPost2010PropOp45
 70
     1
102
RTVSPost2010Prop46
 90
       50
102
RTVSPost2010PropOp46
 70
     1
102
RTVSPost2010Prop47
 90
       50
102
RTVSPost2010PropOp47
 70
     1
102
RTVSPost2010Prop48
 90
       50
102
RTVSPost2010PropOp48
 70
     1
102
RTVSPost2010Prop49
280
     0
102
RTVSPost2010PropOp49
 70
     1
102
RTVSPost2010Prop50
 90
       50
102
RTVSPost2010PropOp50
 70
     1
102
RTVSPost2010Prop51ColorIndex
 90
      256
102
RTVSPost2010Prop51ColorRGB
 90
-16777216
102
RTVSPost2010PropOp51
 70
     0
102
RTVSPost2010Prop52
140
1.0
102
RTVSPost2010PropOp52
 70
     0
102
RTVSPost2010Prop53
 90
        2
102
RTVSPost2010PropOp53
 70
     1
102
RTVSPost2010Prop54
  1
strokes_ogs.tif
102
RTVSPost2010PropOp54
 70
     1
102
RTVSPost2010Prop55
280
     0
102
RTVSPost2010PropOp55
 70
     1
102
RTVSPost2010Prop56
140
1.0
102
RTVSPost2010PropOp56
 70
     1
102
RTVSPost2010Prop57
140
1.0
102
RTVSPost2010PropOp57
 70
     1
  0
XRECORD
  5
1E1
102
{ACAD_REACTORS
330
1E0
102
}
330
1E0
100
AcDbXrecord
280
     1
102
RTVSPropertyOp0
 70
     1
102
RTVSPropertyOp1
 70
     1
102
RTVSPropertyOp2
 70
     1
102
RTVSPropertyOp3
 70
     1
102
RTVSPropertyOp4
 70
     1
102
RTVSPropertyOp5
 70
     1
102
RTVSPropertyOp6
 70
     1
102
RTVSPropertyOp7
 70
     1
102
RTVSPropertyOp8
 70
     1
102
RTVSPropertyOp9
 70
     1
102
RTVSPropertyOp10
 70
     1
102
RTVSPropertyOp11
 70
     1
102
RTVSPropertyOp12
 70
     1
102
RTVSPropertyOp13
 70
     1
102
RTVSPropertyOp14
 70
     1
102
RTVSPropertyOp15
 70
     1
102
RTVSPropertyOp16
 70
     1
102
RTVSPropertyOp17
 70
     1
102
RTVSPropertyOp18
 70
     1
102
RTVSPropertyOp19
 70
     1
102
RTVSPropertyOp20
 70
     1
102
RTVSPropertyOp21
 70
     1
102
RTVSPropertyOp22
 70
     1
102
RTVSPropertyOp23
 70
     1
102
RTVSPropertyOp24
 70
     1
102
RTVSPropertyOp25
 70
     1
102
RTVSPropertyOp26
 70
     1
102
RTVSPropertyOp27
 70
     1
102
RTVSPropertyOp28
 70
     1
102
RTVSPropertyOp29
 70
     1
102
RTVSPropertyOp30
 70
     1
102
RTVSPropertyOp31
 70
     1
102
RTVSPropertyOp32
 70
     1
102
RTVSPropertyOp33
 70
     1
102
RTVSPropertyOp34
 70
     1
102
RTVSPropertyOp35
 70
     1
102
RTVSPropertyOp36
 70
     1
102
RTVSPropertyOp37
 70
     1
102
RTVSPropertyOp38
 70
     1
102
RTVSPropertyOp39
 70
     1
102
RTVSPropertyOp40
 70
     1
102
RTVSPropertyOp41
 70
     1
102
RTVSPropertyOp42
 70
     1
102
RTVSPropertyOp43
 70
     1
102
RTVSPropertyOp44
 70
     1
102
RTVSPropertyOp45
 70
     1
102
RTVSPropertyOp46
 70
     1
102
RTVSPropertyOp47
 70
     1
102
RTVSPropertyOp48
 70
     1
102
RTVSPropertyOp49
 70
     1
102
RTVSPropertyOp50
 70
     1
102
RTVSPropertyOp51
 70
     0
102
RTVSPropertyOp52
 70
     0
102
RTVSPropertyOp53
 70
     1
102
RTVSPropertyOp54
 70
     1
102
RTVSPropertyOp55
 70
     1
102
RTVSPropertyOp56
 70
     1
102
RTVSPropertyOp57
 70
     1
102
RTVSPost2010Prop28
280
     0
102
RTVSPost2010PropOp28
 70
     1
102
RTVSPost2010Prop29
280
     1
102
RTVSPost2010PropOp29
 70
     1
102
RTVSPost2010Prop30
280
     1
102
RTVSPost2010PropOp30
 70
     1
102
RTVSPost2010Prop31
280
     0
102
RTVSPost2010PropOp31
 70
     1
102
RTVSPost2010Prop32
280
     0
102
RTVSPost2010PropOp32
 70
     1
102
RTVSPost2010Prop33
280
     0
102
RTVSPost2010PropOp33
 70
     1
102
RTVSPost2010Prop34
280
     0
102
RTVSPost2010PropOp34
 70
     1
102
RTVSPost2010Prop35
280
     0
102
RTVSPost2010PropOp35
 70
     1
102
RTVSPost2010Prop36
280
     0
102
RTVSPost2010PropOp36
 70
     1
102
RTVSPost2010Prop37
 90
       50
102
RTVSPost2010PropOp37
 70
     1
102
RTVSPost2010Prop38
140
0.0
102
RTVSPost2010PropOp38
 70
     1
102
RTVSPost2010Prop39
140
1.0
102
RTVSPost2010PropOp39
 70
     1
102
RTVSPost2010Prop40
 90
        0
102
RTVSPost2010PropOp40
 70
     1
102
RTVSPost2010Prop41ColorIndex
 90
       18
102
RTVSPost2010Prop41ColorRGB
 90
        0
102
RTVSPost2010PropOp41
 70
     1
102
RTVSPost2010Prop42
 90
       50
102
RTVSPost2010PropOp42
 70
     1
102
RTVSPost2010Prop43
 90
        3
102
RTVSPost2010PropOp43
 70
     1
102
RTVSPost2010Prop44ColorIndex
 90
        5
102
RTVSPost2010Prop44ColorRGB
 90
      255
102
RTVSPost2010PropOp44
 70
     1
102
RTVSPost2010Prop45
280
     0
102
RTVSPost2010PropOp45
 70
     1
102
RTVSPost2010Prop46
 90
       50
102
RTVSPost2010PropOp46
 70
     1
102
RTVSPost2010Prop47
 90
       50
102
RTVSPost2010PropOp47
 70
     1
102
RTVSPost2010Prop48
 90
       50
102
RTVSPost2010PropOp48
 70
     1
102
RTVSPost2010Prop49
280
     0
102
RTVSPost2010PropOp49
 70
     1
102
RTVSPost2010Prop50
 90
       50
102
RTVSPost2010PropOp50
 70
     1
102
RTVSPost2010Prop51ColorIndex
 90
      256
102
RTVSPost2010Prop51ColorRGB
 90
-16777216
102
RTVSPost2010PropOp51
 70
     0
102
RTVSPost2010Prop52
140
1.0
102
RTVSPost2010PropOp52
 70
     0
102
RTVSPost2010Prop53
 90
        2
102
RTVSPost2010PropOp53
 70
     1
102
RTVSPost2010Prop54
  1
strokes_ogs.tif
102
RTVSPost2010PropOp54
 70
     1
102
RTVSPost2010Prop55
280
     0
102
RTVSPost2010PropOp55
 70
     1
102
RTVSPost2010Prop56
140
1.0
102
RTVSPost2010PropOp56
 70
     1
102
RTVSPost2010Prop57
140
1.0
102
RTVSPost2010PropOp57
 70
     1
  0
XRECORD
  5
1E3
102
{ACAD_REACTORS
330
1E2
102
}
330
1E2
100
AcDbXrecord
280
     1
102
RTVSPropertyOp0
 70
     1
102
RTVSPropertyOp1
 70
     1
102
RTVSPropertyOp2
 70
     1
102
RTVSPropertyOp3
 70
     1
102
RTVSPropertyOp4
 70
     1
102
RTVSPropertyOp5
 70
     1
102
RTVSPropertyOp6
 70
     1
102
RTVSPropertyOp7
 70
     1
102
RTVSPropertyOp8
 70
     1
102
RTVSPropertyOp9
 70
     1
102
RTVSPropertyOp10
 70
     1
102
RTVSPropertyOp11
 70
     1
102
RTVSPropertyOp12
 70
     1
102
RTVSPropertyOp13
 70
     1
102
RTVSPropertyOp14
 70
     1
102
RTVSPropertyOp15
 70
     1
102
RTVSPropertyOp16
 70
     1
102
RTVSPropertyOp17
 70
     1
102
RTVSPropertyOp18
 70
     1
102
RTVSPropertyOp19
 70
     1
102
RTVSPropertyOp20
 70
     1
102
RTVSPropertyOp21
 70
     1
102
RTVSPropertyOp22
 70
     1
102
RTVSPropertyOp23
 70
     1
102
RTVSPropertyOp24
 70
     1
102
RTVSPropertyOp25
 70
     1
102
RTVSPropertyOp26
 70
     1
102
RTVSPropertyOp27
 70
     1
102
RTVSPropertyOp28
 70
     1
102
RTVSPropertyOp29
 70
     1
102
RTVSPropertyOp30
 70
     1
102
RTVSPropertyOp31
 70
     1
102
RTVSPropertyOp32
 70
     1
102
RTVSPropertyOp33
 70
     1
102
RTVSPropertyOp34
 70
     1
102
RTVSPropertyOp35
 70
     1
102
RTVSPropertyOp36
 70
     1
102
RTVSPropertyOp37
 70
     1
102
RTVSPropertyOp38
 70
     1
102
RTVSPropertyOp39
 70
     1
102
RTVSPropertyOp40
 70
     1
102
RTVSPropertyOp41
 70
     1
102
RTVSPropertyOp42
 70
     1
102
RTVSPropertyOp43
 70
     1
102
RTVSPropertyOp44
 70
     1
102
RTVSPropertyOp45
 70
     1
102
RTVSPropertyOp46
 70
     1
102
RTVSPropertyOp47
 70
     1
102
RTVSPropertyOp48
 70
     1
102
RTVSPropertyOp49
 70
     1
102
RTVSPropertyOp50
 70
     1
102
RTVSPropertyOp51
 70
     0
102
RTVSPropertyOp52
 70
     0
102
RTVSPropertyOp53
 70
     1
102
RTVSPropertyOp54
 70
     1
102
RTVSPropertyOp55
 70
     1
102
RTVSPropertyOp56
 70
     1
102
RTVSPropertyOp57
 70
     1
102
RTVSPost2010Prop28
280
     0
102
RTVSPost2010PropOp28
 70
     1
102
RTVSPost2010Prop29
280
     1
102
RTVSPost2010PropOp29
 70
     1
102
RTVSPost2010Prop30
280
     1
102
RTVSPost2010PropOp30
 70
     1
102
RTVSPost2010Prop31
280
     0
102
RTVSPost2010PropOp31
 70
     1
102
RTVSPost2010Prop32
280
     0
102
RTVSPost2010PropOp32
 70
     1
102
RTVSPost2010Prop33
280
     0
102
RTVSPost2010PropOp33
 70
     1
102
RTVSPost2010Prop34
280
     0
102
RTVSPost2010PropOp34
 70
     1
102
RTVSPost2010Prop35
280
     0
102
RTVSPost2010PropOp35
 70
     1
102
RTVSPost2010Prop36
280
     0
102
RTVSPost2010PropOp36
 70
     1
102
RTVSPost2010Prop37
 90
       50
102
RTVSPost2010PropOp37
 70
     1
102
RTVSPost2010Prop38
140
0.0
102
RTVSPost2010PropOp38
 70
     1
102
RTVSPost2010Prop39
140
1.0
102
RTVSPost2010PropOp39
 70
     1
102
RTVSPost2010Prop40
 90
        0
102
RTVSPost2010PropOp40
 70
     1
102
RTVSPost2010Prop41ColorIndex
 90
       18
102
RTVSPost2010Prop41ColorRGB
 90
        0
102
RTVSPost2010PropOp41
 70
     1
102
RTVSPost2010Prop42
 90
       50
102
RTVSPost2010PropOp42
 70
     1
102
RTVSPost2010Prop43
 90
        3
102
RTVSPost2010PropOp43
 70
     1
102
RTVSPost2010Prop44ColorIndex
 90
        5
102
RTVSPost2010Prop44ColorRGB
 90
      255
102
RTVSPost2010PropOp44
 70
     1
102
RTVSPost2010Prop45
280
     0
102
RTVSPost2010PropOp45
 70
     1
102
RTVSPost2010Prop46
 90
       50
102
RTVSPost2010PropOp46
 70
     1
102
RTVSPost2010Prop47
 90
       50
102
RTVSPost2010PropOp47
 70
     1
102
RTVSPost2010Prop48
 90
       50
102
RTVSPost2010PropOp48
 70
     1
102
RTVSPost2010Prop49
280
     0
102
RTVSPost2010PropOp49
 70
     1
102
RTVSPost2010Prop50
 90
       50
102
RTVSPost2010PropOp50
 70
     1
102
RTVSPost2010Prop51ColorIndex
 90
      256
102
RTVSPost2010Prop51ColorRGB
 90
-16777216
102
RTVSPost2010PropOp51
 70
     0
102
RTVSPost2010Prop52
140
1.0
102
RTVSPost2010PropOp52
 70
     0
102
RTVSPost2010Prop53
 90
        2
102
RTVSPost2010PropOp53
 70
     1
102
RTVSPost2010Prop54
  1
strokes_ogs.tif
102
RTVSPost2010PropOp54
 70
     1
102
RTVSPost2010Prop55
280
     0
102
RTVSPost2010PropOp55
 70
     1
102
RTVSPost2010Prop56
140
1.0
102
RTVSPost2010PropOp56
 70
     1
102
RTVSPost2010Prop57
140
1.0
102
RTVSPost2010PropOp57
 70
     1
  0
XRECORD
  5
1E5
102
{ACAD_REACTORS
330
1E4
102
}
330
1E4
100
AcDbXrecord
280
     1
102
RTVSPropertyOp0
 70
     1
102
RTVSPropertyOp1
 70
     1
102
RTVSPropertyOp2
 70
     1
102
RTVSPropertyOp3
 70
     1
102
RTVSPropertyOp4
 70
     1
102
RTVSPropertyOp5
 70
     1
102
RTVSPropertyOp6
 70
     1
102
RTVSPropertyOp7
 70
     1
102
RTVSPropertyOp8
 70
     1
102
RTVSPropertyOp9
 70
     1
102
RTVSPropertyOp10
 70
     1
102
RTVSPropertyOp11
 70
     1
102
RTVSPropertyOp12
 70
     1
102
RTVSPropertyOp13
 70
     1
102
RTVSPropertyOp14
 70
     1
102
RTVSPropertyOp15
 70
     1
102
RTVSPropertyOp16
 70
     1
102
RTVSPropertyOp17
 70
     1
102
RTVSPropertyOp18
 70
     1
102
RTVSPropertyOp19
 70
     1
102
RTVSPropertyOp20
 70
     1
102
RTVSPropertyOp21
 70
     1
102
RTVSPropertyOp22
 70
     1
102
RTVSPropertyOp23
 70
     1
102
RTVSPropertyOp24
 70
     1
102
RTVSPropertyOp25
 70
     1
102
RTVSPropertyOp26
 70
     1
102
RTVSPropertyOp27
 70
     1
102
RTVSPropertyOp28
 70
     1
102
RTVSPropertyOp29
 70
     1
102
RTVSPropertyOp30
 70
     1
102
RTVSPropertyOp31
 70
     1
102
RTVSPropertyOp32
 70
     1
102
RTVSPropertyOp33
 70
     1
102
RTVSPropertyOp34
 70
     1
102
RTVSPropertyOp35
 70
     1
102
RTVSPropertyOp36
 70
     1
102
RTVSPropertyOp37
 70
     1
102
RTVSPropertyOp38
 70
     1
102
RTVSPropertyOp39
 70
     1
102
RTVSPropertyOp40
 70
     1
102
RTVSPropertyOp41
 70
     1
102
RTVSPropertyOp42
 70
     1
102
RTVSPropertyOp43
 70
     1
102
RTVSPropertyOp44
 70
     1
102
RTVSPropertyOp45
 70
     1
102
RTVSPropertyOp46
 70
     1
102
RTVSPropertyOp47
 70
     1
102
RTVSPropertyOp48
 70
     1
102
RTVSPropertyOp49
 70
     1
102
RTVSPropertyOp50
 70
     1
102
RTVSPropertyOp51
 70
     0
102
RTVSPropertyOp52
 70
     0
102
RTVSPropertyOp53
 70
     1
102
RTVSPropertyOp54
 70
     1
102
RTVSPropertyOp55
 70
     1
102
RTVSPropertyOp56
 70
     1
102
RTVSPropertyOp57
 70
     1
102
RTVSPost2010Prop28
280
     0
102
RTVSPost2010PropOp28
 70
     1
102
RTVSPost2010Prop29
280
     1
102
RTVSPost2010PropOp29
 70
     1
102
RTVSPost2010Prop30
280
     1
102
RTVSPost2010PropOp30
 70
     1
102
RTVSPost2010Prop31
280
     0
102
RTVSPost2010PropOp31
 70
     1
102
RTVSPost2010Prop32
280
     0
102
RTVSPost2010PropOp32
 70
     1
102
RTVSPost2010Prop33
280
     0
102
RTVSPost2010PropOp33
 70
     1
102
RTVSPost2010Prop34
280
     0
102
RTVSPost2010PropOp34
 70
     1
102
RTVSPost2010Prop35
280
     0
102
RTVSPost2010PropOp35
 70
     1
102
RTVSPost2010Prop36
280
     0
102
RTVSPost2010PropOp36
 70
     1
102
RTVSPost2010Prop37
 90
       50
102
RTVSPost2010PropOp37
 70
     1
102
RTVSPost2010Prop38
140
0.0
102
RTVSPost2010PropOp38
 70
     1
102
RTVSPost2010Prop39
140
1.0
102
RTVSPost2010PropOp39
 70
     1
102
RTVSPost2010Prop40
 90
        0
102
RTVSPost2010PropOp40
 70
     1
102
RTVSPost2010Prop41ColorIndex
 90
       18
102
RTVSPost2010Prop41ColorRGB
 90
        0
102
RTVSPost2010PropOp41
 70
     1
102
RTVSPost2010Prop42
 90
       50
102
RTVSPost2010PropOp42
 70
     1
102
RTVSPost2010Prop43
 90
        3
102
RTVSPost2010PropOp43
 70
     1
102
RTVSPost2010Prop44ColorIndex
 90
        5
102
RTVSPost2010Prop44ColorRGB
 90
      255
102
RTVSPost2010PropOp44
 70
     1
102
RTVSPost2010Prop45
280
     0
102
RTVSPost2010PropOp45
 70
     1
102
RTVSPost2010Prop46
 90
       50
102
RTVSPost2010PropOp46
 70
     1
102
RTVSPost2010Prop47
 90
       50
102
RTVSPost2010PropOp47
 70
     1
102
RTVSPost2010Prop48
 90
       50
102
RTVSPost2010PropOp48
 70
     1
102
RTVSPost2010Prop49
280
     0
102
RTVSPost2010PropOp49
 70
     1
102
RTVSPost2010Prop50
 90
       50
102
RTVSPost2010PropOp50
 70
     1
102
RTVSPost2010Prop51ColorIndex
 90
      256
102
RTVSPost2010Prop51ColorRGB
 90
-16777216
102
RTVSPost2010PropOp51
 70
     0
102
RTVSPost2010Prop52
140
1.0
102
RTVSPost2010PropOp52
 70
     0
102
RTVSPost2010Prop53
 90
        2
102
RTVSPost2010PropOp53
 70
     1
102
RTVSPost2010Prop54
  1
strokes_ogs.tif
102
RTVSPost2010PropOp54
 70
     1
102
RTVSPost2010Prop55
280
     0
102
RTVSPost2010PropOp55
 70
     1
102
RTVSPost2010Prop56
140
1.0
102
RTVSPost2010PropOp56
 70
     1
102
RTVSPost2010Prop57
140
1.0
102
RTVSPost2010PropOp57
 70
     1
  0
XRECORD
  5
1E7
102
{ACAD_REACTORS
330
1E6
102
}
330
1E6
100
AcDbXrecord
280
     1
102
RTVSPropertyOp0
 70
     1
102
RTVSPropertyOp1
 70
     1
102
RTVSPropertyOp2
 70
     1
102
RTVSPropertyOp3
 70
     1
102
RTVSPropertyOp4
 70
     1
102
RTVSPropertyOp5
 70
     1
102
RTVSPropertyOp6
 70
     1
102
RTVSPropertyOp7
 70
     1
102
RTVSPropertyOp8
 70
     1
102
RTVSPropertyOp9
 70
     1
102
RTVSPropertyOp10
 70
     1
102
RTVSPropertyOp11
 70
     1
102
RTVSPropertyOp12
 70
     1
102
RTVSPropertyOp13
 70
     1
102
RTVSPropertyOp14
 70
     1
102
RTVSPropertyOp15
 70
     1
102
RTVSPropertyOp16
 70
     1
102
RTVSPropertyOp17
 70
     1
102
RTVSPropertyOp18
 70
     1
102
RTVSPropertyOp19
 70
     1
102
RTVSPropertyOp20
 70
     1
102
RTVSPropertyOp21
 70
     1
102
RTVSPropertyOp22
 70
     1
102
RTVSPropertyOp23
 70
     1
102
RTVSPropertyOp24
 70
     1
102
RTVSPropertyOp25
 70
     1
102
RTVSPropertyOp26
 70
     1
102
RTVSPropertyOp27
 70
     1
102
RTVSPropertyOp28
 70
     1
102
RTVSPropertyOp29
 70
     1
102
RTVSPropertyOp30
 70
     1
102
RTVSPropertyOp31
 70
     1
102
RTVSPropertyOp32
 70
     1
102
RTVSPropertyOp33
 70
     1
102
RTVSPropertyOp34
 70
     1
102
RTVSPropertyOp35
 70
     1
102
RTVSPropertyOp36
 70
     1
102
RTVSPropertyOp37
 70
     1
102
RTVSPropertyOp38
 70
     1
102
RTVSPropertyOp39
 70
     1
102
RTVSPropertyOp40
 70
     1
102
RTVSPropertyOp41
 70
     1
102
RTVSPropertyOp42
 70
     1
102
RTVSPropertyOp43
 70
     1
102
RTVSPropertyOp44
 70
     1
102
RTVSPropertyOp45
 70
     1
102
RTVSPropertyOp46
 70
     1
102
RTVSPropertyOp47
 70
     1
102
RTVSPropertyOp48
 70
     1
102
RTVSPropertyOp49
 70
     1
102
RTVSPropertyOp50
 70
     1
102
RTVSPropertyOp51
 70
     0
102
RTVSPropertyOp52
 70
     0
102
RTVSPropertyOp53
 70
     1
102
RTVSPropertyOp54
 70
     1
102
RTVSPropertyOp55
 70
     1
102
RTVSPropertyOp56
 70
     1
102
RTVSPropertyOp57
 70
     1
102
RTVSPost2010Prop28
280
     0
102
RTVSPost2010PropOp28
 70
     1
102
RTVSPost2010Prop29
280
     1
102
RTVSPost2010PropOp29
 70
     1
102
RTVSPost2010Prop30
280
     1
102
RTVSPost2010PropOp30
 70
     1
102
RTVSPost2010Prop31
280
     0
102
RTVSPost2010PropOp31
 70
     1
102
RTVSPost2010Prop32
280
     0
102
RTVSPost2010PropOp32
 70
     1
102
RTVSPost2010Prop33
280
     0
102
RTVSPost2010PropOp33
 70
     1
102
RTVSPost2010Prop34
280
     0
102
RTVSPost2010PropOp34
 70
     1
102
RTVSPost2010Prop35
280
     0
102
RTVSPost2010PropOp35
 70
     1
102
RTVSPost2010Prop36
280
     0
102
RTVSPost2010PropOp36
 70
     1
102
RTVSPost2010Prop37
 90
       50
102
RTVSPost2010PropOp37
 70
     1
102
RTVSPost2010Prop38
140
0.0
102
RTVSPost2010PropOp38
 70
     1
102
RTVSPost2010Prop39
140
1.0
102
RTVSPost2010PropOp39
 70
     1
102
RTVSPost2010Prop40
 90
        0
102
RTVSPost2010PropOp40
 70
     1
102
RTVSPost2010Prop41ColorIndex
 90
       18
102
RTVSPost2010Prop41ColorRGB
 90
        0
102
RTVSPost2010PropOp41
 70
     1
102
RTVSPost2010Prop42
 90
       50
102
RTVSPost2010PropOp42
 70
     1
102
RTVSPost2010Prop43
 90
        3
102
RTVSPost2010PropOp43
 70
     1
102
RTVSPost2010Prop44ColorIndex
 90
        5
102
RTVSPost2010Prop44ColorRGB
 90
      255
102
RTVSPost2010PropOp44
 70
     1
102
RTVSPost2010Prop45
280
     0
102
RTVSPost2010PropOp45
 70
     1
102
RTVSPost2010Prop46
 90
       50
102
RTVSPost2010PropOp46
 70
     1
102
RTVSPost2010Prop47
 90
       50
102
RTVSPost2010PropOp47
 70
     1
102
RTVSPost2010Prop48
 90
       50
102
RTVSPost2010PropOp48
 70
     1
102
RTVSPost2010Prop49
280
     0
102
RTVSPost2010PropOp49
 70
     1
102
RTVSPost2010Prop50
 90
       50
102
RTVSPost2010PropOp50
 70
     1
102
RTVSPost2010Prop51ColorIndex
 90
      256
102
RTVSPost2010Prop51ColorRGB
 90
-16777216
102
RTVSPost2010PropOp51
 70
     0
102
RTVSPost2010Prop52
140
1.0
102
RTVSPost2010PropOp52
 70
     0
102
RTVSPost2010Prop53
 90
        2
102
RTVSPost2010PropOp53
 70
     1
102
RTVSPost2010Prop54
  1
strokes_ogs.tif
102
RTVSPost2010PropOp54
 70
     1
102
RTVSPost2010Prop55
280
     0
102
RTVSPost2010PropOp55
 70
     1
102
RTVSPost2010Prop56
140
1.0
102
RTVSPost2010PropOp56
 70
     1
102
RTVSPost2010Prop57
140
1.0
102
RTVSPost2010PropOp57
 70
     1
  0
XRECORD
  5
1ED
102
{ACAD_REACTORS
330
1EC
102
}
330
1EC
100
AcDbXrecord
280
     1
102
RTVSPropertyOp0
 70
     1
102
RTVSPropertyOp1
 70
     1
102
RTVSPropertyOp2
 70
     1
102
RTVSPropertyOp3
 70
     1
102
RTVSPropertyOp4
 70
     1
102
RTVSPropertyOp5
 70
     1
102
RTVSPropertyOp6
 70
     1
102
RTVSPropertyOp7
 70
     1
102
RTVSPropertyOp8
 70
     1
102
RTVSPropertyOp9
 70
     1
102
RTVSPropertyOp10
 70
     1
102
RTVSPropertyOp11
 70
     1
102
RTVSPropertyOp12
 70
     1
102
RTVSPropertyOp13
 70
     1
102
RTVSPropertyOp14
 70
     1
102
RTVSPropertyOp15
 70
     1
102
RTVSPropertyOp16
 70
     1
102
RTVSPropertyOp17
 70
     1
102
RTVSPropertyOp18
 70
     1
102
RTVSPropertyOp19
 70
     1
102
RTVSPropertyOp20
 70
     1
102
RTVSPropertyOp21
 70
     1
102
RTVSPropertyOp22
 70
     1
102
RTVSPropertyOp23
 70
     1
102
RTVSPropertyOp24
 70
     1
102
RTVSPropertyOp25
 70
     1
102
RTVSPropertyOp26
 70
     1
102
RTVSPropertyOp27
 70
     1
102
RTVSPropertyOp28
 70
     1
102
RTVSPropertyOp29
 70
     1
102
RTVSPropertyOp30
 70
     1
102
RTVSPropertyOp31
 70
     1
102
RTVSPropertyOp32
 70
     1
102
RTVSPropertyOp33
 70
     1
102
RTVSPropertyOp34
 70
     1
102
RTVSPropertyOp35
 70
     1
102
RTVSPropertyOp36
 70
     1
102
RTVSPropertyOp37
 70
     1
102
RTVSPropertyOp38
 70
     1
102
RTVSPropertyOp39
 70
     1
102
RTVSPropertyOp40
 70
     1
102
RTVSPropertyOp41
 70
     1
102
RTVSPropertyOp42
 70
     1
102
RTVSPropertyOp43
 70
     1
102
RTVSPropertyOp44
 70
     1
102
RTVSPropertyOp45
 70
     1
102
RTVSPropertyOp46
 70
     1
102
RTVSPropertyOp47
 70
     1
102
RTVSPropertyOp48
 70
     1
102
RTVSPropertyOp49
 70
     1
102
RTVSPropertyOp50
 70
     1
102
RTVSPropertyOp51
 70
     0
102
RTVSPropertyOp52
 70
     0
102
RTVSPropertyOp53
 70
     1
102
RTVSPropertyOp54
 70
     1
102
RTVSPropertyOp55
 70
     1
102
RTVSPropertyOp56
 70
     1
102
RTVSPropertyOp57
 70
     1
102
RTVSPost2010Prop28
280
     0
102
RTVSPost2010PropOp28
 70
     1
102
RTVSPost2010Prop29
280
     1
102
RTVSPost2010PropOp29
 70
     1
102
RTVSPost2010Prop30
280
     1
102
RTVSPost2010PropOp30
 70
     1
102
RTVSPost2010Prop31
280
     0
102
RTVSPost2010PropOp31
 70
     1
102
RTVSPost2010Prop32
280
     0
102
RTVSPost2010PropOp32
 70
     1
102
RTVSPost2010Prop33
280
     0
102
RTVSPost2010PropOp33
 70
     1
102
RTVSPost2010Prop34
280
     0
102
RTVSPost2010PropOp34
 70
     1
102
RTVSPost2010Prop35
280
     0
102
RTVSPost2010PropOp35
 70
     1
102
RTVSPost2010Prop36
280
     0
102
RTVSPost2010PropOp36
 70
     1
102
RTVSPost2010Prop37
 90
       50
102
RTVSPost2010PropOp37
 70
     1
102
RTVSPost2010Prop38
140
0.0
102
RTVSPost2010PropOp38
 70
     1
102
RTVSPost2010Prop39
140
1.0
102
RTVSPost2010PropOp39
 70
     1
102
RTVSPost2010Prop40
 90
        0
102
RTVSPost2010PropOp40
 70
     1
102
RTVSPost2010Prop41ColorIndex
 90
       18
102
RTVSPost2010Prop41ColorRGB
 90
        0
102
RTVSPost2010PropOp41
 70
     1
102
RTVSPost2010Prop42
 90
       50
102
RTVSPost2010PropOp42
 70
     1
102
RTVSPost2010Prop43
 90
        3
102
RTVSPost2010PropOp43
 70
     1
102
RTVSPost2010Prop44ColorIndex
 90
        5
102
RTVSPost2010Prop44ColorRGB
 90
      255
102
RTVSPost2010PropOp44
 70
     1
102
RTVSPost2010Prop45
280
     0
102
RTVSPost2010PropOp45
 70
     1
102
RTVSPost2010Prop46
 90
       50
102
RTVSPost2010PropOp46
 70
     1
102
RTVSPost2010Prop47
 90
       50
102
RTVSPost2010PropOp47
 70
     1
102
RTVSPost2010Prop48
 90
       50
102
RTVSPost2010PropOp48
 70
     1
102
RTVSPost2010Prop49
280
     0
102
RTVSPost2010PropOp49
 70
     1
102
RTVSPost2010Prop50
 90
       50
102
RTVSPost2010PropOp50
 70
     1
102
RTVSPost2010Prop51ColorIndex
 90
      256
102
RTVSPost2010Prop51ColorRGB
 90
-16777216
102
RTVSPost2010PropOp51
 70
     0
102
RTVSPost2010Prop52
140
1.0
102
RTVSPost2010PropOp52
 70
     0
102
RTVSPost2010Prop53
 90
        2
102
RTVSPost2010PropOp53
 70
     1
102
RTVSPost2010Prop54
  1
strokes_ogs.tif
102
RTVSPost2010PropOp54
 70
     1
102
RTVSPost2010Prop55
280
     0
102
RTVSPost2010PropOp55
 70
     1
102
RTVSPost2010Prop56
140
1.0
102
RTVSPost2010PropOp56
 70
     1
102
RTVSPost2010Prop57
140
1.0
102
RTVSPost2010PropOp57
 70
     1
  0
XRECORD
  5
201
102
{ACAD_REACTORS
330
200
102
}
330
200
100
AcDbXrecord
280
     1
102
RTVSPropertyOp0
 70
     0
102
RTVSPropertyOp1
 70
     0
102
RTVSPropertyOp2
 70
     0
102
RTVSPropertyOp3
 70
     0
102
RTVSPropertyOp4
 70
     0
102
RTVSPropertyOp5
 70
     0
102
RTVSPropertyOp6
 70
     0
102
RTVSPropertyOp7
 70
     0
102
RTVSPropertyOp8
 70
     0
102
RTVSPropertyOp9
 70
     0
102
RTVSPropertyOp10
 70
     0
102
RTVSPropertyOp11
 70
     0
102
RTVSPropertyOp12
 70
     0
102
RTVSPropertyOp13
 70
     0
102
RTVSPropertyOp14
 70
     2
102
RTVSPropertyOp15
 70
     0
102
RTVSPropertyOp16
 70
     0
102
RTVSPropertyOp17
 70
     0
102
RTVSPropertyOp18
 70
     0
102
RTVSPropertyOp19
 70
     0
102
RTVSPropertyOp20
 70
     0
102
RTVSPropertyOp21
 70
     0
102
RTVSPropertyOp22
 70
     0
102
RTVSPropertyOp23
 70
     0
102
RTVSPropertyOp24
 70
     0
102
RTVSPropertyOp25
 70
     0
102
RTVSPropertyOp26
 70
     0
102
RTVSPropertyOp27
 70
     0
102
RTVSPropertyOp28
 70
     0
102
RTVSPropertyOp29
 70
     0
102
RTVSPropertyOp30
 70
     0
102
RTVSPropertyOp31
 70
     0
102
RTVSPropertyOp32
 70
     0
102
RTVSPropertyOp33
 70
     0
102
RTVSPropertyOp34
 70
     0
102
RTVSPropertyOp35
 70
     0
102
RTVSPropertyOp36
 70
     0
102
RTVSPropertyOp37
 70
     0
102
RTVSPropertyOp38
 70
     0
102
RTVSPropertyOp39
 70
     0
102
RTVSPropertyOp40
 70
     0
102
RTVSPropertyOp41
 70
     0
102
RTVSPropertyOp42
 70
     0
102
RTVSPropertyOp43
 70
     0
102
RTVSPropertyOp44
 70
     0
102
RTVSPropertyOp45
 70
     0
102
RTVSPropertyOp46
 70
     0
102
RTVSPropertyOp47
 70
     0
102
RTVSPropertyOp48
 70
     0
102
RTVSPropertyOp49
 70
     0
102
RTVSPropertyOp50
 70
     0
102
RTVSPropertyOp51
 70
     0
102
RTVSPropertyOp52
 70
     0
102
RTVSPropertyOp53
 70
     0
102
RTVSPropertyOp54
 70
     0
102
RTVSPropertyOp55
 70
     0
102
RTVSPropertyOp56
 70
     0
102
RTVSPropertyOp57
 70
     0
102
RTVSPost2010Prop28
280
     0
102
RTVSPost2010PropOp28
 70
     0
102
RTVSPost2010Prop29
280
     1
102
RTVSPost2010PropOp29
 70
     0
102
RTVSPost2010Prop30
280
     1
102
RTVSPost2010PropOp30
 70
     0
102
RTVSPost2010Prop31
280
     0
102
RTVSPost2010PropOp31
 70
     0
102
RTVSPost2010Prop32
280
     0
102
RTVSPost2010PropOp32
 70
     0
102
RTVSPost2010Prop33
280
     0
102
RTVSPost2010PropOp33
 70
     0
102
RTVSPost2010Prop34
280
     0
102
RTVSPost2010PropOp34
 70
     0
102
RTVSPost2010Prop35
280
     0
102
RTVSPost2010PropOp35
 70
     0
102
RTVSPost2010Prop36
280
     0
102
RTVSPost2010PropOp36
 70
     0
102
RTVSPost2010Prop37
 90
       50
102
RTVSPost2010PropOp37
 70
     0
102
RTVSPost2010Prop38
140
0.0
102
RTVSPost2010PropOp38
 70
     0
102
RTVSPost2010Prop39
140
1.0
102
RTVSPost2010PropOp39
 70
     0
102
RTVSPost2010Prop40
 90
        0
102
RTVSPost2010PropOp40
 70
     0
102
RTVSPost2010Prop41ColorIndex
 90
       18
102
RTVSPost2010Prop41ColorRGB
 90
        0
102
RTVSPost2010PropOp41
 70
     0
102
RTVSPost2010Prop42
 90
       50
102
RTVSPost2010PropOp42
 70
     0
102
RTVSPost2010Prop43
 90
        3
102
RTVSPost2010PropOp43
 70
     0
102
RTVSPost2010Prop44ColorIndex
 90
        5
102
RTVSPost2010Prop44ColorRGB
 90
      255
102
RTVSPost2010PropOp44
 70
     0
102
RTVSPost2010Prop45
280
     0
102
RTVSPost2010PropOp45
 70
     0
102
RTVSPost2010Prop46
 90
       50
102
RTVSPost2010PropOp46
 70
     0
102
RTVSPost2010Prop47
 90
       50
102
RTVSPost2010PropOp47
 70
     0
102
RTVSPost2010Prop48
 90
       50
102
RTVSPost2010PropOp48
 70
     0
102
RTVSPost2010Prop49
280
     0
102
RTVSPost2010PropOp49
 70
     0
102
RTVSPost2010Prop50
 90
       50
102
RTVSPost2010PropOp50
 70
     0
102
RTVSPost2010Prop51ColorIndex
 90
      256
102
RTVSPost2010Prop51ColorRGB
 90
-16777216
102
RTVSPost2010PropOp51
 70
     0
102
RTVSPost2010Prop52
140
1.0
102
RTVSPost2010PropOp52
 70
     0
102
RTVSPost2010Prop53
 90
        2
102
RTVSPost2010PropOp53
 70
     0
102
RTVSPost2010Prop54
  1
strokes_ogs.tif
102
RTVSPost2010PropOp54
 70
     0
102
RTVSPost2010Prop55
280
     0
102
RTVSPost2010PropOp55
 70
     0
102
RTVSPost2010Prop56
140
1.0
102
RTVSPost2010PropOp56
 70
     0
102
RTVSPost2010Prop57
140
1.0
102
RTVSPost2010PropOp57
 70
     0
  0
XRECORD
  5
1FB
102
{ACAD_REACTORS
330
1FA
102
}
330
1FA
100
AcDbXrecord
280
     1
102
RTVSPropertyOp0
 70
     1
102
RTVSPropertyOp1
 70
     1
102
RTVSPropertyOp2
 70
     1
102
RTVSPropertyOp3
 70
     1
102
RTVSPropertyOp4
 70
     1
102
RTVSPropertyOp5
 70
     1
102
RTVSPropertyOp6
 70
     1
102
RTVSPropertyOp7
 70
     1
102
RTVSPropertyOp8
 70
     1
102
RTVSPropertyOp9
 70
     1
102
RTVSPropertyOp10
 70
     1
102
RTVSPropertyOp11
 70
     1
102
RTVSPropertyOp12
 70
     1
102
RTVSPropertyOp13
 70
     1
102
RTVSPropertyOp14
 70
     1
102
RTVSPropertyOp15
 70
     1
102
RTVSPropertyOp16
 70
     1
102
RTVSPropertyOp17
 70
     1
102
RTVSPropertyOp18
 70
     1
102
RTVSPropertyOp19
 70
     1
102
RTVSPropertyOp20
 70
     1
102
RTVSPropertyOp21
 70
     1
102
RTVSPropertyOp22
 70
     1
102
RTVSPropertyOp23
 70
     1
102
RTVSPropertyOp24
 70
     1
102
RTVSPropertyOp25
 70
     1
102
RTVSPropertyOp26
 70
     1
102
RTVSPropertyOp27
 70
     1
102
RTVSPropertyOp28
 70
     1
102
RTVSPropertyOp29
 70
     1
102
RTVSPropertyOp30
 70
     1
102
RTVSPropertyOp31
 70
     1
102
RTVSPropertyOp32
 70
     1
102
RTVSPropertyOp33
 70
     1
102
RTVSPropertyOp34
 70
     1
102
RTVSPropertyOp35
 70
     1
102
RTVSPropertyOp36
 70
     1
102
RTVSPropertyOp37
 70
     1
102
RTVSPropertyOp38
 70
     1
102
RTVSPropertyOp39
 70
     1
102
RTVSPropertyOp40
 70
     1
102
RTVSPropertyOp41
 70
     1
102
RTVSPropertyOp42
 70
     1
102
RTVSPropertyOp43
 70
     1
102
RTVSPropertyOp44
 70
     1
102
RTVSPropertyOp45
 70
     1
102
RTVSPropertyOp46
 70
     1
102
RTVSPropertyOp47
 70
     1
102
RTVSPropertyOp48
 70
     1
102
RTVSPropertyOp49
 70
     1
102
RTVSPropertyOp50
 70
     1
102
RTVSPropertyOp51
 70
     0
102
RTVSPropertyOp52
 70
     0
102
RTVSPropertyOp53
 70
     1
102
RTVSPropertyOp54
 70
     1
102
RTVSPropertyOp55
 70
     1
102
RTVSPropertyOp56
 70
     1
102
RTVSPropertyOp57
 70
     1
102
RTVSPost2010Prop28
280
     0
102
RTVSPost2010PropOp28
 70
     1
102
RTVSPost2010Prop29
280
     1
102
RTVSPost2010PropOp29
 70
     1
102
RTVSPost2010Prop30
280
     1
102
RTVSPost2010PropOp30
 70
     1
102
RTVSPost2010Prop31
280
     0
102
RTVSPost2010PropOp31
 70
     1
102
RTVSPost2010Prop32
280
     0
102
RTVSPost2010PropOp32
 70
     1
102
RTVSPost2010Prop33
280
     0
102
RTVSPost2010PropOp33
 70
     1
102
RTVSPost2010Prop34
280
     0
102
RTVSPost2010PropOp34
 70
     1
102
RTVSPost2010Prop35
280
     0
102
RTVSPost2010PropOp35
 70
     1
102
RTVSPost2010Prop36
280
     0
102
RTVSPost2010PropOp36
 70
     1
102
RTVSPost2010Prop37
 90
       50
102
RTVSPost2010PropOp37
 70
     1
102
RTVSPost2010Prop38
140
0.0
102
RTVSPost2010PropOp38
 70
     1
102
RTVSPost2010Prop39
140
1.0
102
RTVSPost2010PropOp39
 70
     1
102
RTVSPost2010Prop40
 90
        0
102
RTVSPost2010PropOp40
 70
     1
102
RTVSPost2010Prop41ColorIndex
 90
       18
102
RTVSPost2010Prop41ColorRGB
 90
        0
102
RTVSPost2010PropOp41
 70
     1
102
RTVSPost2010Prop42
 90
       50
102
RTVSPost2010PropOp42
 70
     1
102
RTVSPost2010Prop43
 90
        3
102
RTVSPost2010PropOp43
 70
     1
102
RTVSPost2010Prop44ColorIndex
 90
        5
102
RTVSPost2010Prop44ColorRGB
 90
      255
102
RTVSPost2010PropOp44
 70
     1
102
RTVSPost2010Prop45
280
     0
102
RTVSPost2010PropOp45
 70
     1
102
RTVSPost2010Prop46
 90
       50
102
RTVSPost2010PropOp46
 70
     1
102
RTVSPost2010Prop47
 90
       50
102
RTVSPost2010PropOp47
 70
     1
102
RTVSPost2010Prop48
 90
       50
102
RTVSPost2010PropOp48
 70
     1
102
RTVSPost2010Prop49
280
     0
102
RTVSPost2010PropOp49
 70
     1
102
RTVSPost2010Prop50
 90
       50
102
RTVSPost2010PropOp50
 70
     1
102
RTVSPost2010Prop51ColorIndex
 90
      256
102
RTVSPost2010Prop51ColorRGB
 90
-16777216
102
RTVSPost2010PropOp51
 70
     0
102
RTVSPost2010Prop52
140
1.0
102
RTVSPost2010PropOp52
 70
     0
102
RTVSPost2010Prop53
 90
        2
102
RTVSPost2010PropOp53
 70
     1
102
RTVSPost2010Prop54
  1
strokes_ogs.tif
102
RTVSPost2010PropOp54
 70
     1
102
RTVSPost2010Prop55
280
     0
102
RTVSPost2010PropOp55
 70
     1
102
RTVSPost2010Prop56
140
1.0
102
RTVSPost2010PropOp56
 70
     1
102
RTVSPost2010Prop57
140
1.0
102
RTVSPost2010PropOp57
 70
     1
  0
XRECORD
  5
203
102
{ACAD_REACTORS
330
202
102
}
330
202
100
AcDbXrecord
280
     1
102
RTVSPropertyOp0
 70
     0
102
RTVSPropertyOp1
 70
     0
102
RTVSPropertyOp2
 70
     0
102
RTVSPropertyOp3
 70
     0
102
RTVSPropertyOp4
 70
     0
102
RTVSPropertyOp5
 70
     0
102
RTVSPropertyOp6
 70
     0
102
RTVSPropertyOp7
 70
     0
102
RTVSPropertyOp8
 70
     0
102
RTVSPropertyOp9
 70
     0
102
RTVSPropertyOp10
 70
     0
102
RTVSPropertyOp11
 70
     0
102
RTVSPropertyOp12
 70
     0
102
RTVSPropertyOp13
 70
     0
102
RTVSPropertyOp14
 70
     2
102
RTVSPropertyOp15
 70
     0
102
RTVSPropertyOp16
 70
     0
102
RTVSPropertyOp17
 70
     0
102
RTVSPropertyOp18
 70
     0
102
RTVSPropertyOp19
 70
     0
102
RTVSPropertyOp20
 70
     0
102
RTVSPropertyOp21
 70
     0
102
RTVSPropertyOp22
 70
     0
102
RTVSPropertyOp23
 70
     0
102
RTVSPropertyOp24
 70
     0
102
RTVSPropertyOp25
 70
     0
102
RTVSPropertyOp26
 70
     0
102
RTVSPropertyOp27
 70
     0
102
RTVSPropertyOp28
 70
     0
102
RTVSPropertyOp29
 70
     0
102
RTVSPropertyOp30
 70
     0
102
RTVSPropertyOp31
 70
     0
102
RTVSPropertyOp32
 70
     0
102
RTVSPropertyOp33
 70
     0
102
RTVSPropertyOp34
 70
     0
102
RTVSPropertyOp35
 70
     0
102
RTVSPropertyOp36
 70
     0
102
RTVSPropertyOp37
 70
     0
102
RTVSPropertyOp38
 70
     0
102
RTVSPropertyOp39
 70
     0
102
RTVSPropertyOp40
 70
     0
102
RTVSPropertyOp41
 70
     0
102
RTVSPropertyOp42
 70
     0
102
RTVSPropertyOp43
 70
     0
102
RTVSPropertyOp44
 70
     0
102
RTVSPropertyOp45
 70
     0
102
RTVSPropertyOp46
 70
     0
102
RTVSPropertyOp47
 70
     0
102
RTVSPropertyOp48
 70
     0
102
RTVSPropertyOp49
 70
     0
102
RTVSPropertyOp50
 70
     0
102
RTVSPropertyOp51
 70
     0
102
RTVSPropertyOp52
 70
     0
102
RTVSPropertyOp53
 70
     0
102
RTVSPropertyOp54
 70
     0
102
RTVSPropertyOp55
 70
     0
102
RTVSPropertyOp56
 70
     0
102
RTVSPropertyOp57
 70
     0
102
RTVSPost2010Prop28
280
     0
102
RTVSPost2010PropOp28
 70
     0
102
RTVSPost2010Prop29
280
     1
102
RTVSPost2010PropOp29
 70
     0
102
RTVSPost2010Prop30
280
     1
102
RTVSPost2010PropOp30
 70
     0
102
RTVSPost2010Prop31
280
     0
102
RTVSPost2010PropOp31
 70
     0
102
RTVSPost2010Prop32
280
     0
102
RTVSPost2010PropOp32
 70
     0
102
RTVSPost2010Prop33
280
     0
102
RTVSPost2010PropOp33
 70
     0
102
RTVSPost2010Prop34
280
     0
102
RTVSPost2010PropOp34
 70
     0
102
RTVSPost2010Prop35
280
     0
102
RTVSPost2010PropOp35
 70
     0
102
RTVSPost2010Prop36
280
     0
102
RTVSPost2010PropOp36
 70
     0
102
RTVSPost2010Prop37
 90
       50
102
RTVSPost2010PropOp37
 70
     0
102
RTVSPost2010Prop38
140
0.0
102
RTVSPost2010PropOp38
 70
     0
102
RTVSPost2010Prop39
140
1.0
102
RTVSPost2010PropOp39
 70
     0
102
RTVSPost2010Prop40
 90
        0
102
RTVSPost2010PropOp40
 70
     0
102
RTVSPost2010Prop41ColorIndex
 90
       18
102
RTVSPost2010Prop41ColorRGB
 90
        0
102
RTVSPost2010PropOp41
 70
     0
102
RTVSPost2010Prop42
 90
       50
102
RTVSPost2010PropOp42
 70
     0
102
RTVSPost2010Prop43
 90
        3
102
RTVSPost2010PropOp43
 70
     0
102
RTVSPost2010Prop44ColorIndex
 90
        5
102
RTVSPost2010Prop44ColorRGB
 90
      255
102
RTVSPost2010PropOp44
 70
     0
102
RTVSPost2010Prop45
280
     0
102
RTVSPost2010PropOp45
 70
     0
102
RTVSPost2010Prop46
 90
       50
102
RTVSPost2010PropOp46
 70
     0
102
RTVSPost2010Prop47
 90
       50
102
RTVSPost2010PropOp47
 70
     0
102
RTVSPost2010Prop48
 90
       50
102
RTVSPost2010PropOp48
 70
     0
102
RTVSPost2010Prop49
280
     0
102
RTVSPost2010PropOp49
 70
     0
102
RTVSPost2010Prop50
 90
       50
102
RTVSPost2010PropOp50
 70
     0
102
RTVSPost2010Prop51ColorIndex
 90
      256
102
RTVSPost2010Prop51ColorRGB
 90
-16777216
102
RTVSPost2010PropOp51
 70
     0
102
RTVSPost2010Prop52
140
1.0
102
RTVSPost2010PropOp52
 70
     0
102
RTVSPost2010Prop53
 90
        2
102
RTVSPost2010PropOp53
 70
     0
102
RTVSPost2010Prop54
  1
strokes_ogs.tif
102
RTVSPost2010PropOp54
 70
     0
102
RTVSPost2010Prop55
280
     0
102
RTVSPost2010PropOp55
 70
     0
102
RTVSPost2010Prop56
140
1.0
102
RTVSPost2010PropOp56
 70
     0
102
RTVSPost2010Prop57
140
1.0
102
RTVSPost2010PropOp57
 70
     0
  0
XRECORD
  5
1F1
102
{ACAD_REACTORS
330
1F0
102
}
330
1F0
100
AcDbXrecord
280
     1
102
RTVSPropertyOp0
 70
     1
102
RTVSPropertyOp1
 70
     1
102
RTVSPropertyOp2
 70
     1
102
RTVSPropertyOp3
 70
     1
102
RTVSPropertyOp4
 70
     1
102
RTVSPropertyOp5
 70
     1
102
RTVSPropertyOp6
 70
     1
102
RTVSPropertyOp7
 70
     1
102
RTVSPropertyOp8
 70
     1
102
RTVSPropertyOp9
 70
     1
102
RTVSPropertyOp10
 70
     1
102
RTVSPropertyOp11
 70
     1
102
RTVSPropertyOp12
 70
     1
102
RTVSPropertyOp13
 70
     1
102
RTVSPropertyOp14
 70
     1
102
RTVSPropertyOp15
 70
     1
102
RTVSPropertyOp16
 70
     1
102
RTVSPropertyOp17
 70
     1
102
RTVSPropertyOp18
 70
     1
102
RTVSPropertyOp19
 70
     1
102
RTVSPropertyOp20
 70
     1
102
RTVSPropertyOp21
 70
     1
102
RTVSPropertyOp22
 70
     1
102
RTVSPropertyOp23
 70
     1
102
RTVSPropertyOp24
 70
     1
102
RTVSPropertyOp25
 70
     1
102
RTVSPropertyOp26
 70
     1
102
RTVSPropertyOp27
 70
     1
102
RTVSPropertyOp28
 70
     1
102
RTVSPropertyOp29
 70
     1
102
RTVSPropertyOp30
 70
     1
102
RTVSPropertyOp31
 70
     1
102
RTVSPropertyOp32
 70
     1
102
RTVSPropertyOp33
 70
     1
102
RTVSPropertyOp34
 70
     1
102
RTVSPropertyOp35
 70
     1
102
RTVSPropertyOp36
 70
     1
102
RTVSPropertyOp37
 70
     1
102
RTVSPropertyOp38
 70
     1
102
RTVSPropertyOp39
 70
     1
102
RTVSPropertyOp40
 70
     1
102
RTVSPropertyOp41
 70
     1
102
RTVSPropertyOp42
 70
     1
102
RTVSPropertyOp43
 70
     1
102
RTVSPropertyOp44
 70
     1
102
RTVSPropertyOp45
 70
     1
102
RTVSPropertyOp46
 70
     1
102
RTVSPropertyOp47
 70
     1
102
RTVSPropertyOp48
 70
     1
102
RTVSPropertyOp49
 70
     1
102
RTVSPropertyOp50
 70
     1
102
RTVSPropertyOp51
 70
     0
102
RTVSPropertyOp52
 70
     0
102
RTVSPropertyOp53
 70
     1
102
RTVSPropertyOp54
 70
     1
102
RTVSPropertyOp55
 70
     1
102
RTVSPropertyOp56
 70
     1
102
RTVSPropertyOp57
 70
     1
102
RTVSPost2010Prop28
280
     0
102
RTVSPost2010PropOp28
 70
     1
102
RTVSPost2010Prop29
280
     1
102
RTVSPost2010PropOp29
 70
     1
102
RTVSPost2010Prop30
280
     1
102
RTVSPost2010PropOp30
 70
     1
102
RTVSPost2010Prop31
280
     0
102
RTVSPost2010PropOp31
 70
     1
102
RTVSPost2010Prop32
280
     0
102
RTVSPost2010PropOp32
 70
     1
102
RTVSPost2010Prop33
280
     0
102
RTVSPost2010PropOp33
 70
     1
102
RTVSPost2010Prop34
280
     0
102
RTVSPost2010PropOp34
 70
     1
102
RTVSPost2010Prop35
280
     0
102
RTVSPost2010PropOp35
 70
     1
102
RTVSPost2010Prop36
280
     0
102
RTVSPost2010PropOp36
 70
     1
102
RTVSPost2010Prop37
 90
       50
102
RTVSPost2010PropOp37
 70
     1
102
RTVSPost2010Prop38
140
0.0
102
RTVSPost2010PropOp38
 70
     1
102
RTVSPost2010Prop39
140
1.0
102
RTVSPost2010PropOp39
 70
     1
102
RTVSPost2010Prop40
 90
        0
102
RTVSPost2010PropOp40
 70
     1
102
RTVSPost2010Prop41ColorIndex
 90
       18
102
RTVSPost2010Prop41ColorRGB
 90
        0
102
RTVSPost2010PropOp41
 70
     1
102
RTVSPost2010Prop42
 90
       50
102
RTVSPost2010PropOp42
 70
     1
102
RTVSPost2010Prop43
 90
        3
102
RTVSPost2010PropOp43
 70
     1
102
RTVSPost2010Prop44ColorIndex
 90
        5
102
RTVSPost2010Prop44ColorRGB
 90
      255
102
RTVSPost2010PropOp44
 70
     1
102
RTVSPost2010Prop45
280
     0
102
RTVSPost2010PropOp45
 70
     1
102
RTVSPost2010Prop46
 90
       50
102
RTVSPost2010PropOp46
 70
     1
102
RTVSPost2010Prop47
 90
       50
102
RTVSPost2010PropOp47
 70
     1
102
RTVSPost2010Prop48
 90
       50
102
RTVSPost2010PropOp48
 70
     1
102
RTVSPost2010Prop49
280
     0
102
RTVSPost2010PropOp49
 70
     1
102
RTVSPost2010Prop50
 90
       50
102
RTVSPost2010PropOp50
 70
     1
102
RTVSPost2010Prop51ColorIndex
 90
      256
102
RTVSPost2010Prop51ColorRGB
 90
-16777216
102
RTVSPost2010PropOp51
 70
     0
102
RTVSPost2010Prop52
140
1.0
102
RTVSPost2010PropOp52
 70
     0
102
RTVSPost2010Prop53
 90
        2
102
RTVSPost2010PropOp53
 70
     1
102
RTVSPost2010Prop54
  1
strokes_ogs.tif
102
RTVSPost2010PropOp54
 70
     1
102
RTVSPost2010Prop55
280
     0
102
RTVSPost2010PropOp55
 70
     1
102
RTVSPost2010Prop56
140
1.0
102
RTVSPost2010PropOp56
 70
     1
102
RTVSPost2010Prop57
140
1.0
102
RTVSPost2010PropOp57
 70
     1
  0
XRECORD
  5
20F
102
{ACAD_REACTORS
330
20E
102
}
330
20E
100
AcDbXrecord
280
     1
102
RTVSPropertyOp0
 70
     1
102
RTVSPropertyOp1
 70
     1
102
RTVSPropertyOp2
 70
     1
102
RTVSPropertyOp3
 70
     1
102
RTVSPropertyOp4
 70
     1
102
RTVSPropertyOp5
 70
     1
102
RTVSPropertyOp6
 70
     1
102
RTVSPropertyOp7
 70
     1
102
RTVSPropertyOp8
 70
     1
102
RTVSPropertyOp9
 70
     1
102
RTVSPropertyOp10
 70
     1
102
RTVSPropertyOp11
 70
     1
102
RTVSPropertyOp12
 70
     1
102
RTVSPropertyOp13
 70
     1
102
RTVSPropertyOp14
 70
     1
102
RTVSPropertyOp15
 70
     1
102
RTVSPropertyOp16
 70
     1
102
RTVSPropertyOp17
 70
     1
102
RTVSPropertyOp18
 70
     1
102
RTVSPropertyOp19
 70
     1
102
RTVSPropertyOp20
 70
     1
102
RTVSPropertyOp21
 70
     1
102
RTVSPropertyOp22
 70
     1
102
RTVSPropertyOp23
 70
     1
102
RTVSPropertyOp24
 70
     1
102
RTVSPropertyOp25
 70
     1
102
RTVSPropertyOp26
 70
     1
102
RTVSPropertyOp27
 70
     1
102
RTVSPropertyOp28
 70
     1
102
RTVSPropertyOp29
 70
     1
102
RTVSPropertyOp30
 70
     1
102
RTVSPropertyOp31
 70
     1
102
RTVSPropertyOp32
 70
     1
102
RTVSPropertyOp33
 70
     1
102
RTVSPropertyOp34
 70
     1
102
RTVSPropertyOp35
 70
     1
102
RTVSPropertyOp36
 70
     1
102
RTVSPropertyOp37
 70
     1
102
RTVSPropertyOp38
 70
     1
102
RTVSPropertyOp39
 70
     1
102
RTVSPropertyOp40
 70
     1
102
RTVSPropertyOp41
 70
     1
102
RTVSPropertyOp42
 70
     1
102
RTVSPropertyOp43
 70
     1
102
RTVSPropertyOp44
 70
     1
102
RTVSPropertyOp45
 70
     1
102
RTVSPropertyOp46
 70
     1
102
RTVSPropertyOp47
 70
     1
102
RTVSPropertyOp48
 70
     1
102
RTVSPropertyOp49
 70
     1
102
RTVSPropertyOp50
 70
     1
102
RTVSPropertyOp51
 70
     0
102
RTVSPropertyOp52
 70
     0
102
RTVSPropertyOp53
 70
     1
102
RTVSPropertyOp54
 70
     1
102
RTVSPropertyOp55
 70
     1
102
RTVSPropertyOp56
 70
     1
102
RTVSPropertyOp57
 70
     1
102
RTVSPost2010Prop28
280
     0
102
RTVSPost2010PropOp28
 70
     1
102
RTVSPost2010Prop29
280
     1
102
RTVSPost2010PropOp29
 70
     1
102
RTVSPost2010Prop30
280
     1
102
RTVSPost2010PropOp30
 70
     1
102
RTVSPost2010Prop31
280
     0
102
RTVSPost2010PropOp31
 70
     1
102
RTVSPost2010Prop32
280
     0
102
RTVSPost2010PropOp32
 70
     1
102
RTVSPost2010Prop33
280
     0
102
RTVSPost2010PropOp33
 70
     1
102
RTVSPost2010Prop34
280
     0
102
RTVSPost2010PropOp34
 70
     1
102
RTVSPost2010Prop35
280
     0
102
RTVSPost2010PropOp35
 70
     1
102
RTVSPost2010Prop36
280
     0
102
RTVSPost2010PropOp36
 70
     1
102
RTVSPost2010Prop37
 90
       50
102
RTVSPost2010PropOp37
 70
     1
102
RTVSPost2010Prop38
140
0.0
102
RTVSPost2010PropOp38
 70
     1
102
RTVSPost2010Prop39
140
1.0
102
RTVSPost2010PropOp39
 70
     1
102
RTVSPost2010Prop40
 90
        0
102
RTVSPost2010PropOp40
 70
     1
102
RTVSPost2010Prop41ColorIndex
 90
       18
102
RTVSPost2010Prop41ColorRGB
 90
        0
102
RTVSPost2010PropOp41
 70
     1
102
RTVSPost2010Prop42
 90
       50
102
RTVSPost2010PropOp42
 70
     1
102
RTVSPost2010Prop43
 90
        3
102
RTVSPost2010PropOp43
 70
     1
102
RTVSPost2010Prop44ColorIndex
 90
        5
102
RTVSPost2010Prop44ColorRGB
 90
      255
102
RTVSPost2010PropOp44
 70
     1
102
RTVSPost2010Prop45
280
     0
102
RTVSPost2010PropOp45
 70
     1
102
RTVSPost2010Prop46
 90
       50
102
RTVSPost2010PropOp46
 70
     1
102
RTVSPost2010Prop47
 90
       50
102
RTVSPost2010PropOp47
 70
     1
102
RTVSPost2010Prop48
 90
       50
102
RTVSPost2010PropOp48
 70
     1
102
RTVSPost2010Prop49
280
     0
102
RTVSPost2010PropOp49
 70
     1
102
RTVSPost2010Prop50
 90
       50
102
RTVSPost2010PropOp50
 70
     1
102
RTVSPost2010Prop51ColorIndex
 90
      256
102
RTVSPost2010Prop51ColorRGB
 90
-16777216
102
RTVSPost2010PropOp51
 70
     0
102
RTVSPost2010Prop52
140
1.0
102
RTVSPost2010PropOp52
 70
     0
102
RTVSPost2010Prop53
 90
        2
102
RTVSPost2010PropOp53
 70
     1
102
RTVSPost2010Prop54
  1
strokes_ogs.tif
102
RTVSPost2010PropOp54
 70
     1
102
RTVSPost2010Prop55
280
     0
102
RTVSPost2010PropOp55
 70
     1
102
RTVSPost2010Prop56
140
1.0
102
RTVSPost2010PropOp56
 70
     1
102
RTVSPost2010Prop57
140
1.0
102
RTVSPost2010PropOp57
 70
     1
  0
XRECORD
  5
20D
102
{ACAD_REACTORS
330
20C
102
}
330
20C
100
AcDbXrecord
280
     1
102
RTVSPropertyOp0
 70
     1
102
RTVSPropertyOp1
 70
     1
102
RTVSPropertyOp2
 70
     1
102
RTVSPropertyOp3
 70
     1
102
RTVSPropertyOp4
 70
     1
102
RTVSPropertyOp5
 70
     1
102
RTVSPropertyOp6
 70
     1
102
RTVSPropertyOp7
 70
     1
102
RTVSPropertyOp8
 70
     1
102
RTVSPropertyOp9
 70
     1
102
RTVSPropertyOp10
 70
     1
102
RTVSPropertyOp11
 70
     1
102
RTVSPropertyOp12
 70
     1
102
RTVSPropertyOp13
 70
     1
102
RTVSPropertyOp14
 70
     1
102
RTVSPropertyOp15
 70
     1
102
RTVSPropertyOp16
 70
     1
102
RTVSPropertyOp17
 70
     1
102
RTVSPropertyOp18
 70
     1
102
RTVSPropertyOp19
 70
     1
102
RTVSPropertyOp20
 70
     1
102
RTVSPropertyOp21
 70
     1
102
RTVSPropertyOp22
 70
     1
102
RTVSPropertyOp23
 70
     1
102
RTVSPropertyOp24
 70
     1
102
RTVSPropertyOp25
 70
     1
102
RTVSPropertyOp26
 70
     1
102
RTVSPropertyOp27
 70
     1
102
RTVSPropertyOp28
 70
     1
102
RTVSPropertyOp29
 70
     1
102
RTVSPropertyOp30
 70
     1
102
RTVSPropertyOp31
 70
     1
102
RTVSPropertyOp32
 70
     1
102
RTVSPropertyOp33
 70
     1
102
RTVSPropertyOp34
 70
     1
102
RTVSPropertyOp35
 70
     1
102
RTVSPropertyOp36
 70
     1
102
RTVSPropertyOp37
 70
     1
102
RTVSPropertyOp38
 70
     1
102
RTVSPropertyOp39
 70
     1
102
RTVSPropertyOp40
 70
     1
102
RTVSPropertyOp41
 70
     1
102
RTVSPropertyOp42
 70
     1
102
RTVSPropertyOp43
 70
     1
102
RTVSPropertyOp44
 70
     1
102
RTVSPropertyOp45
 70
     1
102
RTVSPropertyOp46
 70
     1
102
RTVSPropertyOp47
 70
     1
102
RTVSPropertyOp48
 70
     1
102
RTVSPropertyOp49
 70
     1
102
RTVSPropertyOp50
 70
     1
102
RTVSPropertyOp51
 70
     0
102
RTVSPropertyOp52
 70
     0
102
RTVSPropertyOp53
 70
     1
102
RTVSPropertyOp54
 70
     1
102
RTVSPropertyOp55
 70
     1
102
RTVSPropertyOp56
 70
     1
102
RTVSPropertyOp57
 70
     1
102
RTVSPost2010Prop28
280
     0
102
RTVSPost2010PropOp28
 70
     1
102
RTVSPost2010Prop29
280
     1
102
RTVSPost2010PropOp29
 70
     1
102
RTVSPost2010Prop30
280
     1
102
RTVSPost2010PropOp30
 70
     1
102
RTVSPost2010Prop31
280
     0
102
RTVSPost2010PropOp31
 70
     1
102
RTVSPost2010Prop32
280
     0
102
RTVSPost2010PropOp32
 70
     1
102
RTVSPost2010Prop33
280
     0
102
RTVSPost2010PropOp33
 70
     1
102
RTVSPost2010Prop34
280
     0
102
RTVSPost2010PropOp34
 70
     1
102
RTVSPost2010Prop35
280
     0
102
RTVSPost2010PropOp35
 70
     1
102
RTVSPost2010Prop36
280
     0
102
RTVSPost2010PropOp36
 70
     1
102
RTVSPost2010Prop37
 90
       50
102
RTVSPost2010PropOp37
 70
     1
102
RTVSPost2010Prop38
140
0.0
102
RTVSPost2010PropOp38
 70
     1
102
RTVSPost2010Prop39
140
1.0
102
RTVSPost2010PropOp39
 70
     1
102
RTVSPost2010Prop40
 90
        0
102
RTVSPost2010PropOp40
 70
     1
102
RTVSPost2010Prop41ColorIndex
 90
       18
102
RTVSPost2010Prop41ColorRGB
 90
        0
102
RTVSPost2010PropOp41
 70
     1
102
RTVSPost2010Prop42
 90
       50
102
RTVSPost2010PropOp42
 70
     1
102
RTVSPost2010Prop43
 90
        3
102
RTVSPost2010PropOp43
 70
     1
102
RTVSPost2010Prop44ColorIndex
 90
        5
102
RTVSPost2010Prop44ColorRGB
 90
      255
102
RTVSPost2010PropOp44
 70
     1
102
RTVSPost2010Prop45
280
     0
102
RTVSPost2010PropOp45
 70
     1
102
RTVSPost2010Prop46
 90
       50
102
RTVSPost2010PropOp46
 70
     1
102
RTVSPost2010Prop47
 90
       50
102
RTVSPost2010PropOp47
 70
     1
102
RTVSPost2010Prop48
 90
       50
102
RTVSPost2010PropOp48
 70
     1
102
RTVSPost2010Prop49
280
     0
102
RTVSPost2010PropOp49
 70
     1
102
RTVSPost2010Prop50
 90
       50
102
RTVSPost2010PropOp50
 70
     1
102
RTVSPost2010Prop51ColorIndex
 90
      256
102
RTVSPost2010Prop51ColorRGB
 90
-16777216
102
RTVSPost2010PropOp51
 70
     0
102
RTVSPost2010Prop52
140
1.0
102
RTVSPost2010PropOp52
 70
     0
102
RTVSPost2010Prop53
 90
        2
102
RTVSPost2010PropOp53
 70
     1
102
RTVSPost2010Prop54
  1
strokes_ogs.tif
102
RTVSPost2010PropOp54
 70
     1
102
RTVSPost2010Prop55
280
     0
102
RTVSPost2010PropOp55
 70
     1
102
RTVSPost2010Prop56
140
1.0
102
RTVSPost2010PropOp56
 70
     1
102
RTVSPost2010Prop57
140
1.0
102
RTVSPost2010PropOp57
 70
     1
  0
XRECORD
  5
207
102
{ACAD_REACTORS
330
206
102
}
330
206
100
AcDbXrecord
280
     1
102
RTVSPropertyOp0
 70
     1
102
RTVSPropertyOp1
 70
     1
102
RTVSPropertyOp2
 70
     1
102
RTVSPropertyOp3
 70
     1
102
RTVSPropertyOp4
 70
     1
102
RTVSPropertyOp5
 70
     1
102
RTVSPropertyOp6
 70
     1
102
RTVSPropertyOp7
 70
     1
102
RTVSPropertyOp8
 70
     1
102
RTVSPropertyOp9
 70
     1
102
RTVSPropertyOp10
 70
     1
102
RTVSPropertyOp11
 70
     1
102
RTVSPropertyOp12
 70
     1
102
RTVSPropertyOp13
 70
     1
102
RTVSPropertyOp14
 70
     1
102
RTVSPropertyOp15
 70
     1
102
RTVSPropertyOp16
 70
     1
102
RTVSPropertyOp17
 70
     1
102
RTVSPropertyOp18
 70
     1
102
RTVSPropertyOp19
 70
     1
102
RTVSPropertyOp20
 70
     1
102
RTVSPropertyOp21
 70
     1
102
RTVSPropertyOp22
 70
     1
102
RTVSPropertyOp23
 70
     1
102
RTVSPropertyOp24
 70
     1
102
RTVSPropertyOp25
 70
     1
102
RTVSPropertyOp26
 70
     1
102
RTVSPropertyOp27
 70
     1
102
RTVSPropertyOp28
 70
     1
102
RTVSPropertyOp29
 70
     1
102
RTVSPropertyOp30
 70
     1
102
RTVSPropertyOp31
 70
     1
102
RTVSPropertyOp32
 70
     1
102
RTVSPropertyOp33
 70
     1
102
RTVSPropertyOp34
 70
     1
102
RTVSPropertyOp35
 70
     1
102
RTVSPropertyOp36
 70
     1
102
RTVSPropertyOp37
 70
     1
102
RTVSPropertyOp38
 70
     1
102
RTVSPropertyOp39
 70
     1
102
RTVSPropertyOp40
 70
     1
102
RTVSPropertyOp41
 70
     1
102
RTVSPropertyOp42
 70
     1
102
RTVSPropertyOp43
 70
     1
102
RTVSPropertyOp44
 70
     1
102
RTVSPropertyOp45
 70
     1
102
RTVSPropertyOp46
 70
     1
102
RTVSPropertyOp47
 70
     1
102
RTVSPropertyOp48
 70
     1
102
RTVSPropertyOp49
 70
     1
102
RTVSPropertyOp50
 70
     1
102
RTVSPropertyOp51
 70
     0
102
RTVSPropertyOp52
 70
     0
102
RTVSPropertyOp53
 70
     1
102
RTVSPropertyOp54
 70
     1
102
RTVSPropertyOp55
 70
     1
102
RTVSPropertyOp56
 70
     1
102
RTVSPropertyOp57
 70
     1
102
RTVSPost2010Prop28
280
     0
102
RTVSPost2010PropOp28
 70
     1
102
RTVSPost2010Prop29
280
     1
102
RTVSPost2010PropOp29
 70
     1
102
RTVSPost2010Prop30
280
     1
102
RTVSPost2010PropOp30
 70
     1
102
RTVSPost2010Prop31
280
     0
102
RTVSPost2010PropOp31
 70
     1
102
RTVSPost2010Prop32
280
     0
102
RTVSPost2010PropOp32
 70
     1
102
RTVSPost2010Prop33
280
     0
102
RTVSPost2010PropOp33
 70
     1
102
RTVSPost2010Prop34
280
     0
102
RTVSPost2010PropOp34
 70
     1
102
RTVSPost2010Prop35
280
     0
102
RTVSPost2010PropOp35
 70
     1
102
RTVSPost2010Prop36
280
     0
102
RTVSPost2010PropOp36
 70
     1
102
RTVSPost2010Prop37
 90
       50
102
RTVSPost2010PropOp37
 70
     1
102
RTVSPost2010Prop38
140
0.0
102
RTVSPost2010PropOp38
 70
     1
102
RTVSPost2010Prop39
140
1.0
102
RTVSPost2010PropOp39
 70
     1
102
RTVSPost2010Prop40
 90
        0
102
RTVSPost2010PropOp40
 70
     1
102
RTVSPost2010Prop41ColorIndex
 90
       18
102
RTVSPost2010Prop41ColorRGB
 90
        0
102
RTVSPost2010PropOp41
 70
     1
102
RTVSPost2010Prop42
 90
       50
102
RTVSPost2010PropOp42
 70
     1
102
RTVSPost2010Prop43
 90
        3
102
RTVSPost2010PropOp43
 70
     1
102
RTVSPost2010Prop44ColorIndex
 90
        5
102
RTVSPost2010Prop44ColorRGB
 90
      255
102
RTVSPost2010PropOp44
 70
     1
102
RTVSPost2010Prop45
280
     0
102
RTVSPost2010PropOp45
 70
     1
102
RTVSPost2010Prop46
 90
       50
102
RTVSPost2010PropOp46
 70
     1
102
RTVSPost2010Prop47
 90
       50
102
RTVSPost2010PropOp47
 70
     1
102
RTVSPost2010Prop48
 90
       50
102
RTVSPost2010PropOp48
 70
     1
102
RTVSPost2010Prop49
280
     0
102
RTVSPost2010PropOp49
 70
     1
102
RTVSPost2010Prop50
 90
       50
102
RTVSPost2010PropOp50
 70
     1
102
RTVSPost2010Prop51ColorIndex
 90
      256
102
RTVSPost2010Prop51ColorRGB
 90
-16777216
102
RTVSPost2010PropOp51
 70
     0
102
RTVSPost2010Prop52
140
1.0
102
RTVSPost2010PropOp52
 70
     0
102
RTVSPost2010Prop53
 90
        2
102
RTVSPost2010PropOp53
 70
     1
102
RTVSPost2010Prop54
  1
strokes_ogs.tif
102
RTVSPost2010PropOp54
 70
     1
102
RTVSPost2010Prop55
280
     0
102
RTVSPost2010PropOp55
 70
     1
102
RTVSPost2010Prop56
140
1.0
102
RTVSPost2010PropOp56
 70
     1
102
RTVSPost2010Prop57
140
1.0
102
RTVSPost2010PropOp57
 70
     1
  0
XRECORD
  5
209
102
{ACAD_REACTORS
330
208
102
}
330
208
100
AcDbXrecord
280
     1
102
RTVSPropertyOp0
 70
     1
102
RTVSPropertyOp1
 70
     1
102
RTVSPropertyOp2
 70
     1
102
RTVSPropertyOp3
 70
     1
102
RTVSPropertyOp4
 70
     1
102
RTVSPropertyOp5
 70
     1
102
RTVSPropertyOp6
 70
     1
102
RTVSPropertyOp7
 70
     1
102
RTVSPropertyOp8
 70
     1
102
RTVSPropertyOp9
 70
     1
102
RTVSPropertyOp10
 70
     1
102
RTVSPropertyOp11
 70
     1
102
RTVSPropertyOp12
 70
     1
102
RTVSPropertyOp13
 70
     1
102
RTVSPropertyOp14
 70
     1
102
RTVSPropertyOp15
 70
     1
102
RTVSPropertyOp16
 70
     1
102
RTVSPropertyOp17
 70
     1
102
RTVSPropertyOp18
 70
     1
102
RTVSPropertyOp19
 70
     1
102
RTVSPropertyOp20
 70
     1
102
RTVSPropertyOp21
 70
     1
102
RTVSPropertyOp22
 70
     1
102
RTVSPropertyOp23
 70
     1
102
RTVSPropertyOp24
 70
     1
102
RTVSPropertyOp25
 70
     1
102
RTVSPropertyOp26
 70
     1
102
RTVSPropertyOp27
 70
     1
102
RTVSPropertyOp28
 70
     1
102
RTVSPropertyOp29
 70
     1
102
RTVSPropertyOp30
 70
     1
102
RTVSPropertyOp31
 70
     1
102
RTVSPropertyOp32
 70
     1
102
RTVSPropertyOp33
 70
     1
102
RTVSPropertyOp34
 70
     1
102
RTVSPropertyOp35
 70
     1
102
RTVSPropertyOp36
 70
     1
102
RTVSPropertyOp37
 70
     1
102
RTVSPropertyOp38
 70
     1
102
RTVSPropertyOp39
 70
     1
102
RTVSPropertyOp40
 70
     1
102
RTVSPropertyOp41
 70
     1
102
RTVSPropertyOp42
 70
     1
102
RTVSPropertyOp43
 70
     1
102
RTVSPropertyOp44
 70
     1
102
RTVSPropertyOp45
 70
     1
102
RTVSPropertyOp46
 70
     1
102
RTVSPropertyOp47
 70
     1
102
RTVSPropertyOp48
 70
     1
102
RTVSPropertyOp49
 70
     1
102
RTVSPropertyOp50
 70
     1
102
RTVSPropertyOp51
 70
     0
102
RTVSPropertyOp52
 70
     0
102
RTVSPropertyOp53
 70
     1
102
RTVSPropertyOp54
 70
     1
102
RTVSPropertyOp55
 70
     1
102
RTVSPropertyOp56
 70
     1
102
RTVSPropertyOp57
 70
     1
102
RTVSPost2010Prop28
280
     0
102
RTVSPost2010PropOp28
 70
     1
102
RTVSPost2010Prop29
280
     1
102
RTVSPost2010PropOp29
 70
     1
102
RTVSPost2010Prop30
280
     1
102
RTVSPost2010PropOp30
 70
     1
102
RTVSPost2010Prop31
280
     0
102
RTVSPost2010PropOp31
 70
     1
102
RTVSPost2010Prop32
280
     0
102
RTVSPost2010PropOp32
 70
     1
102
RTVSPost2010Prop33
280
     0
102
RTVSPost2010PropOp33
 70
     1
102
RTVSPost2010Prop34
280
     0
102
RTVSPost2010PropOp34
 70
     1
102
RTVSPost2010Prop35
280
     0
102
RTVSPost2010PropOp35
 70
     1
102
RTVSPost2010Prop36
280
     0
102
RTVSPost2010PropOp36
 70
     1
102
RTVSPost2010Prop37
 90
       50
102
RTVSPost2010PropOp37
 70
     1
102
RTVSPost2010Prop38
140
0.0
102
RTVSPost2010PropOp38
 70
     1
102
RTVSPost2010Prop39
140
1.0
102
RTVSPost2010PropOp39
 70
     1
102
RTVSPost2010Prop40
 90
        0
102
RTVSPost2010PropOp40
 70
     1
102
RTVSPost2010Prop41ColorIndex
 90
       18
102
RTVSPost2010Prop41ColorRGB
 90
        0
102
RTVSPost2010PropOp41
 70
     1
102
RTVSPost2010Prop42
 90
       50
102
RTVSPost2010PropOp42
 70
     1
102
RTVSPost2010Prop43
 90
        3
102
RTVSPost2010PropOp43
 70
     1
102
RTVSPost2010Prop44ColorIndex
 90
        5
102
RTVSPost2010Prop44ColorRGB
 90
      255
102
RTVSPost2010PropOp44
 70
     1
102
RTVSPost2010Prop45
280
     0
102
RTVSPost2010PropOp45
 70
     1
102
RTVSPost2010Prop46
 90
       50
102
RTVSPost2010PropOp46
 70
     1
102
RTVSPost2010Prop47
 90
       50
102
RTVSPost2010PropOp47
 70
     1
102
RTVSPost2010Prop48
 90
       50
102
RTVSPost2010PropOp48
 70
     1
102
RTVSPost2010Prop49
280
     0
102
RTVSPost2010PropOp49
 70
     1
102
RTVSPost2010Prop50
 90
       50
102
RTVSPost2010PropOp50
 70
     1
102
RTVSPost2010Prop51ColorIndex
 90
      256
102
RTVSPost2010Prop51ColorRGB
 90
-16777216
102
RTVSPost2010PropOp51
 70
     0
102
RTVSPost2010Prop52
140
1.0
102
RTVSPost2010PropOp52
 70
     0
102
RTVSPost2010Prop53
 90
        2
102
RTVSPost2010PropOp53
 70
     1
102
RTVSPost2010Prop54
  1
strokes_ogs.tif
102
RTVSPost2010PropOp54
 70
     1
102
RTVSPost2010Prop55
280
     0
102
RTVSPost2010PropOp55
 70
     1
102
RTVSPost2010Prop56
140
1.0
102
RTVSPost2010PropOp56
 70
     1
102
RTVSPost2010Prop57
140
1.0
102
RTVSPost2010PropOp57
 70
     1
  0
XRECORD
  5
1F9
102
{ACAD_REACTORS
330
1F8
102
}
330
1F8
100
AcDbXrecord
280
     1
102
RTVSPropertyOp0
 70
     1
102
RTVSPropertyOp1
 70
     1
102
RTVSPropertyOp2
 70
     1
102
RTVSPropertyOp3
 70
     1
102
RTVSPropertyOp4
 70
     1
102
RTVSPropertyOp5
 70
     1
102
RTVSPropertyOp6
 70
     1
102
RTVSPropertyOp7
 70
     1
102
RTVSPropertyOp8
 70
     1
102
RTVSPropertyOp9
 70
     1
102
RTVSPropertyOp10
 70
     1
102
RTVSPropertyOp11
 70
     1
102
RTVSPropertyOp12
 70
     1
102
RTVSPropertyOp13
 70
     1
102
RTVSPropertyOp14
 70
     1
102
RTVSPropertyOp15
 70
     1
102
RTVSPropertyOp16
 70
     1
102
RTVSPropertyOp17
 70
     1
102
RTVSPropertyOp18
 70
     1
102
RTVSPropertyOp19
 70
     1
102
RTVSPropertyOp20
 70
     1
102
RTVSPropertyOp21
 70
     1
102
RTVSPropertyOp22
 70
     1
102
RTVSPropertyOp23
 70
     1
102
RTVSPropertyOp24
 70
     1
102
RTVSPropertyOp25
 70
     1
102
RTVSPropertyOp26
 70
     1
102
RTVSPropertyOp27
 70
     1
102
RTVSPropertyOp28
 70
     1
102
RTVSPropertyOp29
 70
     1
102
RTVSPropertyOp30
 70
     1
102
RTVSPropertyOp31
 70
     1
102
RTVSPropertyOp32
 70
     1
102
RTVSPropertyOp33
 70
     1
102
RTVSPropertyOp34
 70
     1
102
RTVSPropertyOp35
 70
     1
102
RTVSPropertyOp36
 70
     1
102
RTVSPropertyOp37
 70
     1
102
RTVSPropertyOp38
 70
     1
102
RTVSPropertyOp39
 70
     1
102
RTVSPropertyOp40
 70
     1
102
RTVSPropertyOp41
 70
     1
102
RTVSPropertyOp42
 70
     1
102
RTVSPropertyOp43
 70
     1
102
RTVSPropertyOp44
 70
     1
102
RTVSPropertyOp45
 70
     1
102
RTVSPropertyOp46
 70
     1
102
RTVSPropertyOp47
 70
     1
102
RTVSPropertyOp48
 70
     1
102
RTVSPropertyOp49
 70
     1
102
RTVSPropertyOp50
 70
     1
102
RTVSPropertyOp51
 70
     0
102
RTVSPropertyOp52
 70
     0
102
RTVSPropertyOp53
 70
     1
102
RTVSPropertyOp54
 70
     1
102
RTVSPropertyOp55
 70
     1
102
RTVSPropertyOp56
 70
     1
102
RTVSPropertyOp57
 70
     1
102
RTVSPost2010Prop28
280
     0
102
RTVSPost2010PropOp28
 70
     1
102
RTVSPost2010Prop29
280
     1
102
RTVSPost2010PropOp29
 70
     1
102
RTVSPost2010Prop30
280
     1
102
RTVSPost2010PropOp30
 70
     1
102
RTVSPost2010Prop31
280
     0
102
RTVSPost2010PropOp31
 70
     1
102
RTVSPost2010Prop32
280
     0
102
RTVSPost2010PropOp32
 70
     1
102
RTVSPost2010Prop33
280
     0
102
RTVSPost2010PropOp33
 70
     1
102
RTVSPost2010Prop34
280
     0
102
RTVSPost2010PropOp34
 70
     1
102
RTVSPost2010Prop35
280
     0
102
RTVSPost2010PropOp35
 70
     1
102
RTVSPost2010Prop36
280
     0
102
RTVSPost2010PropOp36
 70
     1
102
RTVSPost2010Prop37
 90
       50
102
RTVSPost2010PropOp37
 70
     1
102
RTVSPost2010Prop38
140
0.0
102
RTVSPost2010PropOp38
 70
     1
102
RTVSPost2010Prop39
140
1.0
102
RTVSPost2010PropOp39
 70
     1
102
RTVSPost2010Prop40
 90
        0
102
RTVSPost2010PropOp40
 70
     1
102
RTVSPost2010Prop41ColorIndex
 90
       18
102
RTVSPost2010Prop41ColorRGB
 90
        0
102
RTVSPost2010PropOp41
 70
     1
102
RTVSPost2010Prop42
 90
       50
102
RTVSPost2010PropOp42
 70
     1
102
RTVSPost2010Prop43
 90
        3
102
RTVSPost2010PropOp43
 70
     1
102
RTVSPost2010Prop44ColorIndex
 90
        5
102
RTVSPost2010Prop44ColorRGB
 90
      255
102
RTVSPost2010PropOp44
 70
     1
102
RTVSPost2010Prop45
280
     0
102
RTVSPost2010PropOp45
 70
     1
102
RTVSPost2010Prop46
 90
       50
102
RTVSPost2010PropOp46
 70
     1
102
RTVSPost2010Prop47
 90
       50
102
RTVSPost2010PropOp47
 70
     1
102
RTVSPost2010Prop48
 90
       50
102
RTVSPost2010PropOp48
 70
     1
102
RTVSPost2010Prop49
280
     0
102
RTVSPost2010PropOp49
 70
     1
102
RTVSPost2010Prop50
 90
       50
102
RTVSPost2010PropOp50
 70
     1
102
RTVSPost2010Prop51ColorIndex
 90
      256
102
RTVSPost2010Prop51ColorRGB
 90
-16777216
102
RTVSPost2010PropOp51
 70
     0
102
RTVSPost2010Prop52
140
1.0
102
RTVSPost2010PropOp52
 70
     0
102
RTVSPost2010Prop53
 90
        2
102
RTVSPost2010PropOp53
 70
     1
102
RTVSPost2010Prop54
  1
strokes_ogs.tif
102
RTVSPost2010PropOp54
 70
     1
102
RTVSPost2010Prop55
280
     0
102
RTVSPost2010PropOp55
 70
     1
102
RTVSPost2010Prop56
140
1.0
102
RTVSPost2010PropOp56
 70
     1
102
RTVSPost2010Prop57
140
1.0
102
RTVSPost2010PropOp57
 70
     1
  0
XRECORD
  5
1EB
102
{ACAD_REACTORS
330
1EA
102
}
330
1EA
100
AcDbXrecord
280
     1
102
RTVSPropertyOp0
 70
     1
102
RTVSPropertyOp1
 70
     1
102
RTVSPropertyOp2
 70
     1
102
RTVSPropertyOp3
 70
     1
102
RTVSPropertyOp4
 70
     1
102
RTVSPropertyOp5
 70
     1
102
RTVSPropertyOp6
 70
     1
102
RTVSPropertyOp7
 70
     1
102
RTVSPropertyOp8
 70
     1
102
RTVSPropertyOp9
 70
     1
102
RTVSPropertyOp10
 70
     1
102
RTVSPropertyOp11
 70
     1
102
RTVSPropertyOp12
 70
     1
102
RTVSPropertyOp13
 70
     1
102
RTVSPropertyOp14
 70
     1
102
RTVSPropertyOp15
 70
     1
102
RTVSPropertyOp16
 70
     1
102
RTVSPropertyOp17
 70
     1
102
RTVSPropertyOp18
 70
     1
102
RTVSPropertyOp19
 70
     1
102
RTVSPropertyOp20
 70
     1
102
RTVSPropertyOp21
 70
     1
102
RTVSPropertyOp22
 70
     1
102
RTVSPropertyOp23
 70
     1
102
RTVSPropertyOp24
 70
     1
102
RTVSPropertyOp25
 70
     1
102
RTVSPropertyOp26
 70
     1
102
RTVSPropertyOp27
 70
     1
102
RTVSPropertyOp28
 70
     1
102
RTVSPropertyOp29
 70
     1
102
RTVSPropertyOp30
 70
     1
102
RTVSPropertyOp31
 70
     1
102
RTVSPropertyOp32
 70
     1
102
RTVSPropertyOp33
 70
     1
102
RTVSPropertyOp34
 70
     1
102
RTVSPropertyOp35
 70
     1
102
RTVSPropertyOp36
 70
     1
102
RTVSPropertyOp37
 70
     1
102
RTVSPropertyOp38
 70
     1
102
RTVSPropertyOp39
 70
     1
102
RTVSPropertyOp40
 70
     1
102
RTVSPropertyOp41
 70
     1
102
RTVSPropertyOp42
 70
     1
102
RTVSPropertyOp43
 70
     1
102
RTVSPropertyOp44
 70
     1
102
RTVSPropertyOp45
 70
     1
102
RTVSPropertyOp46
 70
     1
102
RTVSPropertyOp47
 70
     1
102
RTVSPropertyOp48
 70
     1
102
RTVSPropertyOp49
 70
     1
102
RTVSPropertyOp50
 70
     1
102
RTVSPropertyOp51
 70
     0
102
RTVSPropertyOp52
 70
     0
102
RTVSPropertyOp53
 70
     1
102
RTVSPropertyOp54
 70
     1
102
RTVSPropertyOp55
 70
     1
102
RTVSPropertyOp56
 70
     1
102
RTVSPropertyOp57
 70
     1
102
RTVSPost2010Prop28
280
     0
102
RTVSPost2010PropOp28
 70
     1
102
RTVSPost2010Prop29
280
     1
102
RTVSPost2010PropOp29
 70
     1
102
RTVSPost2010Prop30
280
     1
102
RTVSPost2010PropOp30
 70
     1
102
RTVSPost2010Prop31
280
     0
102
RTVSPost2010PropOp31
 70
     1
102
RTVSPost2010Prop32
280
     0
102
RTVSPost2010PropOp32
 70
     1
102
RTVSPost2010Prop33
280
     0
102
RTVSPost2010PropOp33
 70
     1
102
RTVSPost2010Prop34
280
     0
102
RTVSPost2010PropOp34
 70
     1
102
RTVSPost2010Prop35
280
     0
102
RTVSPost2010PropOp35
 70
     1
102
RTVSPost2010Prop36
280
     0
102
RTVSPost2010PropOp36
 70
     1
102
RTVSPost2010Prop37
 90
       50
102
RTVSPost2010PropOp37
 70
     1
102
RTVSPost2010Prop38
140
0.0
102
RTVSPost2010PropOp38
 70
     1
102
RTVSPost2010Prop39
140
1.0
102
RTVSPost2010PropOp39
 70
     1
102
RTVSPost2010Prop40
 90
        0
102
RTVSPost2010PropOp40
 70
     1
102
RTVSPost2010Prop41ColorIndex
 90
       18
102
RTVSPost2010Prop41ColorRGB
 90
        0
102
RTVSPost2010PropOp41
 70
     1
102
RTVSPost2010Prop42
 90
       50
102
RTVSPost2010PropOp42
 70
     1
102
RTVSPost2010Prop43
 90
        3
102
RTVSPost2010PropOp43
 70
     1
102
RTVSPost2010Prop44ColorIndex
 90
        5
102
RTVSPost2010Prop44ColorRGB
 90
      255
102
RTVSPost2010PropOp44
 70
     1
102
RTVSPost2010Prop45
280
     0
102
RTVSPost2010PropOp45
 70
     1
102
RTVSPost2010Prop46
 90
       50
102
RTVSPost2010PropOp46
 70
     1
102
RTVSPost2010Prop47
 90
       50
102
RTVSPost2010PropOp47
 70
     1
102
RTVSPost2010Prop48
 90
       50
102
RTVSPost2010PropOp48
 70
     1
102
RTVSPost2010Prop49
280
     0
102
RTVSPost2010PropOp49
 70
     1
102
RTVSPost2010Prop50
 90
       50
102
RTVSPost2010PropOp50
 70
     1
102
RTVSPost2010Prop51ColorIndex
 90
      256
102
RTVSPost2010Prop51ColorRGB
 90
-16777216
102
RTVSPost2010PropOp51
 70
     0
102
RTVSPost2010Prop52
140
1.0
102
RTVSPost2010PropOp52
 70
     0
102
RTVSPost2010Prop53
 90
        2
102
RTVSPost2010PropOp53
 70
     1
102
RTVSPost2010Prop54
  1
strokes_ogs.tif
102
RTVSPost2010PropOp54
 70
     1
102
RTVSPost2010Prop55
280
     0
102
RTVSPost2010PropOp55
 70
     1
102
RTVSPost2010Prop56
140
1.0
102
RTVSPost2010PropOp56
 70
     1
102
RTVSPost2010Prop57
140
1.0
102
RTVSPost2010PropOp57
 70
     1
  0
XRECORD
  5
20B
102
{ACAD_REACTORS
330
20A
102
}
330
20A
100
AcDbXrecord
280
     1
102
RTVSPropertyOp0
 70
     1
102
RTVSPropertyOp1
 70
     1
102
RTVSPropertyOp2
 70
     1
102
RTVSPropertyOp3
 70
     1
102
RTVSPropertyOp4
 70
     1
102
RTVSPropertyOp5
 70
     1
102
RTVSPropertyOp6
 70
     1
102
RTVSPropertyOp7
 70
     1
102
RTVSPropertyOp8
 70
     1
102
RTVSPropertyOp9
 70
     1
102
RTVSPropertyOp10
 70
     1
102
RTVSPropertyOp11
 70
     1
102
RTVSPropertyOp12
 70
     1
102
RTVSPropertyOp13
 70
     1
102
RTVSPropertyOp14
 70
     1
102
RTVSPropertyOp15
 70
     1
102
RTVSPropertyOp16
 70
     1
102
RTVSPropertyOp17
 70
     1
102
RTVSPropertyOp18
 70
     1
102
RTVSPropertyOp19
 70
     1
102
RTVSPropertyOp20
 70
     1
102
RTVSPropertyOp21
 70
     1
102
RTVSPropertyOp22
 70
     1
102
RTVSPropertyOp23
 70
     1
102
RTVSPropertyOp24
 70
     1
102
RTVSPropertyOp25
 70
     1
102
RTVSPropertyOp26
 70
     1
102
RTVSPropertyOp27
 70
     1
102
RTVSPropertyOp28
 70
     1
102
RTVSPropertyOp29
 70
     1
102
RTVSPropertyOp30
 70
     1
102
RTVSPropertyOp31
 70
     1
102
RTVSPropertyOp32
 70
     1
102
RTVSPropertyOp33
 70
     1
102
RTVSPropertyOp34
 70
     1
102
RTVSPropertyOp35
 70
     1
102
RTVSPropertyOp36
 70
     1
102
RTVSPropertyOp37
 70
     1
102
RTVSPropertyOp38
 70
     1
102
RTVSPropertyOp39
 70
     1
102
RTVSPropertyOp40
 70
     1
102
RTVSPropertyOp41
 70
     1
102
RTVSPropertyOp42
 70
     1
102
RTVSPropertyOp43
 70
     1
102
RTVSPropertyOp44
 70
     1
102
RTVSPropertyOp45
 70
     1
102
RTVSPropertyOp46
 70
     1
102
RTVSPropertyOp47
 70
     1
102
RTVSPropertyOp48
 70
     1
102
RTVSPropertyOp49
 70
     1
102
RTVSPropertyOp50
 70
     1
102
RTVSPropertyOp51
 70
     0
102
RTVSPropertyOp52
 70
     0
102
RTVSPropertyOp53
 70
     1
102
RTVSPropertyOp54
 70
     1
102
RTVSPropertyOp55
 70
     1
102
RTVSPropertyOp56
 70
     1
102
RTVSPropertyOp57
 70
     1
102
RTVSPost2010Prop28
280
     0
102
RTVSPost2010PropOp28
 70
     1
102
RTVSPost2010Prop29
280
     1
102
RTVSPost2010PropOp29
 70
     1
102
RTVSPost2010Prop30
280
     1
102
RTVSPost2010PropOp30
 70
     1
102
RTVSPost2010Prop31
280
     0
102
RTVSPost2010PropOp31
 70
     1
102
RTVSPost2010Prop32
280
     0
102
RTVSPost2010PropOp32
 70
     1
102
RTVSPost2010Prop33
280
     0
102
RTVSPost2010PropOp33
 70
     1
102
RTVSPost2010Prop34
280
     0
102
RTVSPost2010PropOp34
 70
     1
102
RTVSPost2010Prop35
280
     0
102
RTVSPost2010PropOp35
 70
     1
102
RTVSPost2010Prop36
280
     0
102
RTVSPost2010PropOp36
 70
     1
102
RTVSPost2010Prop37
 90
       50
102
RTVSPost2010PropOp37
 70
     1
102
RTVSPost2010Prop38
140
0.0
102
RTVSPost2010PropOp38
 70
     1
102
RTVSPost2010Prop39
140
1.0
102
RTVSPost2010PropOp39
 70
     1
102
RTVSPost2010Prop40
 90
        0
102
RTVSPost2010PropOp40
 70
     1
102
RTVSPost2010Prop41ColorIndex
 90
       18
102
RTVSPost2010Prop41ColorRGB
 90
        0
102
RTVSPost2010PropOp41
 70
     1
102
RTVSPost2010Prop42
 90
       50
102
RTVSPost2010PropOp42
 70
     1
102
RTVSPost2010Prop43
 90
        3
102
RTVSPost2010PropOp43
 70
     1
102
RTVSPost2010Prop44ColorIndex
 90
        5
102
RTVSPost2010Prop44ColorRGB
 90
      255
102
RTVSPost2010PropOp44
 70
     1
102
RTVSPost2010Prop45
280
     0
102
RTVSPost2010PropOp45
 70
     1
102
RTVSPost2010Prop46
 90
       50
102
RTVSPost2010PropOp46
 70
     1
102
RTVSPost2010Prop47
 90
       50
102
RTVSPost2010PropOp47
 70
     1
102
RTVSPost2010Prop48
 90
       50
102
RTVSPost2010PropOp48
 70
     1
102
RTVSPost2010Prop49
280
     0
102
RTVSPost2010PropOp49
 70
     1
102
RTVSPost2010Prop50
 90
       50
102
RTVSPost2010PropOp50
 70
     1
102
RTVSPost2010Prop51ColorIndex
 90
      256
102
RTVSPost2010Prop51ColorRGB
 90
-16777216
102
RTVSPost2010PropOp51
 70
     0
102
RTVSPost2010Prop52
140
1.0
102
RTVSPost2010PropOp52
 70
     0
102
RTVSPost2010Prop53
 90
        2
102
RTVSPost2010PropOp53
 70
     1
102
RTVSPost2010Prop54
  1
strokes_ogs.tif
102
RTVSPost2010PropOp54
 70
     1
102
RTVSPost2010Prop55
280
     0
102
RTVSPost2010PropOp55
 70
     1
102
RTVSPost2010Prop56
140
1.0
102
RTVSPost2010PropOp56
 70
     1
102
RTVSPost2010Prop57
140
1.0
102
RTVSPost2010PropOp57
 70
     1
  0
ENDSEC
  0
EOF
